#VERSION:0.83;
#TITLE:LION HEART;
#SUBTITLE:;
#ARTIST:Girls' Generation;
#TITLETRANSLIT:;
#SUBTITLETRANSLIT:;
#ARTISTTRANSLIT:;
#GENRE:;
#ORIGIN:;
#CREDIT:;
#BANNER:AV.avi;
#BACKGROUND:LionHeart-bg.png;
#PREVIEWVID:;
#JACKET:;
#CDIMAGE:;
#DISCIMAGE:LionHeart-bn.png;
#LYRICSPATH:;
#CDTITLE:;
#MUSIC:SNSD - LION HEART.mp3;
#OFFSET:0.581000;
#SAMPLESTART:93.379997;
#SAMPLELENGTH:17.000000;
#SELECTABLE:YES;
#BPMS:0.000=125.020,
282.000=124.020,
289.000=125.020;
#STOPS:;
#DELAYS:;
#WARPS:;
#TIMESIGNATURES:0.000=4=4;
#TICKCOUNTS:0.000=4;
#COMBOS:0.000=1;
#SPEEDS:0.000=1.000=0.000=0;
#SCROLLS:0.000=1.000;
#FAKES:;
#LABELS:0.000=Song Start;
#BGCHANGES:0.000=LionHeart.avi=1.200=1=1=1=StretchRewind==CrossFade==,
2.000=LionHeart.avi=1.000=0=0=1=====,
99999=-nosongbg-=1.000=0=0=0 // don't automatically add -songbackground-
;
#KEYSOUNDS:;
#ATTACKS:
;

//---------------dance-single - Copied from----------------
#NOTEDATA:;
#CHARTNAME:Copied from;
#STEPSTYPE:dance-single;
#DESCRIPTION:Copied from;
#CHARTSTYLE:;
#DIFFICULTY:Hard;
#METER:9;
#RADARVALUES:0.371123,0.438153,0.126110,0.220692,0.000000,412.000000,392.000000,20.000000,35.000000,0.000000,0.000000,0.000000,0.000000,0.000000,0.371123,0.438153,0.126110,0.220692,0.000000,412.000000,392.000000,20.000000,35.000000,0.000000,0.000000,0.000000,0.000000,0.000000;
#CREDIT:Copied from;
#NOTES:
// measure 0
0000
0000
0000
0000
,  // measure 1
0000
0000
0000
0000
,  // measure 2
0000
0000
0000
0000
,  // measure 3
0000
0000
0000
0000
,  // measure 4
0000
0000
0000
1000
,  // measure 5
0000
0100
0000
1000
,  // measure 6
0000
0010
0000
1000
,  // measure 7
0000
0001
0000
1000
,  // measure 8
0000
0010
0000
0100
,  // measure 9
0000
0010
0000
1000
,  // measure 10
0000
0001
0000
0010
,  // measure 11
0000
0100
0000
1000
,  // measure 12
0000
0001
0001
0000
0100
0010
0100
0010
,  // measure 13
0000
1000
1000
0000
0010
0100
0010
0100
,  // measure 14
0000
0001
0001
0000
1000
0010
1000
0010
,  // measure 15
0000
0100
0010
0000
1000
0100
0010
0001
,  // measure 16
0000
0010
0100
0000
1000
0100
1000
0100
,  // measure 17
1000
0100
1000
0100
1000
0100
1000
0100
,  // measure 18
1000
0100
1000
0100
0010
0001
0010
0001
,  // measure 19
0010
0001
0010
0001
0010
0001
0010
0001
,  // measure 20
0010
0001
0010
0001
1000
0000
0100
0000
,  // measure 21
0010
0100
0010
0000
2000
0000
0010
0000
,  // measure 22
3100
0000
0010
0000
0100
0010
0100
0000
,  // measure 23
0001
0010
0001
0000
2000
0000
0010
0000
,  // measure 24
0100
3001
0100
0010
,  // measure 25
1000
0100
0020
0001
,  // measure 26
0100
0000
0031
1000
0010
0100
0010
0100
,  // measure 27
0001
0100
0010
0100
0001
0000
2000
0000
,  // measure 28
0100
0000
3010
0100
0010
0100
0010
0100
,  // measure 29
0001
0100
0010
0100
0001
0000
2000
0000
,  // measure 30
3010
0000
0100
0010
0200
0000
1300
0000
,  // measure 31
0200
0301
0020
1030
,  // measure 32
0020
0000
0031
0000
0200
0000
1300
0010
,  // measure 33
0100
0010
2000
0010
,  // measure 34
0100
3000
0010
1000
0100
1000
0010
1000
,  // measure 35
0001
1000
0010
1000
0100
0000
0010
0000
,  // measure 36
0100
0000
0010
1000
0100
0010
0001
1000
,  // measure 37
0010
0100
0001
1000
0100
0000
0010
0000
,  // measure 38
0001
0000
1000
0100
2000
0000
3100
0000
,  // measure 39
0020
0130
0002
1003
,  // measure 40
2000
3001
0020
0130
,  // measure 41
0200
0310
1100
0110
,  // measure 42
0011
1100
0110
1001
,  // measure 43
0110
0000
0011
0000
1000
0001
1000
0001
,  // measure 44
1000
0000
0001
1000
0001
1000
0001
0000
,  // measure 45
0100
0010
1000
1000
,  // measure 46
0100
0100
0010
0010
,  // measure 47
0001
0000
0001
0000
1000
0001
1000
0001
,  // measure 48
1000
0000
0010
0100
0010
0100
0010
0000
,  // measure 49
1000
0100
0020
0001
,  // measure 50
0100
0030
1000
0100
1000
0100
1000
0100
,  // measure 51
0010
0100
0010
0100
0010
0000
0002
0000
,  // measure 52
0100
0000
0103
0010
1000
0100
1000
0010
,  // measure 53
1000
0100
1000
0010
1000
0000
0200
0000
,  // measure 54
0310
0000
1000
0001
2000
0000
3010
0000
,  // measure 55
0020
0130
0002
1000
,  // measure 56
0103
0000
2000
0000
0010
0000
3100
0010
,  // measure 57
0100
0001
0100
0010
0200
0000
0010
0000
,  // measure 58
0001
0000
0310
1000
0100
1000
0010
1000
,  // measure 59
0001
1000
0100
1000
0010
0000
0011
0000
,  // measure 60
1100
0000
0110
0000
1100
0001
0100
0010
,  // measure 61
0100
0001
0100
0010
0100
0000
0020
0000
,  // measure 62
1030
0000
1000
0100
2000
0000
3100
0000
,  // measure 63
0020
0130
0002
1003
,  // measure 64
0100
0000
0010
1000
0010
0000
0100
0000
,  // measure 65
0010
1000
0101
1010
,  // measure 66
0100
0010
0100
0010
2000
0000
0010
0000
,  // measure 67
0100
0000
3010
0000
0001
0010
0100
0000
,  // measure 68
0001
1000
0001
0000
0100
0010
0100
0010
,  // measure 69
0200
0310
2000
3100
,  // measure 70
0110
0000
1100
0000
0001
0010
0001
0000
,  // measure 71
1100
0110
0001
0001
,  // measure 72
1001
0100
0010
0010
,  // measure 73
0110
0000
1000
0000
1000
0100
1000
0000
,  // measure 74
0010
0001
0010
0000
0100
0010
0100
0000
,  // measure 75
1000
0001
1000
0000
0010
0100
0010
0000
,  // measure 76
0010
0001
0010
0000
0100
1000
0100
0000
,  // measure 77
0010
0100
0010
0000
1000
0001
1000
0000
,  // measure 78
0001
1000
0001
0000
0100
0010
0100
0000
,  // measure 79
0001
1000
0001
0000
0020
0000
0130
0000
,  // measure 80
2000
3001
0002
0000
,  // measure 81
0000
0000
0000
0003
;

//---------------dance-single - Copied from Copied f----------------
#NOTEDATA:;
#CHARTNAME:Copied from Copied f;
#STEPSTYPE:dance-single;
#DESCRIPTION:Copied from Copied f;
#CHARTSTYLE:;
#DIFFICULTY:Medium;
#METER:6;
#RADARVALUES:0.288251,0.334546,0.000000,0.157637,0.000000,320.000000,320.000000,0.000000,25.000000,0.000000,0.000000,0.000000,0.000000,0.000000,0.288251,0.334546,0.000000,0.157637,0.000000,320.000000,320.000000,0.000000,25.000000,0.000000,0.000000,0.000000,0.000000,0.000000;
#CREDIT:Copied from Copied f;
#NOTES:
0000
0000
0000
0000
,
0000
0000
0000
0000
,
0000
0000
0000
0000
,
0000
0000
0000
0000
,
0000
0000
0000
0100
,
0000
0100
0000
0010
,
0000
0010
0000
0001
,
0000
0001
0000
1000
,
0000
0010
0000
1000
,
0000
0010
0000
0100
,
0000
0010
0000
1000
,
0000
0001
0000
1000
,
0000
0100
0100
0000
0010
0000
0100
0000
,
0010
1000
0001
1000
,
0100
1000
0001
0010
,
0100
1000
0001
0100
,
0010
1000
0100
0100
,
1000
1000
0010
0010
,
0001
0001
1000
1000
,
0100
0100
0010
0010
,
0100
0000
0100
0000
1000
0001
1000
0000
,
0001
1000
0001
0000
2000
0000
0010
0000
,
0001
0000
3100
0000
0010
0100
0010
0000
,
0100
0010
0100
0000
0200
0000
0010
0000
,
0001
0310
1000
0100
,
0010
0001
2000
0001
,
0100
0000
3010
0000
0100
0010
0100
0000
,
0010
0100
0010
0000
2000
0000
0100
0000
,
0010
0000
3001
0000
0001
1000
0001
0000
,
1000
0001
1000
0000
0200
0000
0010
0000
,
0001
0310
1000
1000
,
0100
0100
0020
0031
,
0200
1300
2000
3001
,
0100
0001
0100
0000
2000
0000
0010
0000
,
0001
0000
3010
0000
0100
0010
0100
0000
,
1000
0001
1000
0000
0020
0000
0100
0000
,
1000
0000
0001
0030
0001
1000
0001
0000
,
1000
0001
1000
0000
0200
0000
0010
0000
,
1000
0000
0310
0000
0001
1000
0001
0000
,
1000
0001
1000
0000
0020
0000
0130
0000
,
2000
3001
0002
0103
,
2000
3010
0100
0100
,
0100
0100
0010
0010
,
0010
0010
0001
0001
,
0001
0001
1000
1000
,
1000
1000
0100
0100
,
0100
0100
0010
0010
,
0010
0000
0010
0000
1000
0001
1000
0001
,
1000
0000
0001
1000
0001
1000
0001
0000
,
0100
0010
0200
0010
,
0001
0000
0310
0000
1000
0100
1000
0000
,
0001
0010
0001
0000
1000
0000
0002
0000
,
1000
0000
1003
0000
0010
0100
0010
0000
,
0100
0010
0100
0000
0010
0000
0200
0000
,
0010
0310
1000
1000
,
0100
0100
0002
1000
,
0010
0003
2000
0000
0100
0000
0010
3000
,
0001
0100
0001
0000
2000
0000
0100
0000
,
0010
0000
3001
0000
0100
0010
0100
0000
,
1000
0001
1000
0000
0010
0000
1000
0000
,
1000
0000
0100
0000
0100
0010
0100
0000
,
1000
0001
1000
0000
0010
0000
0200
0000
,
0310
0000
0001
1000
0001
0000
1000
0000
,
0001
1000
0001
0010
,
0100
0000
1000
0100
1000
0000
0010
0000
,
0100
0001
0010
0010
,
0100
0000
0100
0000
1000
0000
1000
0001
,
0000
0001
0000
0001
0100
0000
0100
0000
,
0010
0000
0010
0000
1000
0000
1000
0001
,
0000
0001
0000
0001
0010
0000
0010
0000
,
0100
0000
0100
0000
1000
0000
1000
0001
,
0000
0001
0000
0100
0001
0000
0000
0001
,
0000
0000
0000
1000
0000
1000
0000
0010
,
0100
0010
1000
1000
,
1000
1000
0100
0100
,
0100
0100
0010
0010
,
0010
0010
0001
0001
,
0001
0001
1000
1000
,
1000
1000
0100
0100
,
0100
0100
0020
0000
,
0230
0000
0302
0000
,
0000
0000
0000
0000
0000
0003
0000
0000
;

//---------------dance-single - Copied from Copied f----------------
#NOTEDATA:;
#CHARTNAME:Copied from Copied f;
#STEPSTYPE:dance-single;
#DESCRIPTION:Copied from Copied f;
#CHARTSTYLE:;
#DIFFICULTY:Easy;
#METER:4;
#RADARVALUES:0.197272,0.257753,0.000000,0.195470,0.000000,219.000000,219.000000,0.000000,31.000000,0.000000,0.000000,0.000000,0.000000,0.000000,0.197272,0.257753,0.000000,0.195470,0.000000,219.000000,219.000000,0.000000,31.000000,0.000000,0.000000,0.000000,0.000000,0.000000;
#CREDIT:Copied from Copied f;
#NOTES:
0000
0000
0000
0000
,
0000
0000
0000
0000
,
0000
0000
0000
0000
,
0000
0000
0000
0000
,
0000
0000
0000
1000
,
0000
0100
0000
1000
,
0000
0001
0000
0010
,
0000
0001
0000
1000
,
0000
0001
0000
0010
,
0000
0100
0000
0001
,
0000
1000
0000
0001
,
0000
0100
0000
0010
,
0000
0001
0001
0000
1000
0000
0000
0000
,
0100
0000
1000
0000
,
0001
0000
0010
0001
,
0010
0000
1000
0000
,
0001
0000
1000
0001
,
1000
0000
0010
0100
,
0010
0000
1000
0000
,
0001
0000
1000
0010
,
1000
0000
1000
1000
,
0100
0000
0020
0000
,
0000
0000
0000
0030
0001
0000
0001
0000
,
0001
0000
2000
0000
,
0000
0000
0000
3000
0100
0000
0100
0000
,
0010
0010
0002
0000
,
0000
0003
1000
1000
,
0100
0010
0100
0000
0001
0000
1000
0000
,
0000
0000
0001
1000
,
0001
1000
0001
0000
1000
0000
0001
0000
,
0000
0100
0010
0010
,
1000
1000
0002
0000
,
2003
0000
0000
0000
3200
0000
0000
0300
,
0010
0010
0002
0000
,
0000
0003
1000
1000
,
0100
0100
0020
0002
,
0000
0033
0000
0000
1000
0000
1000
0000
,
0100
0100
0002
2000
,
0000
3003
0000
0000
1000
0000
1000
0000
,
0100
0100
0020
0000
,
0032
0000
2003
0000
,
3200
0000
0000
0300
0010
0000
0010
0000
,
0001
0000
0000
0000
1000
0000
1000
0001
,
0000
0001
1000
0000
0100
0000
0100
0000
,
0100
0000
0000
0000
0010
0000
0010
0100
,
0000
0100
0010
0000
0001
0000
0001
0000
,
0001
0000
0000
0000
1000
0000
1000
0001
,
0000
0001
1000
0000
0010
0000
0010
0000
,
0010
0000
0000
0000
0100
0000
0100
0010
,
0000
0010
1000
0000
0002
0000
0000
0000
,
0000
0003
1000
1000
,
0100
0100
0010
0020
,
0000
0030
0001
0001
,
1000
1000
0100
0200
,
0000
0300
0010
0010
,
0001
0001
0002
0000
,
2003
0000
0000
0000
3200
0000
0000
0300
,
0010
0010
0020
0000
,
0000
0030
0001
0001
,
1000
1000
0100
0200
,
0000
0300
0010
0010
,
0001
0001
1000
2000
,
0000
3000
0100
0100
,
0010
0010
0002
0000
,
2003
0000
3200
0000
,
0302
0000
0000
0003
1000
0000
1000
0000
,
0100
0000
0100
0000
0010
0000
0010
0001
,
0000
0001
0000
1000
0001
0000
0001
0000
,
0100
0000
0010
0000
1000
0000
0001
1000
,
0000
1000
0000
0100
0010
0000
0010
0000
,
0001
0000
1000
0000
0001
0000
1000
0001
,
0000
0001
0000
1000
0001
0000
0000
1000
,
0000
0000
0000
0100
0000
0100
0000
0010
,
0100
0010
0001
0000
,
1000
0000
0100
0000
,
1000
0000
0001
0000
,
1000
0000
0010
0000
,
0100
0000
0010
0000
,
1000
0000
0001
0000
,
1000
0000
2000
0000
,
3002
0000
0023
0000
,
0000
0000
0000
0000
0000
0000
0000
0000
0000
0000
0000
0000
0000
0000
0000
0000
0000
0000
0000
0000
0000
0000
0000
0000
0000
0000
0000
0000
0000
0000
0000
0000
0000
0000
0000
0000
0000
0000
0000
0000
0000
0000
0000
0000
0000
0000
0000
0000
0000
0000
0000
0000
0000
0000
0000
0000
0000
0000
0000
0000
0000
0000
0000
0000
0000
0000
0000
0000
0000
0000
0000
0000
0000
0000
0000
0000
0000
0000
0000
0000
0000
0000
0000
0000
0000
0000
0000
0000
0000
0000
0000
0000
0000
0000
0000
0000
0000
0000
0000
0000
0000
0000
0000
0000
0000
0000
0000
0000
0000
0000
0000
0000
0000
0000
0000
0000
0000
0000
0000
0000
0000
0000
0000
0000
0000
0000
0000
0000
0000
0000
0000
0000
0000
0000
0000
0000
0000
0000
0000
0000
0000
0000
0000
0000
0000
0030
0000
0000
0000
0000
0000
0000
0000
0000
0000
0000
0000
0000
0000
0000
0000
0000
0000
0000
0000
0000
0000
0000
0000
0000
0000
0000
0000
0000
0000
0000
0000
0000
0000
0000
0000
0000
0000
0000
0000
0000
0000
0000
0000
0000
0000
0000
;

//---------------dance-single - Copied from Copied f----------------
#NOTEDATA:;
#CHARTNAME:Copied from Copied f;
#STEPSTYPE:dance-single;
#DESCRIPTION:Copied from Copied f;
#CHARTSTYLE:;
#DIFFICULTY:Beginner;
#METER:3;
#RADARVALUES:0.164843,0.257753,0.000000,0.195470,0.000000,183.000000,183.000000,0.000000,31.000000,0.000000,0.000000,0.000000,0.000000,0.000000,0.164843,0.257753,0.000000,0.195470,0.000000,183.000000,183.000000,0.000000,31.000000,0.000000,0.000000,0.000000,0.000000,0.000000;
#CREDIT:Copied from Copied f;
#NOTES:
0000
0000
0000
0000
,
0000
0000
0000
0000
,
0000
0000
0000
0000
,
0000
0000
0000
0000
,
0000
0000
0000
1000
,
0000
0000
0000
1000
,
0000
0001
0000
0000
,
0000
0001
0000
0000
,
0000
0001
0000
0000
,
0000
0100
0000
0000
,
0000
1000
0000
0000
,
0000
0100
0000
0000
,
0000
0001
0001
0000
1000
0000
0000
0000
,
0000
0000
1000
0000
,
0001
0000
0010
0000
,
0010
0000
1000
0000
,
0001
0000
1000
0000
,
1000
0000
0010
0000
,
0010
0000
1000
0000
,
0001
0000
1000
0000
,
1000
0000
1000
0000
,
0100
0000
0020
0000
,
0000
0000
0000
0030
0001
0000
0000
0000
,
0001
0000
2000
0000
,
0000
0000
0000
3000
0100
0000
0000
0000
,
0010
0000
0002
0000
,
0000
0003
1000
1000
,
0100
0100
0001
1000
,
0000
0000
0001
1000
,
0001
0001
1000
0001
,
0000
0100
0000
0010
,
0000
1000
0002
0000
,
2003
0000
0000
0000
3200
0000
0000
0300
,
0010
0000
0002
0000
,
0000
0003
1000
0000
,
0100
0000
0020
0002
,
0000
0033
0000
0000
1000
0000
0000
0000
,
0100
0000
0002
2000
,
0000
3003
0000
0000
1000
0000
0000
0000
,
0100
0000
0020
0000
,
0032
0000
2003
0000
,
3200
0000
0000
0300
0010
0000
0000
0000
,
0001
0000
1000
1000
,
0000
1000
0100
0100
,
0100
0000
0010
0010
,
0000
0010
0001
0001
,
0001
0000
1000
1000
,
0000
1000
0010
0010
,
0010
0000
0100
0100
,
0000
1000
0002
0000
,
0000
0003
1000
1000
,
0100
0100
0010
0020
,
0000
0030
0001
0001
,
1000
1000
0100
0200
,
0000
0300
0010
0010
,
0001
0001
0002
0000
,
2003
0000
0000
0000
3200
0000
0000
0300
,
0010
0010
0020
0000
,
0000
0030
0001
0001
,
1000
1000
0100
0200
,
0000
0300
0010
0010
,
0001
0001
1000
2000
,
0000
3000
0100
0100
,
0010
0010
0002
0000
,
2003
0000
3200
0000
,
0302
0000
0000
0003
1000
0000
1000
0000
,
0100
0000
0100
0000
0010
0000
0010
0001
,
0000
0001
0000
1000
0001
0000
0001
0000
,
0100
0000
0010
0000
1000
0000
0001
1000
,
0000
1000
0000
0100
0010
0000
0010
0000
,
0001
0000
1000
0000
0001
0000
1000
0001
,
0000
0001
0000
1000
0001
0000
0000
1000
,
0000
0000
0000
0100
0000
0100
0000
0010
,
0100
0010
0001
0000
,
1000
0000
0100
0000
,
1000
0000
0001
0000
,
1000
0000
0010
0000
,
0100
0000
0010
0000
,
1000
0000
0001
0000
,
1000
0000
2000
0000
,
3002
0000
0023
0000
,
0000
0000
0000
0000
0000
0000
0000
0000
0000
0000
0000
0000
0000
0000
0000
0000
0000
0000
0000
0000
0000
0000
0000
0000
0000
0000
0000
0000
0000
0000
0000
0000
0000
0000
0000
0000
0000
0000
0000
0000
0000
0000
0000
0000
0000
0000
0000
0000
0000
0000
0000
0000
0000
0000
0000
0000
0000
0000
0000
0000
0000
0000
0000
0000
0000
0000
0000
0000
0000
0000
0000
0000
0000
0000
0000
0000
0000
0000
0000
0000
0000
0000
0000
0000
0000
0000
0000
0000
0000
0000
0000
0000
0000
0000
0000
0000
0000
0000
0000
0000
0000
0000
0000
0000
0000
0000
0000
0000
0000
0000
0000
0000
0000
0000
0000
0000
0000
0000
0000
0000
0000
0000
0000
0000
0000
0000
0000
0000
0000
0000
0000
0000
0000
0000
0000
0000
0000
0000
0000
0000
0000
0000
0000
0000
0000
0030
0000
0000
0000
0000
0000
0000
0000
0000
0000
0000
0000
0000
0000
0000
0000
0000
0000
0000
0000
0000
0000
0000
0000
0000
0000
0000
0000
0000
0000
0000
0000
0000
0000
0000
0000
0000
0000
0000
0000
0000
0000
0000
0000
0000
0000
0000
;

//---------------dance-single - Copied from Copied f----------------
#NOTEDATA:;
#CHARTNAME:Copied from Copied f;
#STEPSTYPE:dance-single;
#DESCRIPTION:Copied from Copied f;
#CHARTSTYLE:;
#DIFFICULTY:Challenge;
#METER:15;
#RADARVALUES:0.700810,0.927853,1.097155,1.349375,0.201776,778.000000,602.000000,174.000000,214.000000,0.000000,84.000000,0.000000,0.000000,0.000000,0.700810,0.927853,1.097155,1.349375,0.201776,778.000000,602.000000,174.000000,214.000000,0.000000,84.000000,0.000000,0.000000,0.000000;
#CREDIT:Copied from Copied f;
#NOTES:
0000
0000
0000
0000
,
0000
0000
0000
0000
,
0000
0000
0000
0000
,
0000
0000
0000
0000
,
0000
0000
0000
0000
0200
0010
1001
1000
,
0000
0300
0110
0001
1000
0010
1100
0001
,
0100
0000
0011
0100
2000
0100
0011
0010
,
3000
0000
1001
0100
0010
0001
1100
0010
,
1000
0000
0110
1000
0001
0100
1001
0010
,
0100
0000
1100
0010
1000
0100
0011
0100
,
1000
0000
0101
0020
0100
0031
1100
0010
,
0000
0000
0110
0000
1000
0010
0100
0001
,
0000
1001
1001
0000
2000
0100
0010
0100
,
0000
3101
0101
0010
1000
0010
0100
0010
,
0001
1010
0101
0010
1000
0010
0100
0001
,
1000
0110
1001
0010
1000
0100
0010
0001
,
1000
0000
0110
0000
1001
0000
0000
0000
2010
0000
0100
0010
3200
0000
0010
0000
,
0302
0000
1010
0000
1203
0000
0320
0000
1030
0000
0200
1000
0320
0000
0031
0000
,
0200
0000
1310
0000
2001
0000
3020
0000
0100
0000
1030
0001
1000
0000
0010
0000
,
0001
0000
1100
0000
0011
0000
1000
0000
0100
0000
1000
0100
0010
0000
0001
0000
,
0010
0000
1100
0011
1100
0000
0001
0000
0010
0000
0100
0010
0100
0000
0001
0000
,
0010
0000
1000
0000
0010
0000
0002
0000
0010
0000
1000
0010
0200
0000
1003
0000
,
0320
0000
1000
0000
0031
0000
0010
0000
0100
0000
0100
0010
0100
0000
0001
0000
,
0010
1000
0100
0020
1000
1100
1001
0101
,
1100
1001
0101
1100
0030
1001
0110
1010
,
0101
0000
1000
0100
0010
0000
0001
0000
2010
0000
0100
0000
0010
0000
0001
0000
,
0010
0000
3100
0000
0101
0000
2000
0000
0200
3000
0020
0300
0002
0030
0200
0003
,
2002
0300
0020
3003
0200
0030
0002
0300
0200
0003
1000
0301
0020
0000
1000
0000
,
0100
0000
1030
0000
1001
0000
0020
0000
0200
0030
2000
0300
0200
3000
0020
0300
,
0002
0030
0020
0003
0002
0030
0020
0003
0200
0030
1000
0301
2000
0000
0010
0000
,
0001
3000
0010
0000
0100
0000
0010
0000
2002
0000
0000
3003
0220
0000
0000
0330
,
2200
0000
0000
3300
0220
0000
0000
0330
0202
0000
1000
0010
1000
0000
0313
0000
,
2020
0000
0100
0000
0001
0000
3130
0000
0202
0000
1000
0010
1303
0000
0100
0000
,
0010
0000
0001
0010
0001
0000
0100
0000
2001
0000
0001
0000
0100
0000
0010
0000
,
0100
0000
3001
0000
0010
0000
2000
0000
0200
3000
0020
0300
0002
0030
0020
0003
,
0200
0030
2000
0300
0200
3000
0020
0300
0002
0030
1000
0103
2000
0000
0001
0000
,
0010
0000
3001
0000
1001
0000
0002
0000
0020
0003
0200
0030
2000
0300
0200
3000
,
0020
0300
0002
0030
0020
0003
0200
0030
2000
0300
0001
3010
0200
0000
1000
0000
,
0010
0300
0001
0000
0010
0000
1000
0000
0202
0000
0000
0303
2020
0000
0000
3030
,
0220
0000
0000
0330
0202
0000
0000
0303
2020
0000
0100
0001
0100
0000
0001
3030
,
0202
0000
1000
0000
0010
0000
1000
0303
0220
0000
1000
0001
1000
0000
0001
0330
,
2002
0000
0100
0010
0103
3000
0001
0000
1010
0000
0001
0010
1001
0000
0001
0000
,
0110
0000
1000
0000
0100
0000
0010
0000
1001
0000
1000
0100
0011
0000
0011
0000
,
0010
0000
1001
0100
1001
0000
0001
0000
0110
0000
1000
0100
0011
0000
0001
0000
,
0110
0000
1000
0000
0001
0000
0010
0000
0101
0000
1000
0001
1010
0000
0110
0000
,
0100
0000
1001
0000
0110
0000
0010
0000
1002
0000
0100
1003
0120
0000
0032
0000
,
0123
0000
1000
0030
0002
0000
0010
0000
1103
0000
0100
0010
0102
0000
1023
0000
,
2030
0000
3011
0000
2001
0000
3002
0000
0110
0000
1000
0010
1100
0000
0010
0000
,
1100
0000
0013
0000
1000
0000
0001
0000
0110
0000
0010
1000
0101
0000
0110
0000
,
0010
0000
1100
0010
1001
0000
0010
0000
2100
0000
0001
0000
0010
0000
0100
0000
,
0010
0000
3002
0000
0023
0000
0200
0000
0002
0300
2233
0000
0020
3300
0002
0030
,
0220
0003
2000
0330
0002
3000
0020
0003
0002
0030
0100
0013
2000
0000
0100
0000
,
0002
0000
3100
0000
0023
0000
2000
0000
0032
3000
0200
0003
0002
0300
2200
0003
,
0020
3000
2000
0030
0020
3000
2000
0030
0302
3000
0100
0013
0200
0000
0002
0000
,
0010
0300
1003
0000
0002
0000
2000
0000
0223
0000
3000
0330
2002
0000
0000
3003
,
0202
0000
0000
0303
2002
0000
0000
3003
0022
0000
0100
1000
0100
0000
1033
0000
,
2210
0000
0001
0000
0022
0003
3331
0000
0022
0000
1000
0100
1033
0000
0001
0000
,
1000
0000
0010
1000
0010
0000
0001
0000
0210
0000
0010
0000
0020
0000
1030
0000
,
0001
0000
0310
0000
1000
0000
0200
0000
0002
0300
2000
0003
0020
3000
2000
0030
,
0002
3000
0200
0003
0002
0300
2000
0003
0020
3000
0100
0031
0200
0000
0001
0000
,
2000
0000
0310
0000
3200
0000
0020
0000
2300
0030
0002
3000
0200
0003
0002
0300
,
2000
0003
0020
3000
2000
0030
0002
3000
0200
0003
0010
1300
0002
0000
0200
0000
,
1300
0003
0020
0000
2030
0000
3200
0000
0322
0000
0000
0033
2200
0000
0000
3300
,
2002
0000
0000
3003
0022
0000
0000
0033
2200
0000
0000
0000
0000
0000
0000
3300
,
0022
0000
0000
0000
2000
0000
3200
0033
2312
0000
0000
0000
0200
0000
0300
3003
,
0220
0000
0000
0000
2000
0000
3330
0000
1001
0000
0100
0000
0110
1000
0010
0001
,
0110
0000
0000
0000
0000
0000
1000
0000
0010
0000
0000
0000
0101
0000
0000
1000
0000
0000
0000
0000
0000
0010
0000
0000
0101
0000
0000
0000
0000
0000
0100
0000
0000
0010
0000
0000
0101
0000
0000
0000
0000
0000
2020
0000
0000
0000
0000
0000
,
0000
3030
0101
0000
0000
0000
0011
0100
1001
0000
0100
0001
1010
0000
0001
1000
,
0110
0000
1000
0001
1010
0100
0010
0000
0101
1000
0010
1000
0101
0000
1100
0001
,
0100
0000
0110
0000
0001
0000
1100
0100
0110
0000
0001
1000
0110
0001
1000
0010
,
1100
0000
0001
0000
0110
0000
1000
0010
1100
0000
0001
0010
1001
0100
1001
0010
,
0100
0000
1001
0000
0010
0000
0101
0000
1100
0010
0000
0000
1000
0010
0101
0000
,
0001
0000
0100
0010
0100
0000
1001
0000
1000
0001
0110
0000
1000
0010
1001
0000
,
1001
0000
0010
1000
0110
0000
0010
0000
1001
0000
0000
0000
1010
0000
1010
0000
,
0000
0000
0110
0000
0000
0100
1010
1010
,
0100
0000
0110
2000
0000
3000
0101
0101
,
0000
0000
1010
0000
0001
0000
0110
0110
,
0000
1000
0101
0000
0002
0000
1013
1010
,
0000
0000
0110
0000
1000
0000
0110
0110
,
0000
0000
0010
0000
0100
0000
0000
0000
2200
0000
0000
0000
0000
0000
0000
3300
,
0022
0000
0000
0000
0000
0000
0000
0033
2002
0000
0000
0000
0000
0000
0000
0000
,
0000
0000
0000
3003
;
