#TITLE:-Like Me;
#SUBTITLE:;
#ARTIST:SHK;
#TITLETRANSLIT:;
#SUBTITLETRANSLIT:;
#ARTISTTRANSLIT:;
#GENRE:;
#CREDIT:;
#BANNER:AV.avi;
#BACKGROUND:LIKE.PNG;
#LYRICSPATH:;
#CDTITLE:;
#MUSIC:Like Me.mp3;
#OFFSET:0.040000;
#SAMPLESTART:66.199997;
#SAMPLELENGTH:15.000000;
#SELECTABLE:YES;
#DISPLAYBPM:155.000000;
#BPMS:0.000000=155.000000
,56832.000000=310.000000
;
#STOPS:56832.000000=2.000000
;
#BGCHANGES:0.000=Like Me.avi=1.200=0=0=1=====,
2.000=Like Me.avi=1.000=0=0=1=====,
99999=-nosongbg-=1.000=0=0=0 // don't automatically add -songbackground-
;
#KEYSOUNDS:;
#ATTACKS:;

//---------------pump-single - Copied from----------------
#NOTES:
     pump-single:
     Copied from:
     Beginner:
     10:
     0.556411,0.553532,1.265216,0.082694,0.000000,471.000000,318.000000,153.000000,10.000000,0.000000,0.000000,0.556411,0.553532,1.265216,0.082694,0.000000,471.000000,318.000000,153.000000,10.000000,0.000000,0.000000:
00000
00000
00000
00000
,
00000
00000
00000
00000
,
00000
00000
00000
00000
,
00000
00000
00000
00000
,
00000
00000
00000
10001
,
10100
00101
10100
00101
,
10100
00101
10100
00101
,
01100
00110
01100
00110
,
01100
00110
01100
01010
,
10100
01100
00110
01100
,
10100
01100
00110
00101
,
10100
01100
00110
01100
,
10100
00101
00110
01100
,
10100
01100
00110
00101
,
10100
00101
00110
01100
,
10100
01100
00110
01100
,
10100
01100
00110
00101
,
10001
00000
00000
00000
,
00000
00000
00000
10001
,
00001
00100
00010
00100
01000
00100
00010
00100
,
00001
00100
00010
00100
01000
00100
10000
00100
,
00001
00100
00010
00100
01000
00100
00010
00100
,
00001
00100
10000
00100
01000
00100
00010
00100
,
00001
00100
00010
00100
01000
00100
10000
00100
,
00001
00100
10000
00100
01000
00100
00010
00100
,
00001
00100
00010
00100
01000
00100
00010
00100
,
00001
00100
00010
01000
00100
10000
00001
00000
,
00101
10100
00101
10100
,
00110
01100
00110
01100
,
00010
00100
01000
00100
10000
00100
00001
00100
,
00010
00100
01000
00100
10000
00100
00001
00100
,
00010
00110
01100
00110
,
10100
00101
10100
00101
,
01000
00100
00010
00100
00001
00100
10000
00100
,
01000
00100
00010
00100
10000
00100
00001
00100
,
01000
00000
00000
00000
,
00000
00000
00000
00000
,
00000
00000
00000
00000
,
10001
10001
10001
10001
,
10100
00101
10100
00101
,
10100
00101
10100
00101
,
01100
00110
01100
00110
,
01100
00110
01100
01010
,
00220
00000
00000
00330
,
00202
00000
00000
00303
,
20200
00000
00000
30300
,
02200
00000
00000
03300
,
00101
00110
01100
10100
,
00101
10100
01100
00110
,
00101
00110
01100
00110
,
00101
00110
01100
10100
,
10001
00000
00000
00000
,
10100
00101
10100
00101
,
01100
00110
01100
00110
,
10000
00100
01000
00100
00010
00100
00001
00100
,
10000
00100
01000
00100
00010
00100
00001
00100
,
10000
10100
00101
10100
,
00110
01100
00110
01100
,
00001
00100
00010
00100
01000
00100
10000
00100
,
00001
00100
01000
00100
00010
00100
10000
00100
,
00001
00101
01100
00110
,
10100
00110
01100
00101
,
10000
00100
00001
00100
00010
00100
01000
00100
,
10000
00100
00001
00100
00010
00100
01000
00100
,
10000
10100
00110
01100
,
00101
01100
00110
10100
,
00001
00100
10000
00100
01000
00100
00010
00100
,
00001
00100
10000
00100
00010
00100
01000
00100
,
00001
00000
00000
00000
,
00000
00000
00000
00000
,
00101
00110
01100
00110
,
00101
01100
10100
00011
,
10100
01100
00110
01100
,
10100
00110
00101
11000
,
00220
00000
00000
00330
00000
00000
00000
00000
;

//---------------pump-single - ----------------
#NOTES:
     pump-single:
     :
     Easy:
     10:
     0.556411,0.553532,1.265216,0.082694,0.000000,471.000000,318.000000,153.000000,10.000000,0.000000,0.000000,0.556411,0.553532,1.265216,0.082694,0.000000,471.000000,318.000000,153.000000,10.000000,0.000000,0.000000:
00000
00000
00000
00000
,
00000
00000
00000
00000
,
00000
00000
00000
00000
,
00000
00000
00000
00000
,
00000
00000
00000
10001
,
10100
00101
10100
00101
,
10100
00101
10100
00101
,
01100
00110
01100
00110
,
01100
00110
01100
01010
,
10100
01100
00110
01100
,
10100
01100
00110
00101
,
10100
01100
00110
01100
,
10100
00101
00110
01100
,
10100
01100
00110
00101
,
10100
00101
00110
01100
,
10100
01100
00110
01100
,
10100
01100
00110
00101
,
10001
00000
00000
00000
,
00000
00000
00000
10001
,
00001
00100
00010
00100
01000
00100
00010
00100
,
00001
00100
00010
00100
01000
00100
10000
00100
,
00001
00100
00010
00100
01000
00100
00010
00100
,
00001
00100
10000
00100
01000
00100
00010
00100
,
00001
00100
00010
00100
01000
00100
10000
00100
,
00001
00100
10000
00100
01000
00100
00010
00100
,
00001
00100
00010
00100
01000
00100
00010
00100
,
00001
00100
00010
01000
00100
10000
00001
00000
,
00101
10100
00101
10100
,
00110
01100
00110
01100
,
00010
00100
01000
00100
10000
00100
00001
00100
,
00010
00100
01000
00100
10000
00100
00001
00100
,
00010
00110
01100
00110
,
10100
00101
10100
00101
,
01000
00100
00010
00100
00001
00100
10000
00100
,
01000
00100
00010
00100
10000
00100
00001
00100
,
01000
00000
00000
00000
,
00000
00000
00000
00000
,
00000
00000
00000
00000
,
10001
10001
10001
10001
,
10100
00101
10100
00101
,
10100
00101
10100
00101
,
01100
00110
01100
00110
,
01100
00110
01100
01010
,
00220
00000
00000
00330
,
00202
00000
00000
00303
,
20200
00000
00000
30300
,
02200
00000
00000
03300
,
00101
00110
01100
10100
,
00101
10100
01100
00110
,
00101
00110
01100
00110
,
00101
00110
01100
10100
,
10001
00000
00000
00000
,
10100
00101
10100
00101
,
01100
00110
01100
00110
,
10000
00100
01000
00100
00010
00100
00001
00100
,
10000
00100
01000
00100
00010
00100
00001
00100
,
10000
10100
00101
10100
,
00110
01100
00110
01100
,
00001
00100
00010
00100
01000
00100
10000
00100
,
00001
00100
01000
00100
00010
00100
10000
00100
,
00001
00101
01100
00110
,
10100
00110
01100
00101
,
10000
00100
00001
00100
00010
00100
01000
00100
,
10000
00100
00001
00100
00010
00100
01000
00100
,
10000
10100
00110
01100
,
00101
01100
00110
10100
,
00001
00100
10000
00100
01000
00100
00010
00100
,
00001
00100
10000
00100
00010
00100
01000
00100
,
00001
00000
00000
00000
,
00000
00000
00000
00000
,
00101
00110
01100
00110
,
00101
01100
10100
00011
,
10100
01100
00110
01100
,
10100
00110
00101
11000
,
00220
00000
00000
00330
00000
00000
00000
00000
;

//---------------pump-single - ----------------
#NOTES:
     pump-single:
     :
     Medium:
     14:
     0.328413,0.553764,0.264620,0.082694,0.000000,278.000000,246.000000,32.000000,10.000000,0.000000,0.000000,0.328413,0.553764,0.264620,0.082694,0.000000,278.000000,246.000000,32.000000,10.000000,0.000000,0.000000:
00000
00000
00000
00000
,
00000
00000
00000
00000
,
00000
00000
00000
00000
,
00000
00000
00000
00000
,
00000
00000
00000
10001
,
10200
00001
10000
00001
,
10000
00001
10000
00001
,
01000
00010
01000
00010
,
01000
00010
01000
00010
,
10000
01000
00010
01000
,
10000
01000
00010
00001
,
10000
01000
00010
01000
,
10000
00001
00010
01000
,
10000
01000
00010
00001
,
10000
00001
00010
01000
,
10000
01000
00010
01000
,
10000
01000
00010
00001
,
10300
00000
00000
00000
,
00000
00000
00000
10001
,
00201
00010
01000
00010
,
00001
00010
01000
10000
,
00001
00010
01000
00010
,
00001
10000
01000
00010
,
00001
00010
01000
10000
,
00001
10000
01000
00010
,
00001
00010
01000
00010
,
00001
00010
01000
10000
,
00001
10000
00001
10000
,
00010
01000
00010
01000
,
00001
00010
01000
10000
,
00001
00010
01000
10000
,
00001
10000
00001
10000
,
00010
01000
00010
01000
,
00001
10000
01000
00010
,
00001
01000
00010
10000
,
00301
00000
00000
00000
,
00000
00000
00000
00000
,
00000
00000
00000
00000
,
10001
10001
10001
10001
,
10100
00101
10100
00101
,
10100
00101
10100
00101
,
01100
00110
01100
00110
,
01100
00110
01100
01010
,
00210
00000
00000
00000
,
00001
00001
00001
00301
,
01200
00000
00000
00000
,
10000
10000
10000
10300
,
00201
00010
01000
10000
,
00001
10000
01000
00010
,
00001
00010
01000
00010
,
00001
00010
01000
10000
,
00301
00000
00000
00000
,
10200
00001
10000
00001
,
01000
00010
01000
00010
,
10000
01000
00010
00001
,
10000
01000
00010
00001
,
10000
00001
10000
00001
,
01000
00010
01000
00010
,
10000
00001
00010
01000
,
10000
00001
01000
00010
,
10000
01000
00010
01000
,
10000
00001
01000
10000
,
01000
00010
00001
10000
,
01000
00010
00001
10000
,
01000
00010
01000
10000
,
01000
00010
10000
01000
,
10000
00001
00010
01000
,
10000
00010
01000
00001
,
10300
00000
00000
00000
,
00000
00000
00000
10001
,
00201
00010
01000
00010
,
00001
01000
10000
00301
,
10200
01000
00010
01000
,
10000
00010
00001
10300
,
20002
00000
00000
00000
00000
00000
00000
00000
00000
00000
00000
00000
00000
30003
00000
00000
00000
00000
00000
00000
00000
00000
00000
00000
00000
00000
00000
00000
00000
00000
00000
00000
;

//---------------pump-single - ----------------
#NOTES:
     pump-single:
     :
     Hard:
     15:
     0.829301,1.014808,0.190196,0.272890,0.872420,702.000000,678.000000,23.000000,33.000000,0.000000,1.000000,0.829301,1.014808,0.190196,0.272890,0.872420,702.000000,678.000000,23.000000,33.000000,0.000000,1.000000:
00000
00000
00000
00000
,
00000
00000
00000
00000
,
00000
00000
00000
00000
,
00000
00000
00000
00000
,
00000
00000
00000
01000
,
00001
10000
00001
00100
00001
10000
00001
00100
,
00001
10000
00001
00100
00001
10000
00001
00100
,
00010
01000
00010
00100
00010
01000
00010
00100
,
00010
01000
00010
00100
00010
01000
00100
00000
,
10000
00000
00100
00000
02000
00000
03000
10000
00100
10000
01000
00000
00100
00000
10000
00000
,
01000
00100
00010
01000
00100
00000
10001
00000
,
00001
00000
00100
00000
00020
00000
00030
00001
00100
00001
00010
00000
00100
00000
00001
00000
,
00010
00100
01000
00010
00100
00000
10001
00000
,
10000
00000
00100
00000
10000
00000
00010
00000
10000
00100
00000
10000
00010
01000
00100
01000
,
00001
00000
00100
00000
00001
00000
01000
00000
00001
00100
00000
00001
01000
00010
00100
00010
,
10000
00000
00100
00000
02000
00000
03000
10000
00100
10000
01000
00000
00100
00000
10000
00000
,
01000
00100
00010
01000
00100
10000
00001
00000
,
10000
00000
00100
00000
10100
00000
00100
10000
00001
00100
00010
00000
00110
00000
00000
00000
,
00010
00100
00110
00100
00001
10000
00100
00000
,
10000
00000
00100
00000
02000
00000
03000
10000
00100
10000
01000
00100
10000
00000
10100
00000
,
00001
00000
01000
00000
00010
00000
10000
00000
00100
00000
01000
00000
10000
01000
00100
00010
,
00001
00000
00100
00000
00020
00000
00030
00001
00100
00001
00010
00100
00001
00000
00101
00000
,
10000
00000
00010
00000
01000
00000
00001
00000
00100
00000
00010
00000
00001
00010
00100
01000
,
10000
00000
00010
00000
10000
00000
00100
00000
10000
01000
00000
10000
01000
00100
00010
00100
,
00001
00000
01000
00000
00001
00000
00100
00000
00001
00010
00000
00001
00010
00100
01000
00100
,
10000
00000
00100
00000
02000
00000
03000
10000
00100
10000
01000
00100
10000
00000
10100
00000
,
00001
01000
00010
10000
00100
01000
00010
00000
,
20000
30000
00100
10000
00020
00000
00100
00030
,
02000
03000
00100
01000
00002
00000
00020
00033
,
00001
00010
00100
00010
00001
00010
00100
00010
00001
00100
00010
00001
00100
00001
00010
00100
,
00001
00010
00100
00010
00001
00010
00100
00010
00001
00100
00010
00001
00100
00001
00010
00100
,
00002
00003
00100
00010
20000
00000
00100
30000
,
00002
00003
00100
00001
02000
00000
20000
33000
,
01000
10000
00100
10000
01000
10000
00100
10000
01000
00100
10000
01000
00100
01000
10000
00100
,
01000
10000
00100
10000
01000
10000
00100
10000
01000
10000
00100
10000
01000
00100
10000
00001
,
00100
00000
00000
00000
00000
00000
00010
00100
00010
00000
00000
00000
00110
00000
00000
00000
,
00110
00000
00010
00000
00110
00000
00010
00100
00010
00000
00000
00110
00000
00000
00010
01000
,
00100
00000
00000
00000
00000
00000
01000
00100
01000
00000
00000
01100
00000
00000
01100
00000
,
01100
00000
00100
00001
10000
00000
00100
00001
10000
00000
00100
00001
10000
00000
00100
00000
,
10000
00001
10000
00100
10000
00001
10000
00100
,
10000
00001
10000
00100
10000
00001
10000
00100
,
01000
00010
01000
00100
01000
00010
01000
00100
,
01000
00010
01000
00100
01000
00010
00100
00000
,
20010
00000
00000
00000
,
01000
00010
00100
30001
,
01002
00000
00000
00000
,
00010
01000
00100
10003
,
00010
00000
10000
00000
00010
00000
00100
00000
00010
00001
00000
00010
00100
00001
00010
00100
,
01000
00000
00001
00000
01000
00000
00100
00000
01000
10000
00000
01000
00100
10000
01000
00100
,
00010
00000
00100
00000
00002
00000
00003
00010
00100
00010
00001
00100
00010
00000
00110
00000
,
01000
00001
10000
00010
00100
00001
10000
00000
,
00001
00100
00001
00100
00001
00100
00001
00100
00010
00100
01000
10000
00100
01000
00010
00100
,
00002
00003
00010
00100
02000
00000
10000
03000
,
00020
00030
00001
00100
20000
00000
02000
33000
,
10000
01000
00100
01000
10000
01000
00100
01000
10000
00100
01000
10000
00100
10000
01000
00100
,
10000
01000
00100
01000
10000
01000
00100
01000
10000
00100
01000
10000
00100
10000
01000
00100
,
20000
30000
00010
00100
00002
00000
00010
00003
,
20000
30000
01000
00100
00020
00000
00002
00033
,
00010
00001
00100
00001
00010
00001
00100
00001
00010
00100
00001
00010
00100
00010
00001
00100
,
00010
00001
00100
00001
00010
00001
00100
00001
00010
00001
00100
00001
00010
00100
00001
10000
,
00100
01000
00100
10000
00010
00100
00001
00100
00010
01000
00100
10000
00010
01000
00001
00100
,
00010
01000
00001
10000
00100
01000
00100
10000
00010
00100
00001
10000
00100
01000
00010
00100
,
00001
00010
00001
00100
00010
00001
00010
00100
00001
00100
00010
00001
00100
00001
00010
00100
,
00001
00010
00001
00100
00010
00001
00010
00100
00001
00100
00010
00001
00100
00001
00010
00100
,
00001
01000
00100
10000
00010
00100
00001
00100
00010
01000
00100
10000
00010
01000
00001
00100
,
00010
10000
00100
01000
00001
00100
00010
00100
00001
10000
00100
01000
00001
00100
00010
01000
,
00100
10000
01000
10000
00100
01000
10000
01000
00100
10000
01000
00100
01000
10000
00100
01000
,
10000
00100
10000
01000
10000
00100
10000
01000
10000
00100
10000
01000
00100
10000
00001
00100
,
00010
01000
00010
01000
00010
01000
00010
01000
00010
01000
00010
01000
00010
01000
00010
01000
,
00010
01000
00010
01000
00010
01000
00010
01000
00010
01000
00010
01000
00100
00000
00000
00000
,
01000
00000
00001
00000
00200
00000
00300
00001
01000
00100
00010
00000
00100
00000
01000
00000
,
00010
10000
00100
00001
00011
00000
11000
00000
,
00010
00000
10000
00000
00200
00000
00300
10000
00010
00100
01000
00000
00100
00000
00010
00000
,
10000
00001
00100
10000
11000
00000
01010
00000
,
00122
00000
00000
00033
00000
00000
00000
00000
;

//---------------pump-double - ----------------
#NOTES:
     pump-double:
     :
     Medium:
     11:
     0.513883,0.553764,0.256351,0.124041,0.000000,435.000000,404.000000,31.000000,15.000000,0.000000,0.000000,0.513883,0.553764,0.256351,0.124041,0.000000,435.000000,404.000000,31.000000,15.000000,0.000000,0.000000:
0000000000
0000000000
0000000000
0000000000
,
0000000000
0000000000
0000000000
0000000000
,
0000000000
0000000000
0000000000
0000000000
,
0000000000
0000000000
0000000000
0000000000
,
0000000000
0000000000
0000000000
0010000000
,
0000010000
0000100000
0000000100
0000100000
0000010000
0000100000
0000000100
0000100000
,
0000010000
0000100000
0000000100
0000100000
0000010000
0000100000
0000000100
0000100000
,
0000001000
0001000000
0000000100
0001000000
0000001000
0001000000
0000000100
0001000000
,
0000001000
0001000000
0000000100
0001000000
0000001000
0001000000
0000000100
0000000000
,
0000100000
0000010000
0002000000
0003000000
0000100000
0010000000
0000100000
0001000000
,
0000001000
0000010000
0001000000
0000100000
0000010000
0000000000
0000110000
0000000000
,
0000010000
0000100000
0000002000
0000003000
0000010000
0000000100
0000010000
0000001000
,
0001000000
0000100000
0000001000
0000010000
0000100000
0000000000
0000110000
0000000000
,
0000100000
0000010000
0010000000
0000010000
0000100000
0000010000
0001000000
0000001000
,
0000100000
0000010000
0000100000
0000000100
0000100000
0000010000
0001000000
0000001000
,
0000100000
0000010000
0020000000
0030000000
0001000000
0000100000
0001000000
0010000000
,
0000100000
0001000000
0000001000
0000010000
0001000000
0000100000
0000010000
0000000000
,
0000110000
0000000000
0000000000
0000000000
,
0000000000
0000000000
0000000000
0000000100
,
0000100000
0000001000
0000020000
0000030000
0000001000
0001000000
0000100000
0000001000
,
0000000100
0000010000
0000001000
0001000000
0000100000
0000000000
0010100000
0000000000
,
0000010000
0001000000
0000200000
0000300000
0001000000
0000001000
0000010000
0001000000
,
0010000000
0000100000
0001000000
0000001000
0000010000
0000000000
0000010100
0000000000
,
0000010000
0000000100
0000100000
0000000100
0000010000
0000001000
0001000000
0000100000
,
0010000000
0000010000
0010000000
0000100000
0001000000
0000001000
0000010000
0000000100
,
0000001000
0000010000
0000200000
0000300000
0000010000
0000001000
0000000100
0000010000
,
0000001000
0001000000
0000100000
0000001000
0000010000
0000100000
0000001000
0000000000
,
0001000000
0001000000
0000001000
0000001000
,
0000100000
0000100000
0000010000
0000010000
,
0001000000
0000001000
0000000100
0000000010
0000000100
0000000001
0000000100
0000010000
,
0000100000
0010000000
1000000000
0010000000
0100000000
0010000000
0001000000
0000001000
,
0000100000
0000100000
0000010000
0000010000
,
0001000000
0001000000
0000001000
0000001000
,
0000100000
0010000000
1000000000
0010000000
0100000000
0010000000
0001000000
0000001000
,
0000000100
0000000010
0000000100
0000001000
0000000100
0000000001
0000000100
0000010000
,
0000100000
0000000000
0000000000
0000000000
,
0000000000
0000000000
0000000000
0000000000
,
0000000000
0000000000
0000000000
0000000000
,
0000110000
0000110000
0000110000
0000110000
,
0000100000
0000010000
0010000000
0000010000
0000100000
0000010000
0010000000
0000010000
,
0000100000
0000010000
0010000000
0000010000
0000100000
0000010000
0010000000
0000010000
,
0001000000
0000001000
0010000000
0000001000
0001000000
0000001000
0010000000
0000001000
,
0001000000
0000001000
0010000000
0000001000
0001000000
0000001000
0010000000
0000000000
,
0020100000
0000000000
0001000000
0000000000
,
0100000000
1000000000
0000100000
0031000000
,
0000010200
0000000000
0000001000
0000000000
,
0000000010
0000000001
0000010000
0000001300
,
0000000100
0000010000
0000000010
0000010000
0000000100
0000010000
0000001000
0001000000
,
0000100000
0100000000
0000100000
0010000000
0000100000
0001000000
0000001000
0000010000
,
0000000100
0000001000
0000000002
0000000003
0000000100
0000000001
0000001000
0000000100
,
0000010000
0000001000
0001000000
0000100000
0000001000
0000010000
0000100000
0000000000
,
0000220000
0000000000
0000000000
0000000000
0000000000
0000000000
0000000000
0000330000
,
0000010000
0000010000
0000100000
0000100000
,
0000001000
0000001000
0001000000
0001000000
,
0000010000
0000100000
0010000000
1000000000
0010000000
0100000000
0010000000
0001000000
,
0000001000
0000000100
0000000010
0000000100
0000000001
0000000100
0000010000
0000100000
,
0000001000
0000001000
0001000000
0001000000
,
0000010000
0000010000
0000100000
0000100000
,
0000001000
0000000100
0000000010
0000000100
0000000001
0000000100
0000010000
0000100000
,
0010000000
1000000000
0010000000
0000100000
0010000000
0100000000
0010000000
0001000000
,
0000001000
0000000100
0000000010
0000000100
0000000001
0000000100
0000010000
0000100000
,
0010000000
1000000000
0010000000
0100000000
0010000000
0001000000
0000001000
0000000100
,
0000000010
0000001000
0000000001
0000010000
0000001000
0001000000
0000010000
0000100000
,
0001000000
0100000000
0000100000
1000000000
0000001000
0001000000
0000010000
0000100000
,
0000010000
0000000100
0000000001
0000000100
0000000010
0000000100
0000001000
0001000000
,
0010000000
0100000000
0010000000
1000000000
0010000000
0000100000
0000010000
0000000100
,
0000000001
0000010000
0000000010
0000001000
0000010000
0000100000
0000001000
0001000000
,
0000100000
0010000000
0000001000
0001000000
0000000100
0000010000
0000001000
0001000000
,
0002002000
0000000000
0000000000
0000000000
,
0000000000
0000000000
0003003000
0001001000
,
0000110000
0010100000
0000110000
0000010100
,
0000110000
0010100000
0011000000
0000001100
,
0000110000
0000010100
0000110000
0010100000
,
0000110000
0000010100
0011000000
0000001100
,
0000000022
0000000000
0000000000
0000000000
0000000000
0000000000
0000000000
0000000000
0000000000
0000000000
0000000000
0000000000
0000000000
0000000033
0000000000
0000000000
0000000000
0000000000
0000000000
0000000000
0000000000
0000000000
0000000000
0000000000
0000000000
0000000000
0000000000
0000000000
0000000000
0000000000
0000000000
0000000000
;

//---------------pump-double - ----------------
#NOTES:
     pump-double:
     :
     Hard:
     17:
     0.831664,1.014808,0.206735,0.330775,0.868285,704.000000,678.000000,25.000000,40.000000,0.000000,4.000000,0.831664,1.014808,0.206735,0.330775,0.868285,704.000000,678.000000,25.000000,40.000000,0.000000,4.000000:
0000000000
0000000000
0000000000
0000000000
,
0000000000
0000000000
0000000000
0000000000
,
0000000000
0000000000
0000000000
0000000000
,
0000000000
0000000000
0000000000
0000000000
,
0000000000
0000000000
0000000000
0000000100
,
0000100000
0000010000
0010000000
0000010000
0000100000
0000010000
0010000000
0000010000
,
0000100000
0000010000
0010000000
0000010000
0000100000
0000010000
0010000000
0000010000
,
0001000000
0000001000
0010000000
0000001000
0001000000
0000001000
0010000000
0000001000
,
0001000000
0000001000
0010000000
0000001000
0001000000
0000001000
0010000000
0000000000
,
0000010000
0000000000
0010000000
0000000000
0002000000
0000000000
0003000000
0000100000
0010000000
0000100000
0001000000
0000000000
0010000000
0000000000
0000010000
0000000000
,
0001000000
0000100000
0000001000
0000010000
0000100000
0000000000
0000110000
0000000000
,
0000100000
0000000000
0000000100
0000000000
0000002000
0000000000
0000003000
0000010000
0000000100
0000010000
0000001000
0000000000
0000000100
0000000000
0000100000
0000000000
,
0000001000
0000010000
0001000000
0000100000
0000010000
0000000000
0000110000
0000000000
,
0000010000
0000000000
0010000000
0000000000
0000100000
0000000000
0010000000
0000000000
0001000000
0010000000
0000000000
0000100000
0001000000
0000010000
0000001000
0000000100
,
0000100000
0000000000
0000000100
0000000000
0000010000
0000000000
0000000100
0000000000
0000001000
0000000100
0000000000
0000010000
0000001000
0000100000
0001000000
0010000000
,
0000010000
0000000000
0010000000
0000000000
0002000000
0000000000
0003000000
0000100000
0010000000
0000100000
0001000000
0000000000
0010000000
0000000000
0000010000
0000000000
,
0001000000
0000100000
0000001000
0000010000
0000100000
0000001000
0001000000
0000000000
,
0000010000
0000000000
0000200000
0000000000
0000301100
0000000000
0000100000
0000010000
0000001000
0000010000
0000200000
0000000000
0000301100
0000000000
0000000000
0000000000
,
0000100000
0000020000
0011030000
0000010000
0000100000
0000001000
0010000000
0000000000
,
0010000000
0000000000
0000010000
0000000000
0000200000
0000000000
0000300000
0001000000
0000010000
0001000000
0000100000
0000010000
0001000000
0000000000
0001010000
0000000000
,
0000001000
0000000000
0000100000
0000000000
0000010000
0000000000
0001000000
0000000000
0000100000
0000000000
0010000000
0000000000
0001000000
0000100000
0000010000
0000001000
,
0000000100
0000000000
0000100000
0000000000
0000020000
0000000000
0000030000
0000001000
0000100000
0000001000
0000010000
0000100000
0000001000
0000000000
0000101000
0000000000
,
0001000000
0000000000
0000010000
0000000000
0000100000
0000000000
0000001000
0000000000
0000010000
0000000000
0000000100
0000000000
0000001000
0000010000
0000100000
0001000000
,
0010000000
0000000000
0000100000
0000000000
0010000000
0000000000
0000010000
0000000000
0010000000
0000100000
0000000000
0010000000
0001000000
0000100000
0000010000
0000001000
,
0000000100
0000000000
0000010000
0000000000
0000000100
0000000000
0000100000
0000000000
0000000100
0000010000
0000000000
0000000100
0000001000
0000010000
0000100000
0001000000
,
0010000000
0000000000
0000010000
0000000000
0000200000
0000000000
0000300000
0001000000
0000010000
0001000000
0000100000
0000010000
0001000000
0000000000
0001010000
0000000000
,
0000002000
0000000000
0000010000
0000003000
0002000000
0000000000
0000100000
0003000000
0000001000
0000000000
0000100000
0000000000
0000020000
0000000000
0000030000
0000000000
,
0020000000
0030000000
0000010000
0000100000
0000002000
0000000000
0000010000
0000003000
,
0000200000
0000300000
0000010000
0000001000
0000200000
0000000000
0002000000
0003300000
,
0001000000
0000100000
0001000000
0010000000
0001000000
0000100000
0001000000
0010000000
0001000000
0000100000
0010000000
0001000000
0000100000
0000010000
0000001000
0000000100
,
0000010000
0000001000
0000000100
0000001000
0000010000
0000001000
0000000100
0000001000
0000010000
0000000100
0000001000
0000010000
0000100000
0001000000
0010000000
0000100000
,
0002000000
0003000000
0000001000
0000010000
0002000000
0000000000
0000100000
0003000000
,
0000020000
0000030000
0000001000
0000100000
0000020000
0000000000
0000002000
0000033000
,
0000010000
0000001000
0000000100
0000001000
0000010000
0000001000
0000000100
0000001000
0000010000
0000001000
0000000100
0000010000
0000001000
0001000000
0000100000
0010000000
,
0001000000
0000100000
0001000000
0010000000
0001000000
0000100000
0001000000
0010000000
0001000000
0000100000
0001000000
0010000000
0001000000
0000100000
0000010000
0000001000
,
0000000100
0000000000
0000000000
0000000000
0000000000
0000000000
0000000100
0000001000
0000000100
0000000000
0000000000
0000000000
0000001100
0000000000
0000000000
0000000000
,
0000010100
0000000000
0000000100
0000000000
0000100100
0000000000
0000000100
0010000000
0000000100
0000000000
0000000000
0010000100
0000000000
0000000000
0010000000
0000010000
,
0010000000
0000000000
0000000000
0000000000
0000000000
0000000000
0010000000
0000100000
0010000000
0000000000
0000000000
0010100000
0000000000
0000000000
0010100000
0000000000
,
0011000000
0000000000
0001000000
0000100000
0000010000
0000000000
0001000000
0000100000
0010000000
0000000000
0001000000
0000100000
0000020000
0000000000
0010030000
0000000000
,
0000010000
0000100000
0000000100
0000100000
0000010000
0000100000
0000000100
0000100000
,
0000010000
0000100000
0000000100
0000100000
0000001000
0000100000
0000000100
0000100000
,
0000001000
0001000000
0000000100
0001000000
0000001000
0001000000
0000000100
0001000000
,
0000001000
0001000000
0000000100
0001000000
0000001000
0001000000
0000000100
0000000000
,
0000120000
0000000000
0000001000
0000000000
,
0000000100
0000000000
0000001000
0000000000
0001000000
0000000000
0010000000
0000030000
,
0000200000
0000000000
0001000000
0000000000
,
0010000000
0001000000
0000001000
0000300100
,
0000100000
0000000000
0000010000
0000000000
0010000000
0000000000
0000010000
0000000000
0001000000
0000010000
0000000000
0000100000
0000001000
0000010000
0000000100
0000001000
,
0000010000
0000000000
0000100000
0000000000
0000000100
0000000000
0000100000
0000000000
0000001000
0000100000
0000000000
0000010000
0001000000
0000100000
0010000000
0001000000
,
0000100000
0000000000
0000010000
0000000000
0020000000
0000000000
0030000000
0000010000
0000100000
0001000000
0000010000
0001000000
0000100000
0000000000
0000010000
0000000000
,
0001010000
0000100000
0000101000
0000010000
0010010000
0000100000
0000100100
0000000000
,
0000000100
0000010000
0000000100
0000010000
0000000100
0000010000
0000000100
0000010000
0000001000
0000010000
0000000100
0000001000
0000010000
0000100000
0001000000
0010000000
,
0000200000
0000300000
0001000000
0000010000
0000002000
0000000000
0000100000
0000003000
,
0000020000
0000030000
0000100000
0001000000
0000020000
0000000000
0000002000
0000033000
,
0000001000
0000010000
0000001000
0000000100
0000001000
0000010000
0000001000
0000000100
0000001000
0000010000
0000000100
0000001000
0000010000
0000100000
0001000000
0010000000
,
0000100000
0001000000
0010000000
0001000000
0000100000
0001000000
0010000000
0001000000
0000100000
0010000000
0001000000
0000100000
0000010000
0000001000
0000000100
0000010000
,
0000002000
0000003000
0001000000
0000100000
0000002000
0000000000
0000010000
0000003000
,
0000200000
0000300000
0001000000
0000010000
0000200000
0000000000
0002000000
0003300000
,
0000100000
0001000000
0010000000
0001000000
0000100000
0001000000
0010000000
0001000000
0000100000
0001000000
0010000000
0000100000
0001000000
0000001000
0000010000
0000000100
,
0000001000
0000010000
0000001000
0000000100
0000001000
0000010000
0000001000
0000000100
0000001000
0000010000
0000001000
0000000100
0000001000
0000010000
0000100000
0001000000
,
0010000000
0000100000
0001000000
0010000000
0001000000
0000100000
0010000000
0001000000
0010000000
0000100000
0001000000
0010000000
0001000000
0000100000
0010000000
0001000000
,
0000100000
0000001000
0000000100
0000001000
0000010000
0000000100
0000001000
0000000100
0000010000
0000001000
0000000100
0000001000
0000010000
0000000100
0000001000
0000010000
,
0000100000
0001000000
0000100000
0000001000
0001000000
0000100000
0001000000
0000001000
0000100000
0001000000
0000010000
0000001000
0001000000
0000100000
0000001000
0000010000
,
0000100000
0001000000
0000100000
0000001000
0001000000
0000100000
0001000000
0000001000
0000100000
0001000000
0000010000
0000001000
0001000000
0000100000
0000001000
0000010000
,
0000100000
0001000000
0000100000
0010000000
0000100000
0001000000
0010000000
0000100000
0010000000
0001000000
0000100000
0010000000
0000100000
0001000000
0010000000
0000100000
,
0000001000
0000010000
0000000100
0000010000
0000001000
0000000100
0000010000
0000000100
0000001000
0000010000
0000000100
0000010000
0000001000
0000000100
0000010000
0000001000
,
0001000000
0000100000
0001000000
0000010000
0000100000
0001000000
0000100000
0000010000
0001000000
0000100000
0000001000
0000010000
0000100000
0001000000
0000010000
0000001000
,
0000100000
0001000000
0000100000
0000001000
0000010000
0000001000
0000100000
0000001000
0000010000
0001000000
0000100000
0001000000
0000010000
0000001000
0000100000
0000010000
,
0001000000
0000000000
0000000000
0000000000
0000000000
0000000000
0000000000
0000000000
0000000000
0000000000
0000000000
0000000000
0000000000
0000000000
0000000000
0000000000
0000000000
0000000000
0000000000
0000000000
0000000000
0000000000
0000000000
0000000000
0000001000
0000000000
0000000000
0000000000
0000000000
0000000000
0000000000
0000000000
0000000000
0000000000
0000000000
0000000000
0000000000
0000000000
0000000000
0000000000
0000000000
0000000000
0000000000
0000000000
0000000000
0000000000
0000000000
0000000000
0001000000
0000000000
0000000000
0000000000
0000000000
0000000000
0000000000
0000000000
0000000000
0000000000
0000000000
0000000000
0000000000
0000000000
0000000000
0000000000
0000000000
0000000000
0000000000
0000000000
0000000000
0000000000
0000000000
0000000000
0000001000
0000000000
0000000000
0000000000
0000000000
0000000000
0000000000
0000000000
0000000000
0000000000
0000000000
0000000000
0000000000
0000000000
0000000000
0000000000
0000000000
0000000000
0000000000
0000000000
0000000000
0000000000
0000000000
0000000000
0001000000
0000000000
0000000000
0000000000
0000000000
0000000000
0000000000
0000000000
0000000000
0000000000
0000000000
0000000000
0000000000
0000000000
0000000000
0000000000
0000000000
0000000000
0000000000
0000000000
0000000000
0000000000
0000000000
0000000000
0000002000
0000003000
0000000000
0000000000
0000000000
0000000000
0000000000
0000000000
0000000000
0000000000
0000000000
0000000000
0000000000
0000000000
0000000000
0000000000
0000000000
0000000000
0000000000
0000000000
0000000000
0000000000
0000000000
0000000000
0002000000
0003000000
0000000000
0000000000
0000000000
0000000000
0000000000
0000000000
0000000000
0000000000
0000000000
0000000000
0000000000
0000000000
0000000000
0000000000
0000000000
0000000000
0000000000
0000000000
0000000000
0000000000
0000000000
0000000000
0000001000
0000000000
0000000000
0000000000
0000000000
0000000000
0000000000
0000000000
0000000000
0000000000
0000000000
0000000000
0000000000
0000000000
0000000000
0000000000
0000000000
0000000000
0000000000
0000000000
0000000000
0000000000
0000000000
0000000000
0001000000
0000000000
0000000000
0000000000
0000000000
0000000000
0000000000
0000000000
0000000000
0000000000
0000000000
0000000000
0000000000
0000000000
0000000000
0000000000
0000000000
0000000000
0000000000
0000000000
0000000000
0000000000
0000000000
0000000000
0000001000
0000000000
0000000000
0000000000
0000000000
0000000000
0000000000
0000000000
0000000000
0000000000
0000000000
0000000000
0000000000
0000000000
0000000000
0000000000
0000000000
0000000000
0000000000
0000000000
0000000000
0000000000
0000000000
0000000000
0001000000
0000000000
0000000000
0000000000
0000000000
0000000000
0000000000
0000000000
0000000000
0000000000
0000000000
0000000000
0000000000
0000000000
0000000000
0000000000
0000000000
0000000000
0000000000
0000000000
0000000000
0000000000
0000000000
0000000000
0000001000
0000000000
0000000000
0000000000
0000000000
0000000000
0000000000
0000000000
0000000000
0000000000
0000000000
0000000000
0000000000
0000000000
0000000000
0000000000
0000000000
0000000000
0000000000
0000000000
0000000000
0000000000
0000000000
0000000000
0001000000
0000000000
0000000000
0000000000
0000000000
0000000000
0000000000
0000000000
0000000000
0000000000
0000000000
0000000000
0000000000
0000000000
0000000000
0000000000
0000000000
0000000000
0000000000
0000000000
0000000000
0000000000
0000000000
0000000000
0000001000
0000000000
0000000000
0000000000
0000000000
0000000000
0000000000
0000000000
0000000000
0000000000
0000000000
0000000000
0000000000
0000000000
0000000000
0000000000
0000000000
0000000000
0000000000
0000000000
0000000000
0000000000
0000000000
0000000000
0001000000
0000000000
0000000000
0000000000
0000000000
0000000000
0000000000
0000000000
0000000000
0000000000
0000000000
0000000000
0000000000
0000000000
0000000000
0000000000
0000000000
0000000000
0000000000
0000000000
0000000000
0000000000
0000000000
0000000000
0000001000
0000000000
0000000000
0000000000
0000000000
0000000000
0000000000
0000000000
0000000000
0000000000
0000000000
0000000000
0000000000
0000000000
0000000000
0000000000
0000000000
0000000000
0000000000
0000000000
0000000000
0000000000
0000000000
0000000000
,
0001000000
0000001000
0001000000
0000001000
0001000000
0000001000
0001000000
0000001000
0001000000
0000001000
0001000000
0000001000
0010000000
0000000000
0000000000
0000000000
,
0000001000
0000000000
0001000000
0000000000
0000000200
0000000000
0000000300
0000001000
0000010000
0000000100
0000010000
0000000000
0000001000
0000000000
0000000100
0000000000
,
0000010000
0000001000
0001000000
0000100000
0010100000
0000000000
0000001100
0000000000
,
0001000000
0000000000
0000001000
0000000000
0020000000
0000000000
0030000000
0001000000
0000100000
0010000000
0000100000
0000000000
0001000000
0000000000
0010000000
0000000000
,
0000100000
0001000000
0000001000
0000010000
0000010100
0000000000
0011000000
0000000000
,
0000022100
0000000000
0000000000
0000033000
0000000000
0000000000
0000000000
0000000000
;

//---------------dance-single - ----------------
#NOTES:
     dance-single:
     :
     Challenge:
     15:
     0.888368,1.044681,0.793861,0.016539,0.711167,752.000000,656.000000,96.000000,2.000000,0.000000,0.000000,0.888368,1.044681,0.793861,0.016539,0.711167,752.000000,656.000000,96.000000,2.000000,0.000000,0.000000:
0000
0000
0000
0000
,
0000
0000
0000
0000
,
0000
0000
0000
0000
,
0000
0000
0000
0000
,
0000
0000
0000
0000
,
1100
0011
1100
0011
,
1100
0011
1100
0011
,
0110
1001
0110
1001
,
0110
1001
0110
1001
,
0100
0000
0010
0000
0100
0000
0000
0010
0100
0000
0010
0000
0100
0000
0010
0000
,
0001
0010
0100
0010
0001
0000
1001
0000
,
0001
0000
1000
0000
0001
0000
0000
1000
0001
0000
0010
0000
0100
0000
1000
0000
,
0100
0010
0100
1000
0100
0000
0110
0000
,
1000
0000
0100
0000
0010
0000
0100
0000
1000
0100
0010
0100
1000
0100
0010
0100
,
1000
0000
0010
0000
0100
0000
0010
0000
0001
0010
0100
0010
0001
0010
0100
0010
,
0001
0000
0010
0000
0100
0000
0000
1000
0001
0000
0010
0000
0100
0000
1000
0000
,
0010
0100
0010
0001
1100
0011
1100
0000
,
0100
0000
0100
0000
0010
0000
1000
0100
0010
0001
0100
0000
0010
0000
1000
0000
,
0001
0010
0100
0010
1000
0110
1001
0000
,
1100
0000
0100
0000
1100
0000
0000
0100
1000
0000
0100
0000
1100
0000
1000
0000
,
1100
0000
0100
0000
1100
0000
1000
0000
1100
0000
0000
0000
1000
0100
0010
0001
,
0011
0000
0010
0000
0011
0000
0000
0001
0011
0000
0001
0000
0011
0000
0010
0000
,
0011
0000
0010
0000
0011
0000
0001
0000
0011
0000
0000
0000
0001
0010
0100
1000
,
0100
0000
0010
0000
0100
0000
0010
0000
1000
0100
0010
0100
1000
0100
0010
0000
,
0100
0000
0010
0000
0100
0000
0010
0000
0001
0010
0100
0010
0001
0010
0100
0000
,
0010
0000
0100
0000
0010
0000
0000
0100
0010
0000
0100
0000
0010
0000
0100
0000
,
0010
0001
1100
0011
1100
0011
1100
0000
,
1100
1000
1100
0100
1100
1000
1100
0100
,
1100
1000
1100
0100
1100
1000
1100
0100
,
1000
0100
1000
0100
1000
0100
1000
0100
0010
0100
1000
0100
1000
0100
1000
0100
,
1000
0100
1000
0100
1000
0100
1000
0100
0010
0100
1000
0100
1000
0100
1000
0100
,
0011
0010
0011
0001
0011
0010
0011
0001
,
0011
0010
0011
0001
0011
0010
0011
0010
,
0001
0010
0001
0010
0001
0010
0001
0010
0100
0010
0001
0010
0001
0010
0001
0010
,
0001
0010
0100
1000
0100
0010
0001
0010
0001
0010
0100
1000
0100
0010
0001
0000
,
0010
0000
0000
0000
0000
0000
1000
0001
1000
0000
0000
0000
0100
0000
0000
0000
,
0100
0000
0010
0000
0100
0000
0010
0100
0010
0000
0000
0100
0000
0000
0010
0100
,
0010
0000
0000
0000
0000
0000
1000
0001
1000
0000
0000
0100
0000
0000
1000
0000
,
0010
0000
0100
0010
0100
0000
0100
0010
0100
0000
0100
0010
0100
0000
0010
0000
,
1001
0100
1000
0100
0010
0100
1000
0100
,
0010
0100
1000
0100
0010
0100
1000
0100
,
0010
0100
0001
0100
0010
0100
0001
0100
,
0010
0100
0001
0100
0010
0100
1001
0000
,
0100
0000
0010
0000
0100
0000
0000
0010
1000
0000
0010
0000
0100
0000
0001
0000
,
1000
0010
0100
0001
0100
0000
1001
0000
,
1000
0000
0100
0000
0010
0000
0000
1000
0001
0000
0100
0000
0010
0000
1000
0000
,
0100
0010
0001
1000
0010
0000
1001
0000
,
1000
0000
0100
0000
1000
0000
0100
0000
1000
0100
0010
0100
1000
0100
0010
0100
,
1000
0000
0100
0000
0010
0000
0100
0000
0001
0010
0100
0010
0001
0010
0100
0010
,
0001
0000
0010
0000
0100
0000
0000
0100
0010
0100
0010
0100
0010
0000
1000
0000
,
0100
0010
0001
1000
0100
0010
0100
0000
,
1000
0100
1000
0100
1000
0100
1000
0100
0010
0100
0010
0100
0010
0100
0001
0000
,
0011
0010
0011
0001
0011
0010
0011
0001
,
0011
0010
0011
0001
0011
0010
0011
0010
,
0001
0010
0001
0010
0001
0010
0001
0010
0100
0010
0001
0010
0001
0010
0001
0010
,
0001
0010
0001
0010
0001
0010
0001
0010
0100
0010
0001
0010
0001
0010
0001
0010
,
1100
0100
1100
1000
1100
0100
1100
1000
,
1100
0100
1100
1000
1100
0100
1100
1000
,
1000
0100
1000
0100
1000
0100
1000
0100
0010
0100
1000
0100
1000
0100
1000
0100
,
1000
0100
0010
0001
0010
0100
1000
0100
1000
0100
0010
0001
0010
0100
1000
0000
,
1100
0100
1100
1000
1100
0100
1100
0100
,
1100
1000
1100
0100
1100
1000
1100
0100
,
1000
0100
1000
0100
1000
0100
1000
0100
0010
0100
1000
0100
1000
0100
1000
0100
,
1000
0100
1000
0100
1000
0100
1000
0100
0010
0100
1000
0100
1000
0100
1000
0100
,
0011
0010
0011
0001
0011
0010
0011
0001
,
0011
0010
0011
0001
0011
0010
0011
0001
,
0001
0010
0001
0010
0001
0010
0001
0010
0100
0010
0001
0010
0001
0010
0001
0010
,
0001
0010
0100
1000
0100
0010
0001
0010
0001
0010
0100
1000
0100
0010
0001
0000
,
0000
0000
0000
0000
,
0000
0000
0000
1001
,
1000
0100
1000
0010
0100
0001
1000
0010
0100
0001
1000
0100
0010
0001
1000
0010
,
0100
0001
1000
0100
0010
0001
1000
0010
0100
0000
0000
0000
0110
0000
0000
0000
,
1000
0100
1000
0010
0100
0010
0100
0010
0001
0010
0100
1000
0100
0010
0100
0010
,
0100
1000
0010
0100
0010
0001
0010
0100
0010
0000
0000
0000
0010
0000
0000
0000
,
0220
0000
0000
0000
0000
0330
0000
0000
0000
0000
0000
0000
0000
0000
0000
0000
;

//---------------dance-single - Copied from----------------
#NOTES:
     dance-single:
     Copied from:
     Hard:
     12:
     0.658007,0.768148,0.760783,0.033078,0.190196,557.000000,465.000000,92.000000,4.000000,0.000000,0.000000,0.658007,0.768148,0.760783,0.033078,0.190196,557.000000,465.000000,92.000000,4.000000,0.000000,0.000000:
0000
0000
0000
0000
,
0000
0000
0000
0000
,
0000
0000
0000
0000
,
0000
0000
0000
0000
,
0000
0000
0000
0000
,
1100
0011
1100
0011
,
1100
0011
1100
0011
,
0110
1001
0110
1001
,
0110
1001
0110
1001
,
0100
0000
0010
0000
0100
0000
0000
0010
1000
0000
0010
0000
0100
0000
0001
0000
,
1000
0010
0100
0001
0100
0000
1001
0000
,
1000
0000
0100
0000
0010
0000
0000
1000
0001
0000
0100
0000
0010
0000
0100
0000
,
1000
0100
0010
1000
0001
0000
0110
0000
,
1000
0000
0100
0000
0010
0000
0001
0000
0001
0010
0001
0010
0001
0010
0001
0010
,
0001
0000
0100
0000
0010
0000
0100
0000
1000
0100
1000
0100
1000
0100
1000
0100
,
1000
0000
0010
0000
0100
0000
0000
0100
0010
0000
0100
0000
0010
0000
1000
0000
,
0100
0010
0001
0010
0100
0010
0100
0000
,
0001
0000
1000
0000
0010
0000
1000
0100
0010
0001
0100
0000
0010
0000
1000
0000
,
0001
0100
0010
0100
0001
1000
0001
0000
,
1000
0000
0010
0000
1000
0000
0000
0001
0100
0000
0010
0000
1000
0000
0001
0000
,
1000
0000
0010
0000
1000
0000
0001
0000
1000
0000
0000
0000
0001
0010
0100
1000
,
0100
0000
0010
0000
0100
0000
0000
0010
0100
0000
0010
0000
0100
0000
0001
0000
,
0100
0000
0010
0000
0100
0000
0001
0000
0100
0000
0000
0000
0001
0010
0100
1000
,
0100
0000
0010
0000
0100
0000
0010
0000
1000
0100
1000
0100
1000
0100
0010
0000
,
0100
0000
0010
0000
0100
0000
0010
0000
0001
0010
0001
0010
0001
0010
0100
0000
,
0010
0000
0100
0000
0010
0000
0000
0100
0010
0000
0100
0000
0010
0000
0100
0000
,
0010
0001
1000
0001
1000
0001
1000
0000
,
1000
0010
1000
0001
1000
0010
1000
0001
,
1000
0010
1000
0001
1000
0010
1000
0001
,
1100
0011
1100
0011
,
1100
0011
1100
0011
,
0001
1000
0001
0100
0001
1000
0001
0100
,
0001
1000
0001
0100
0001
1000
0001
0100
,
1100
0011
1100
0011
,
0110
1001
0110
1001
,
0110
0000
0000
0000
0000
0000
1000
0001
1000
0000
0000
0000
0100
0000
0000
0000
,
0100
0000
0010
0000
0100
0000
0010
0100
0010
0000
0000
0100
0000
0000
0010
0100
,
0010
0000
0000
0000
0000
0000
1000
0001
1000
0000
0000
0100
0000
0000
1000
0000
,
0010
0000
0100
0010
0100
0000
0100
0010
0100
0000
0100
0010
0100
0000
0010
0000
,
0001
0100
1000
0100
0010
0100
1000
0100
,
0010
0100
1000
0100
0010
0100
1000
0100
,
0010
0100
0001
0100
0010
0100
0001
0100
,
0010
0100
0001
0100
0010
0100
1001
0000
,
0100
0000
0010
0000
0100
0000
0000
0010
1000
0000
0010
0000
0100
0000
0001
0000
,
1000
0010
0100
0001
0100
0000
1001
0000
,
1000
0000
0100
0000
0010
0000
0000
1000
0001
0000
0010
0000
0100
0000
0001
0000
,
1000
0010
0100
0001
1000
0000
0110
0000
,
1000
0000
0100
0000
0010
0000
1000
0000
1000
0100
1000
0100
1000
0100
1000
0100
,
1000
0000
0100
0000
0010
0000
0100
0000
0001
0010
0001
0010
0001
0010
0001
0010
,
0001
0000
0010
0000
0100
0000
0000
0100
0010
0000
0100
0000
0010
0000
0001
0000
,
1000
0100
0010
0001
0010
0100
1000
0000
,
2002
0000
0000
0000
0000
3003
0000
1001
,
0001
0100
0001
1000
0001
0100
0001
1000
,
0001
0100
0001
1000
0001
0100
0001
1000
,
0011
1100
0011
1100
,
0011
1100
0011
1100
,
0011
0001
1000
0010
1000
0001
1000
0010
,
1000
0001
1000
0010
1000
0001
1000
0010
,
1100
0011
1100
0011
,
0110
1001
0110
1001
,
0100
0010
0100
0001
0100
0010
0100
0001
,
0100
0010
0100
0001
0100
0010
0100
0001
,
1100
0011
1100
0011
,
1100
0011
1100
0011
,
0001
1000
0001
0100
0001
1000
0001
0100
,
0001
1000
0001
0100
0001
1000
0001
0100
,
0110
1001
0110
1001
,
1100
0011
1100
0011
,
1100
0000
0000
0000
,
0000
0000
0000
1001
,
1100
0011
0110
1001
,
1100
0011
0110
0110
,
1100
0011
1100
0011
,
1100
1001
0110
0110
,
0220
0000
0000
0000
0000
0330
0000
0000
0000
0000
0000
0000
0000
0000
0000
0000
;

//---------------dance-single - Copied from Copied f----------------
#NOTES:
     dance-single:
     Copied from Copied f:
     Medium:
     7:
     0.396930,0.611934,0.603665,0.132310,0.000000,336.000000,263.000000,73.000000,16.000000,0.000000,0.000000,0.396930,0.611934,0.603665,0.132310,0.000000,336.000000,263.000000,73.000000,16.000000,0.000000,0.000000:
0000
0000
0000
0000
,
0000
0000
0000
0000
,
0000
0000
0000
0000
,
0000
0000
0000
0000
,
0000
0000
0000
0000
,
1100
0011
1100
0011
,
1100
0011
1100
0011
,
1000
0001
1000
0001
,
1000
0001
1000
0001
,
0100
0100
0010
0100
,
0010
0100
1001
1001
,
0010
0100
0010
0100
,
0010
0100
1001
1001
,
0001
0010
1100
0011
,
0100
0010
1100
0011
,
1000
0100
0010
0001
,
0010
0100
0010
1001
,
0110
0000
0000
0000
,
0000
0000
0000
1001
,
1100
0011
1100
0011
,
0100
0010
0100
0100
,
0011
1100
0011
1100
,
0010
0100
0010
0100
,
1100
0011
1100
1100
,
0011
1100
0011
0011
,
0001
1000
0001
0001
,
1000
0001
1000
1000
,
0010
0100
0010
0010
,
0100
0010
0100
0100
,
1100
0011
0011
0011
,
1100
0011
0011
0011
,
1100
0010
0100
0001
,
1000
0010
0100
0001
,
1100
1100
1100
0011
,
1100
1100
1100
0011
,
0100
0000
0000
0100
0010
0000
0000
1000
,
0001
0000
0000
0100
0001
0000
0000
1000
,
0001
0000
0000
0010
0100
0000
0000
0000
,
1000
1000
1000
1000
,
0001
0001
0001
0001
,
0001
0001
0001
0001
,
0100
0100
0100
0100
,
0100
0100
0100
0110
,
1000
1000
1000
1000
,
1000
1000
1000
1000
,
1010
0010
0010
0010
,
0010
0010
0010
0010
,
1010
0010
0010
0010
,
0101
0100
0100
0100
,
0101
0001
1001
1000
,
1001
1000
1010
1000
,
1100
0000
0000
0110
,
1000
1000
1000
1000
,
0100
0100
0100
0100
,
0002
1003
2000
3001
,
0020
0130
0200
0310
,
0001
1000
0001
1000
,
0001
1000
0001
1000
,
0200
0310
0020
0130
,
0200
0310
0200
0310
,
1000
0001
0100
0010
,
1000
0001
0100
0010
,
0200
0310
0020
0130
,
0200
0310
0020
0130
,
1000
0100
0010
0001
,
0010
0100
1000
0100
,
0200
0310
0020
0130
,
2000
3001
0002
1003
,
1000
0000
0000
0000
,
0000
0000
0000
1001
,
0100
0010
0100
0010
,
0100
0001
1000
1000
,
1100
0011
1100
0011
,
1100
0000
0011
0000
0110
1001
0110
0000
,
1001
0000
0000
0000
;

//---------------dance-single - Copied from Copied f----------------
#NOTES:
     dance-single:
     Copied from Copied f:
     Easy:
     5:
     0.301242,0.367161,0.082694,0.000000,0.000000,255.000000,245.000000,10.000000,0.000000,0.000000,0.000000,0.301242,0.367161,0.082694,0.000000,0.000000,255.000000,245.000000,10.000000,0.000000,0.000000,0.000000:
0000
0000
0000
0000
,
0000
0000
0000
0000
,
0000
0000
0000
0000
,
0000
0000
0000
0000
,
0000
0000
0000
0000
,
1000
1000
0100
0100
,
0010
0010
0001
0001
,
0100
0100
1000
1000
,
0010
0010
0001
0001
,
1000
0010
0100
0100
,
0010
0100
0010
1001
,
0010
0100
0010
0010
,
0100
0010
0100
1001
,
1000
0100
0010
0010
,
0001
0010
0100
0100
,
1000
0100
0010
0001
,
0010
0100
0010
0100
,
1001
0000
0000
0000
,
0000
0000
0000
1001
,
1000
0100
0010
0100
,
1000
0100
1100
1100
,
0010
0100
0010
0100
,
0010
0100
0011
0011
,
1000
0001
1000
1000
,
0001
1000
0001
0001
,
1000
0001
1000
1000
,
0001
1000
0001
0001
,
0100
0100
0010
0010
,
0100
0100
0010
0010
,
1000
1000
1000
1000
,
0001
0001
0001
0001
,
0100
0010
0100
0100
,
0010
0100
0010
0010
,
0100
0010
0100
0100
,
0010
0100
0010
0010
,
1000
0000
1000
0000
,
1000
1000
1000
1000
,
0001
0000
0001
0000
,
0001
0001
0001
0001
,
0100
0010
0100
0010
,
0100
0010
0100
0010
,
0100
0010
0100
0010
,
0100
0010
0100
0010
,
1000
0000
0000
0000
,
0000
0000
0000
0000
,
1001
0000
0000
0000
,
0000
0000
0000
0000
,
1001
0100
0010
0100
,
0010
0100
0010
0100
,
1000
0100
0010
0001
,
0010
0100
0001
0001
,
1000
0000
0000
0000
0000
0000
0000
0100
,
1000
1000
1000
1000
,
0100
0100
0100
0100
,
0010
0010
0010
0010
,
0100
0100
0100
0100
,
0010
0100
0010
0100
,
0010
0100
0010
0100
,
0010
0010
0100
0100
,
1000
0100
1000
0100
,
0010
0010
0100
0100
,
0001
0001
1000
1000
,
0100
0010
0100
0010
,
1000
1000
0001
0001
,
0100
0100
0010
0010
,
1000
1000
0100
0100
,
1000
0100
0010
0001
,
0010
0100
1000
0100
,
0010
0000
0000
0000
,
0000
0000
0000
0000
,
1000
1000
0100
0100
,
0010
0010
0100
0100
,
1000
0100
0010
0001
,
0010
0000
0100
0000
1000
0001
1000
0000
,
0001
0000
0000
0000
;

//---------------dance-single - Copied from Copied f----------------
#NOTES:
     dance-single:
     Copied from Copied f:
     Beginner:
     3:
     0.206735,0.305967,0.033078,0.033078,0.000000,175.000000,171.000000,4.000000,4.000000,0.000000,0.000000,0.206735,0.305967,0.033078,0.033078,0.000000,175.000000,171.000000,4.000000,4.000000,0.000000,0.000000:
0000
0000
0000
0000
,
0000
0000
0000
0000
,
0000
0000
0000
0000
,
0000
0000
0000
0000
,
0000
0000
0000
0000
,
1000
0000
1000
0000
,
1000
0000
0100
0000
,
0010
0000
0010
0000
,
0010
0000
0010
1001
,
0100
0000
0100
0000
,
0100
0000
0010
0010
,
0100
0000
0100
0000
,
0100
0000
0010
0010
,
0100
0000
1000
0000
,
0100
0000
0010
0000
,
0001
0000
0010
0000
,
0100
0010
0100
0100
,
0010
0000
0000
0000
,
0000
0000
0000
0000
,
1000
1000
0100
0100
,
0010
0010
0001
0000
,
1000
1000
0100
0100
,
0010
0010
0001
0000
,
0001
0001
0010
0000
,
0100
0100
1000
0000
,
1000
0100
0010
0001
,
0010
0100
0010
0010
,
1000
0000
1000
0000
,
0100
0000
0100
0000
,
0100
0010
0100
0000
,
0010
0100
0010
0000
,
0100
0000
0100
0000
,
1000
0000
1000
0000
,
1000
0001
1000
0000
,
0001
1000
0001
0000
,
0100
0000
0000
0000
,
0100
0000
0000
0000
,
0100
0000
0000
0000
,
0100
0100
0100
0100
,
0010
0000
0010
0000
,
0010
0000
0010
0000
,
0100
0000
0100
0000
,
0100
0000
0100
0000
,
1000
0000
0001
0000
,
1000
1000
1000
0000
,
0100
0000
0010
0000
,
0100
0100
0100
0000
,
0010
0100
0010
0000
,
1000
0001
1000
0000
,
0001
1000
0001
0000
,
0100
0100
0010
0010
,
1001
0000
0000
0000
,
1000
1000
0100
0100
,
0010
0010
0001
0001
,
2000
0000
0000
0000
,
0000
0000
0000
0000
0000
3000
0000
0000
,
0100
0100
0010
0010
,
0001
0001
1000
1000
,
0002
0000
0000
0000
,
0003
0000
0000
0000
,
0100
0100
0010
0010
,
0100
0100
0010
0010
,
2000
0000
0000
0000
,
0000
0000
0000
3000
0000
0000
0000
0000
,
0001
0001
0100
0100
,
0010
0010
1000
1000
,
2000
0000
0000
0000
,
0000
0000
0000
3000
0000
0000
0000
0000
,
0001
0000
0000
0000
,
0000
0000
0000
1001
,
1000
1000
0100
0100
,
0010
0010
0010
0000
,
0001
0001
1000
1000
,
0100
0100
0010
0010
,
1001
0000
0000
0000
;

//---------------dance-double - ----------------
#NOTES:
     dance-double:
     :
     Hard:
     9:
     0.611934,0.581338,1.810995,0.000000,0.004135,518.000000,299.000000,219.000000,0.000000,0.000000,0.000000,0.611934,0.581338,1.810995,0.000000,0.004135,518.000000,299.000000,219.000000,0.000000,0.000000,0.000000:
// measure 0
00000000
00000000
00000000
00000000
,  // measure 1
00000000
00000000
00000000
00000000
,  // measure 2
00000000
00000000
00000000
00000000
,  // measure 3
00000000
00000000
00000000
00000000
,  // measure 4
00000000
00000000
00000000
00000000
,  // measure 5
10100000
01010000
10100000
01010000
,  // measure 6
10100000
01010000
10100000
00011000
,  // measure 7
00000101
00001010
00000101
00001010
,  // measure 8
00000101
00001010
00000101
00001010
,  // measure 9
00011000
01100000
11000000
01100000
,  // measure 10
00110000
00011000
00001100
00000011
,  // measure 11
00001100
00000110
00000011
00000110
,  // measure 12
00011000
00110000
11000000
01100000
,  // measure 13
00110000
01100000
00011000
00000110
,  // measure 14
00001100
00011000
00110000
00011000
,  // measure 15
00110000
01100000
00110000
00011000
,  // measure 16
00001100
00000110
00000011
00000110
,  // measure 17
00000010
00000100
00001000
00000100
00000010
00001000
00000010
00000100
,  // measure 18
00001000
00010000
00100000
01000000
10000000
01000000
01100000
00000000
,  // measure 19
11000000
01100000
00110000
00011000
,  // measure 20
00001100
00011000
00110000
01100000
,  // measure 21
11000000
01100000
00110000
00011000
,  // measure 22
00011000
00110000
01100000
11000000
,  // measure 23
01100000
01100000
00011000
00011000
,  // measure 24
00110000
00110000
00011000
00011000
,  // measure 25
00000110
00000110
00000011
00000011
,  // measure 26
00001100
00001100
00011000
00011000
,  // measure 27
00001100
00011000
00001100
00011000
,  // measure 28
00001100
00011000
00001100
00011000
,  // measure 29
00110000
01100000
11000000
01100000
,  // measure 30
00110000
00011000
00001100
00000110
,  // measure 31
00000011
00001100
00000011
00001100
,  // measure 32
00000011
00001100
00000011
00001100
,  // measure 33
00011000
00110000
11000000
01100000
,  // measure 34
00110000
01100000
00110000
00011000
,  // measure 35
00001100
00000000
00000000
00001000
00000100
00000000
00001000
00000000
,  // measure 36
00001000
00000000
00010000
00000000
00100000
00000000
01000000
00000000
10000000
00000000
00000000
01000000
00000000
00000000
00000000
00000000
,  // measure 37
00100000
00000000
00100000
00000000
,  // measure 38
00110000
00110000
00110000
00110000
,  // measure 39
10010000
01010000
00110000
00011000
,  // measure 40
00110000
00011000
00110000
00011000
,  // measure 41
00001100
00000011
00001100
00000011
,  // measure 42
00001100
00000011
00001100
00000011
,  // measure 43
00001000
00000100
00000010
00000001
,  // measure 44
00000001
00000010
00000100
00001000
00000100
00000000
00001100
00000000
,  // measure 45
00001000
00000010
00000100
00000010
,  // measure 46
00001000
00010000
00100000
01000000
10000000
00000000
10010000
00000000
,  // measure 47
10000000
01000000
00100000
00010000
,  // measure 48
00001000
00000100
00000010
00000001
,  // measure 49
00000010
00000100
00001000
00010000
,  // measure 50
00100000
01000000
10000000
10000000
,  // measure 51
10010000
01000000
00100000
00010000
00100000
01000000
10000000
01000000
,  // measure 52
10010000
01100000
10010000
01100000
,  // measure 53
10010000
01100000
10010000
01100000
,  // measure 54
00110000
00011000
00001100
00000011
,  // measure 55
00001100
00011000
01100000
11000000
,  // measure 56
01100000
00110000
11000000
01100000
,  // measure 57
10010000
01100000
00110000
11000000
,  // measure 58
01100000
00110000
00011000
00001100
,  // measure 59
00011000
00110000
00011000
00110000
,  // measure 60
01100000
11000000
01100000
00110000
,  // measure 61
00011000
00110000
00001100
00000011
,  // measure 62
00001100
00011000
00001100
00000110
,  // measure 63
00001100
00011000
00001100
00000110
,  // measure 64
00001100
00011000
00110000
01100000
,  // measure 65
00110000
00011000
00110000
01100000
,  // measure 66
00110000
00011000
00000110
00000011
,  // measure 67
00001100
00011000
00110000
01100000
,  // measure 68
10000000
01000000
00100000
00010000
00001000
00000100
00000010
00000001
,  // measure 69
00000010
00000100
00001000
00010000
00100000
01000000
11000000
00000000
,  // measure 70
01100000
11000000
01100000
00110000
,  // measure 71
01100000
00110000
01100000
00110000
,  // measure 72
00011000
00001100
00011000
00110000
,  // measure 73
01100000
00110000
01100000
00011000
,  // measure 74
00000110
00000000
00000000
00000000
;
