#VERSION:0.83;
#TITLE:Kimi No Koto Ga Suki Dakara;
#SUBTITLE:;
#ARTIST:AKB48;
#TITLETRANSLIT:;
#SUBTITLETRANSLIT:;
#ARTISTTRANSLIT:;
#GENRE:;
#ORIGIN:;
#CREDIT:;
#BANNER:AV.avi;
#BACKGROUND:KimiNoKotoGa-bg.png;
#PREVIEWVID:;
#JACKET:;
#CDIMAGE:;
#DISCIMAGE:KimiNoKotoGa-bn.png;
#LYRICSPATH:;
#CDTITLE:;
#MUSIC:AKB48 - Kiminokotogasukidakara.mp3;
#OFFSET:0.066000;
#SAMPLESTART:127.980003;
#SAMPLELENGTH:13.000000;
#SELECTABLE:YES;
#BPMS:0.000=157.920,
169.000=156.920,
201.000=157.920,
305.000=79.100,
321.000=157.920;
#STOPS:368.500=0.375;
#DELAYS:;
#WARPS:;
#TIMESIGNATURES:0.000=4=4;
#TICKCOUNTS:0.000=4;
#COMBOS:0.000=1;
#SPEEDS:0.000=1.000=0.000=0;
#SCROLLS:0.000=1.000;
#FAKES:;
#LABELS:0.000=Song Start;
#BGCHANGES:0.000=KimiNoKotoGa.avi=1.000=1=1=1=StretchRewind==CrossFade==,
99999=-nosongbg-=1.000=0=0=0 // don't automatically add -songbackground-
;
#KEYSOUNDS:;
#ATTACKS:
;

//---------------dance-single - ----------------
#NOTEDATA:;
#CHARTNAME:;
#STEPSTYPE:dance-single;
#DESCRIPTION:;
#CHARTSTYLE:;
#DIFFICULTY:Challenge;
#METER:13;
#RADARVALUES:0.710670,1.028446,0.949234,0.064454,0.087892,849.000000,687.000000,162.000000,11.000000,0.000000,0.000000,0.000000,0.000000,0.000000,0.710670,1.028446,0.949234,0.064454,0.087892,849.000000,687.000000,162.000000,11.000000,0.000000,0.000000,0.000000,0.000000,0.000000;
#CREDIT:;
#NOTES:
0000
0000
0000
0000
,
0000
0000
0000
0000
,
0000
0000
0000
0000
,
0000
0000
0000
0000
,
0000
2100
3001
0120
,
0130
0000
0001
0100
1000
0000
0100
0000
0010
0000
0100
0000
1000
0000
0010
0000
,
1001
0000
1000
0010
0100
0001
1000
0010
,
0100
0001
1000
0100
0010
0100
1000
0100
,
0011
0000
0101
0000
0010
0100
0010
0000
,
1010
0101
0110
0101
,
1010
0000
1000
0100
0010
0100
1000
0100
,
0010
0100
0001
0100
0010
0100
0001
0100
,
0010
0100
0101
0000
0000
1010
0000
1001
,
0000
1010
0000
1001
0000
0110
0110
0000
,
0110
0000
0110
0000
0000
1001
0000
1010
,
0000
1001
0000
0110
0000
1001
1010
0000
,
1001
0000
1010
0001
1000
0101
0010
0100
,
1010
0100
0010
1100
0001
0010
0101
1000
,
1100
0010
1100
0001
1000
0101
0010
0100
,
1010
0100
0010
1100
0001
0010
0110
0001
,
1100
0010
1001
0000
1000
0011
0000
0001
,
1100
0000
0100
0011
0000
0010
1001
0000
,
1010
0000
1001
0000
1000
0110
0001
0000
,
0110
0000
1000
0011
1000
0100
1001
0100
,
1010
0100
1010
0001
0100
1010
0100
0001
,
0110
0010
2001
0000
0001
0000
0001
0000
,
3010
0102
1000
0100
,
1000
0000
0100
0000
0013
0000
1000
0100
,
0010
0100
1001
0000
0110
0000
0001
0010
,
0100
1000
0001
0100
0010
0100
0001
0100
,
0010
0001
1000
0100
0010
0100
1000
0100
,
0010
1000
1001
0001
1001
1000
1001
0001
,
1001
0000
0010
0000
1001
0000
0000
0000
0000
0000
1010
0000
0000
0000
1000
0100
,
0010
0000
1010
0000
0000
0110
0000
0000
,
0101
0000
0000
0000
0110
0000
0000
0000
0000
0000
0101
0000
0000
0000
1000
0010
,
0100
0000
1010
0000
0000
0101
0000
0000
,
0110
0000
1010
0000
0101
0000
1000
0100
,
0010
0000
0001
0010
0100
0001
0100
0010
,
0100
0000
1000
0100
0010
0100
1000
0100
,
0010
0000
0100
0000
0001
0000
0100
0000
0010
0000
0100
0000
0001
0000
1000
0100
,
0010
0001
0010
1000
0100
0000
1000
0000
0100
0000
0010
0000
0001
0000
0100
0000
,
0010
0100
1001
0000
0110
0000
1001
0000
,
1010
0000
1010
1000
0100
0010
0100
0001
,
0110
0000
1000
0100
0010
0100
1000
0100
,
0110
0000
0001
0010
0100
0001
0100
0010
,
0101
0000
1000
0100
0010
0100
1000
0100
,
1010
0000
1010
0000
0100
0001
0100
0000
,
0110
0000
1000
0100
0010
0100
1000
0000
,
0010
0100
0001
0010
0100
0001
0100
0010
,
0100
0001
1100
0010
0110
0001
1001
0010
,
1010
0000
0110
0010
0001
0100
0001
1000
,
0101
0000
0010
0001
0100
0001
0010
0001
,
0101
0000
1000
0100
0001
1000
0001
0100
,
1001
0000
1010
0001
0100
0001
0010
0001
,
0110
0000
0110
0000
0001
1000
0001
0000
,
0101
0000
0010
0001
0100
0001
0010
0000
,
0110
0001
1000
0100
0001
1000
0001
0100
,
0001
1000
0001
0100
0001
1000
0100
0100
,
0001
0100
1001
0100
0010
1000
0001
1000
,
0100
0010
0100
0001
0100
0010
1000
0100
,
0010
0100
1000
0100
0010
0100
0001
0100
,
0010
1000
0001
0100
0010
1000
0100
0010
,
0100
0001
1000
0010
1000
0100
0010
0100
,
1000
0100
0010
0100
0001
0100
0010
1000
,
0001
0100
0010
1000
0001
1000
0100
0010
,
0100
0000
0000
0001
0000
0000
0100
0000
0000
0000
1000
0000
0000
0000
0010
0000
0000
0000
0100
0000
0000
0000
0001
0000
,
0000
0000
1000
0000
0000
0000
0100
0000
0000
1000
0000
0000
0100
0000
0000
0010
0000
0000
0100
0000
0000
0001
0000
0000
,
1000
0000
0010
0100
0010
0000
1000
0000
0010
0000
0100
0000
0001
0000
0100
0000
,
0010
0100
0001
0110
0101
0110
0101
0110
,
0101
0110
0101
1000
0100
0010
0100
1000
,
0100
0000
0010
0000
0110
0000
1000
0000
1000
0000
1000
0100
0010
0000
0100
0000
,
1000
0010
0100
0001
0100
0010
0100
0001
,
0100
0000
0010
0000
1000
0000
0100
0000
0010
0000
0100
0000
1000
0000
0100
0010
,
0001
1000
0001
0100
2000
0000
0000
0000
3001
0000
0000
0000
0102
0000
0000
0000
,
0103
0000
1000
0100
0010
0100
1000
0100
,
0010
0000
1001
0010
0001
0100
0010
0100
,
1001
0000
1010
1001
0000
1010
0000
1001
,
0000
0110
0110
0000
0000
0000
1010
0000
0000
0000
0101
0000
0000
0000
0110
0000
,
0000
0000
1010
0000
1010
0000
1000
0100
0010
0000
0100
0000
0010
0000
0100
0000
,
0010
0000
1000
0100
0010
0001
0010
0100
1000
0100
0010
0001
1010
0001
0110
1000
,
0110
0001
0110
1000
1001
0000
0100
0000
0010
0000
0100
0000
1000
0000
0100
0000
,
0010
0100
0001
0100
0010
0100
0001
0000
,
1010
0000
1000
0100
0010
0100
1000
0100
,
0010
0100
0001
0100
0010
0100
0001
0000
,
1010
0000
1001
0000
1000
0100
0010
0000
,
0101
0110
1010
0101
,
0110
0000
1010
0001
0100
0010
0100
0001
,
0100
0010
1000
0001
0100
0010
1000
0001
,
0100
0010
1000
0100
1000
0100
1000
0100
,
0010
0001
0100
0010
0100
0001
0100
0010
,
1000
0001
0100
1000
0100
0010
0100
1000
,
0100
0010
0100
0001
0100
0010
1000
0001
,
0100
1010
2010
0000
3010
0000
0102
0000
,
0103
0000
1000
0100
0010
0000
0100
0000
0001
0000
0100
0000
0010
0000
0100
0000
,
0001
0100
0010
1000
0100
1000
0100
1000
,
0100
0010
0001
0100
0010
0100
0001
0100
,
0010
0100
0101
0000
1010
1001
1010
0000
,
0110
0101
0110
2001
,
3001
0000
1000
0100
0010
0100
1000
0100
,
0010
0100
0001
0100
0010
0100
0001
0100
,
0010
0100
0101
0000
0000
1010
0000
1001
,
0000
0110
0000
0101
0000
0110
0110
0000
,
1001
0000
0000
0000
1010
0000
0000
0000
0101
0000
0110
0000
0000
0000
1000
0100
,
0010
0001
0010
0100
1001
0000
0000
0000
0110
0000
0000
0000
0110
0000
0001
0000
,
1010
0001
2002
0000
0000
0000
0000
0000
,
0000
0000
0000
0000
,
0000
0000
0000
3003
0000
0000
0000
0000
;

//---------------dance-single - Copied from----------------
#NOTEDATA:;
#CHARTNAME:Copied from;
#STEPSTYPE:dance-single;
#DESCRIPTION:Copied from;
#CHARTSTYLE:;
#DIFFICULTY:Hard;
#METER:10;
#RADARVALUES:0.571716,0.684825,0.820325,0.164065,0.017578,683.000000,543.000000,140.000000,28.000000,0.000000,0.000000,0.000000,0.000000,0.000000,0.571716,0.684825,0.820325,0.164065,0.017578,683.000000,543.000000,140.000000,28.000000,0.000000,0.000000,0.000000,0.000000,0.000000;
#CREDIT:Copied from;
#NOTES:
// measure 0
0000
0000
0000
0000
,  // measure 1
0000
0000
0000
0000
,  // measure 2
0000
0000
0000
0000
,  // measure 3
0000
0000
0000
0000
,  // measure 4
0000
2100
3010
0012
,  // measure 5
0013
0000
0100
1000
0010
0100
0001
0000
,  // measure 6
0011
0000
0100
1000
0001
0100
0010
1000
,  // measure 7
0001
0010
0100
1000
0001
0100
0010
0000
,  // measure 8
0011
0000
2100
0000
0001
0010
3001
0000
,  // measure 9
0011
0110
1001
0120
,  // measure 10
0130
1002
1003
0210
,  // measure 11
0310
1002
1003
0120
,  // measure 12
0130
0000
1001
0100
1000
0001
1000
0100
,  // measure 13
1000
0001
1000
0100
1000
0000
1001
0000
,  // measure 14
0110
0000
0011
0100
0010
0001
0010
0100
,  // measure 15
0010
0001
0010
0100
0010
0000
1001
0000
,  // measure 16
0110
0000
1001
0100
0010
0001
1000
0010
,  // measure 17
0100
0000
1000
0100
0010
0001
2000
0000
,  // measure 18
3010
0000
0001
0010
0100
1000
0001
0100
,  // measure 19
0010
0000
0010
0100
0001
1000
0200
0000
,  // measure 20
1300
0000
0010
0000
0010
0100
0000
0100
,  // measure 21
0001
0000
0001
0010
0000
0010
0100
0000
,  // measure 22
0100
0000
1001
0000
1001
0000
0010
0100
,  // measure 23
0001
0000
0100
1000
0001
0010
0100
0000
,  // measure 24
1001
0000
1100
0000
1001
0000
0001
0010
,  // measure 25
0100
0000
0001
1000
0010
0100
0001
0000
,  // measure 26
1001
2100
0010
0001
,  // measure 27
0100
0000
0001
0000
3010
0000
0010
0100
,  // measure 28
0001
0010
0200
0000
0310
0000
0001
1000
,  // measure 29
0010
0000
1000
0100
0010
0001
1000
0000
,  // measure 30
1001
0000
0010
0100
0001
0000
0100
0010
,  // measure 31
0001
1100
1001
1010
,  // measure 32
1001
0000
0000
0000
0120
0000
0000
0000
0000
0000
0130
0000
0000
0000
0001
1000
,  // measure 33
0001
0000
0210
0000
0000
0301
0000
0000
,  // measure 34
1100
0000
0000
0000
2010
0000
0000
0000
0000
0000
3001
0000
0000
0000
0001
0010
,  // measure 35
0001
0000
1100
0000
0000
1010
0000
0000
,  // measure 36
0101
0000
2010
0000
3010
0000
0001
0010
,  // measure 37
0001
0000
0100
1000
0001
0100
0010
0000
,  // measure 38
1001
0000
0100
1000
0100
1000
0000
0010
,  // measure 39
0001
0010
0100
1000
0001
0100
0000
0010
,  // measure 40
1000
0001
0110
0000
0011
0000
1100
0000
,  // measure 41
1001
0110
0110
2001
,  // measure 42
3001
0000
0100
0010
0100
0000
0001
1000
,  // measure 43
0001
0000
0010
0100
0001
0010
0200
0000
,  // measure 44
1300
0000
0010
0100
0001
0000
0010
0100
,  // measure 45
1000
0000
0001
0100
0010
1000
0001
0000
,  // measure 46
0110
0000
0011
0000
0100
1000
0001
0000
,  // measure 47
1001
1100
0010
0011
,  // measure 48
0100
0000
0001
1000
0100
0000
0010
0100
,  // measure 49
0010
1100
0011
1100
,  // measure 50
1001
0000
0010
0100
0010
0000
0001
0010
,  // measure 51
0100
0000
0001
1000
0100
1000
0001
0000
,  // measure 52
1001
0000
0110
0000
0001
0000
0100
0010
,  // measure 53
0011
0000
1100
0001
1000
0010
0100
0000
,  // measure 54
1100
0000
1001
0000
0010
0100
0001
0000
,  // measure 55
0010
1000
0010
0000
0100
0000
0010
0000
,  // measure 56
0010
0011
1100
1001
,  // measure 57
0110
0011
0110
1001
,  // measure 58
0110
2001
3100
0012
,  // measure 59
0013
1200
1300
0210
,  // measure 60
0310
0000
0001
1000
0100
0000
0001
0100
,  // measure 61
0010
0000
0001
0010
0100
1000
0001
1000
,  // measure 62
0010
0000
0001
0010
0100
0000
0001
1000
,  // measure 63
0010
0000
0100
1000
0001
1000
0100
0000
,  // measure 64
1000
0000
0010
0100
0001
0000
0100
0010
,  // measure 65
0001
0000
0000
0000
1000
0000
0000
0010
0000
0000
0100
0000
0001
0000
0000
1000
,  // measure 66
0000
0100
0010
0001
0010
0100
1000
0000
,  // measure 67
0110
0000
0001
0010
0100
1000
0001
0000
,  // measure 68
1001
0000
0010
0100
0001
0000
0010
0100
,  // measure 69
0010
0000
1000
0001
0100
0010
1000
0000
,  // measure 70
1100
0000
0001
0010
0100
0000
1000
0001
,  // measure 71
1000
0110
0010
0011
,  // measure 72
0001
1100
1001
0110
,  // measure 73
0011
0000
0100
1000
0001
0000
1000
0010
,  // measure 74
1000
1010
0101
0011
,  // measure 75
1100
0000
0001
1000
0100
0000
1000
0000
,  // measure 76
1001
0000
0110
1100
0000
0110
0000
0011
,  // measure 77
0000
0001
0001
0000
0000
0000
1100
0000
0000
0000
0110
0000
0000
0000
0011
0000
,  // measure 78
0000
1000
1000
0000
0110
0000
0010
0000
1000
0000
0001
0000
0010
0000
0100
0000
,  // measure 79
1000
0001
0100
0010
0010
0100
1001
1001
,  // measure 80
1001
1001
0100
0010
1000
0010
0100
0000
,  // measure 81
0001
0000
0100
0010
0001
0010
0100
0000
,  // measure 82
1001
0000
0010
0100
0001
0000
0010
0100
,  // measure 83
1000
0000
0001
0100
0010
1000
0001
0000
,  // measure 84
1100
0000
0011
0000
0100
0010
0001
0000
,  // measure 85
0011
1100
0010
0100
,  // measure 86
0001
1100
1001
0110
,  // measure 87
0011
1100
1001
0110
,  // measure 88
0011
2100
0001
0010
,  // measure 89
0001
0100
0010
0100
,  // measure 90
3001
0110
0011
1100
,  // measure 91
1001
0110
1001
0120
,  // measure 92
0100
0030
2001
0000
3010
0000
0102
0000
,  // measure 93
0013
0100
1000
0001
0100
0010
0001
0000
,  // measure 94
0011
0000
0100
1000
0001
0100
0010
0000
,  // measure 95
0011
0000
0100
1000
0001
1000
0010
0000
,  // measure 96
0110
0000
1001
0000
0100
1000
0001
0000
,  // measure 97
0011
1100
1001
0210
,  // measure 98
0310
1001
1100
0011
,  // measure 99
0110
0000
1001
0010
0100
0001
0010
0000
,  // measure 100
1100
0000
0100
1000
0001
1000
0010
0100
,  // measure 101
0001
0010
0100
1000
0001
0000
1010
0000
,  // measure 102
1001
0000
0100
0010
0100
1000
0010
0100
,  // measure 103
0001
1000
0100
0010
0001
1000
0010
0100
,  // measure 104
0001
1000
0200
0000
0000
0000
0000
0000
,  // measure 105
0000
0000
0000
0000
,  // measure 106
0000
0300
0000
0000
;

//---------------dance-single - Copied from Copied f----------------
#NOTEDATA:;
#CHARTNAME:Copied from Copied f;
#STEPSTYPE:dance-single;
#DESCRIPTION:Copied from Copied f;
#CHARTSTYLE:;
#DIFFICULTY:Medium;
#METER:7;
#RADARVALUES:0.282091,0.467476,0.076173,0.058595,0.000000,337.000000,324.000000,13.000000,10.000000,0.000000,0.000000,0.000000,0.000000,0.000000,0.282091,0.467476,0.076173,0.058595,0.000000,337.000000,324.000000,13.000000,10.000000,0.000000,0.000000,0.000000,0.000000,0.000000;
#CREDIT:Copied from Copied f;
#NOTES:
0000
0000
0000
0000
,
0000
0000
0000
0000
,
0000
0000
0000
0000
,
0000
0000
0000
0000
,
0000
1000
1000
0001
,
0000
1000
1000
0010
,
0000
1000
0100
0010
,
1000
0001
1000
0001
,
0000
0100
0010
1000
,
0000
0001
0001
0001
,
0000
1000
0100
0010
,
0001
1000
1000
0001
,
0001
1000
0000
0010
,
0000
0100
0000
1001
,
1001
1001
0000
0100
,
0000
1000
0000
1010
,
1010
0000
1010
0000
0000
0100
0000
0000
,
0001
0000
0000
1000
0000
0000
0100
0000
,
0100
0000
0100
0000
0000
1000
0000
0000
,
0001
0000
0000
0010
0000
0000
0010
0000
,
0010
0000
1000
0000
0000
0001
0000
0000
,
1000
0000
0000
0001
0000
0000
0100
0000
,
0100
1000
0001
1000
,
0010
0100
0100
1000
,
0001
1000
0000
0001
,
0000
0100
0100
0010
,
1000
2002
0000
0000
,
0000
0000
0000
3003
0000
0000
1000
0000
,
1000
0001
1000
0000
,
1000
1000
0010
1000
,
0000
1000
0001
1000
,
0001
0010
0010
0010
,
0100
0000
0010
0000
0000
0010
0000
0000
,
1000
0000
0001
0000
0000
0001
0000
0000
,
1000
0000
0100
0000
0000
0100
0000
0000
,
1000
0000
0010
0000
0000
0010
0000
0000
,
1000
0001
0001
0100
,
0100
0010
1000
0001
,
1000
0100
1000
0001
,
1000
0010
0010
0010
,
0000
1000
0001
1000
,
0001
0100
0100
0100
,
1000
0001
0001
0001
,
0000
1000
0001
1000
,
0000
0100
0010
0100
,
0000
0001
0001
0001
,
0000
1000
0100
0010
,
0001
0010
0100
0010
,
1000
0001
1000
0001
,
0100
0010
0010
0010
,
0010
1000
1000
1000
,
0000
0001
0100
0010
,
0000
1000
0001
1000
,
0000
0100
0100
0010
,
0000
1000
0001
1000
,
0000
0010
0100
0010
,
0000
0001
0001
0001
,
0001
0001
0001
0001
,
0001
2002
0000
0000
,
0000
0000
0000
0000
0000
0000
0000
3003
,
0000
1000
1000
0010
,
0000
0100
0010
0100
,
0000
0001
0001
1000
,
0000
1000
0100
0010
,
0000
0001
1000
0001
,
0000
0010
0100
0010
,
0100
0001
0001
1000
,
0000
1000
1000
0001
,
0000
1000
0100
0010
,
0000
0001
0010
0100
,
0000
1001
0000
1001
,
0000
1000
1000
0001
,
0000
0100
0010
0100
,
0010
1000
1000
0001
,
1000
2020
0000
0000
,
3030
0000
0202
0000
0000
0000
0000
0303
,
0000
1000
1000
1000
,
0000
0010
1000
0001
,
0000
0000
1000
1000
0100
0000
0010
0010
,
0001
0000
1000
0001
1000
0001
0100
0100
,
0100
0100
1000
0000
0001
0000
1000
0000
,
0000
0100
0010
1000
,
0000
0001
0100
0010
,
0000
1000
0001
1000
,
0000
0100
1000
0010
,
0000
0001
1000
0001
,
0000
1000
0100
0010
,
0100
1000
0100
0010
,
0001
1000
1000
1000
,
1000
1000
1000
1000
,
1000
0001
0010
0100
,
0010
0001
0010
0100
,
0001
1000
1000
0000
1000
0000
1000
0000
,
0100
0010
1000
0001
,
0000
0100
0100
1000
,
0000
0001
0010
0001
,
0000
0100
1000
0001
,
1000
0001
0010
0001
,
0000
1000
1000
1000
,
1000
0100
0100
0100
,
0100
0010
0000
0001
,
0000
1000
0000
0001
,
0001
1000
0000
0100
,
0000
0010
0000
1000
,
1000
2002
0000
0000
,
0000
0000
0000
0000
,
0000
0000
0000
3003
0000
0000
0000
0000
;

//---------------dance-single - Copied from Copied f----------------
#NOTEDATA:;
#CHARTNAME:Copied from Copied f;
#STEPSTYPE:dance-single;
#DESCRIPTION:Copied from Copied f;
#CHARTSTYLE:;
#DIFFICULTY:Easy;
#METER:4;
#RADARVALUES:0.220986,0.311666,0.046876,0.029297,0.000000,264.000000,256.000000,8.000000,5.000000,0.000000,0.000000,0.000000,0.000000,0.000000,0.220986,0.311666,0.046876,0.029297,0.000000,264.000000,256.000000,8.000000,5.000000,0.000000,0.000000,0.000000,0.000000,0.000000;
#CREDIT:Copied from Copied f;
#NOTES:
0000
0000
0000
0000
,
0000
0000
0000
0000
,
0000
0000
0000
0000
,
0000
0000
0000
0000
,
0000
1000
1000
0000
,
0000
0010
0010
0000
,
0000
0001
0001
0000
,
0000
1000
1000
0000
,
0000
0100
0100
0000
,
0000
0010
0010
0000
,
0000
1000
1000
1000
,
1000
0100
0000
0010
,
0000
0001
1000
0001
,
0000
0100
0010
1000
,
0000
0001
0001
1000
,
0000
1000
1000
0001
,
0000
1000
1000
0100
,
0000
0010
0010
0001
,
0000
1000
0000
1000
,
0000
0001
0001
0001
,
0000
1000
0000
1000
,
0000
1000
0000
0001
,
0000
1000
0100
0010
,
0000
0001
0010
0100
,
0000
1000
1000
0001
,
0000
1000
1000
0010
,
0000
0020
0000
0000
,
0000
0000
0030
1000
,
1000
0001
0000
0100
,
0000
0010
0010
1000
,
0000
1000
0100
0010
,
0001
0001
0001
0001
,
0100
0010
0000
0000
,
1000
0001
0000
0000
,
0001
1000
0000
0000
,
1000
0001
0000
0000
,
0010
0100
0100
0010
,
0000
0001
0001
1000
,
0000
1000
0100
0010
,
0000
0001
1000
0001
,
0000
1000
1000
0100
,
0000
0010
0010
0010
,
0010
1000
0000
0001
,
0000
1000
1000
1000
,
0000
0001
0000
1000
,
0000
0001
0001
0001
,
0000
0010
0000
0100
,
0000
0010
0000
1000
,
0000
0001
0000
1000
,
0000
0100
0100
0100
,
0100
0001
0000
1000
,
0000
0001
0001
0001
,
0000
1000
0000
0010
,
0000
1000
1000
1000
,
0000
0100
0000
0010
,
0000
0001
0001
0001
,
0000
1000
0100
1000
,
0000
0010
1000
0001
,
0000
0001
0000
0001
,
0000
1000
1000
0010
,
0000
0001
0001
1000
,
0000
1000
0100
0010
,
0000
0001
0001
1000
,
0000
0100
0000
0010
,
0000
1000
1000
0001
,
0000
0001
0000
1000
,
0000
1000
0000
1000
,
0000
0001
0001
0001
,
0000
0100
0000
0100
,
0000
0010
0010
0010
,
0000
0001
0000
1000
,
0000
0100
0000
1000
,
0000
0001
0000
1000
,
0000
0001
0000
1000
,
0000
0100
0100
0100
,
0000
0010
0010
0010
,
0000
1001
0000
1001
,
0000
1010
0000
0101
,
0000
0010
0000
0010
,
0000
0010
0000
1001
,
0000
1000
0000
1000
,
0000
0100
0000
0100
,
0000
0010
0000
1000
,
0000
0001
0001
0001
,
0000
1000
0000
0010
,
0000
0100
0000
0010
,
0000
1000
1000
0001
,
0001
0100
0100
0010
,
0010
2002
0000
0000
,
0000
0000
0000
3003
,
0000
1000
1000
0100
,
0100
0010
0010
0001
,
0001
1001
0000
1000
,
0000
0100
0100
1000
,
0000
0001
0000
1000
,
0000
0100
0100
0010
,
0000
1000
0000
0001
,
0000
1000
1000
0001
,
0000
1000
1000
1000
,
0000
0100
0100
0100
,
0000
0010
0000
1000
,
0000
0001
0000
0001
,
0001
0001
0000
0100
,
0000
0010
0000
1000
,
1000
2002
0000
0000
,
0000
0000
0000
0000
,
0000
0000
0000
0000
0000
0000
0000
0000
0000
0000
0000
0000
0000
0000
0000
0000
0000
0000
0000
0000
0000
0000
0000
0000
0000
0000
0000
0000
0000
0000
0000
0000
0000
0000
0000
0000
0000
0000
0000
0000
0000
0000
0000
0000
0000
0000
0000
0000
0000
0000
0000
0000
0000
0000
0000
0000
0000
0000
0000
0000
0000
0000
0000
0000
0000
0000
0000
0000
0000
0000
0000
0000
0000
3003
0000
0000
0000
0000
0000
0000
0000
0000
0000
0000
0000
0000
0000
0000
0000
0000
0000
0000
0000
0000
0000
0000
0000
0000
0000
0000
0000
0000
0000
0000
0000
0000
0000
0000
0000
0000
0000
0000
0000
0000
0000
0000
0000
0000
0000
0000
0000
0000
0000
0000
0000
0000
0000
0000
0000
0000
0000
0000
0000
0000
0000
0000
0000
0000
0000
0000
0000
0000
0000
0000
0000
0000
0000
0000
0000
0000
0000
0000
0000
0000
0000
0000
0000
0000
0000
0000
0000
0000
0000
0000
0000
0000
0000
0000
0000
0000
0000
0000
0000
0000
0000
0000
0000
0000
0000
0000
0000
0000
0000
0000
0000
0000
0000
0000
0000
0000
0000
0000
;

//---------------dance-single - Copied from Copied f----------------
#NOTEDATA:;
#CHARTNAME:Copied from Copied f;
#STEPSTYPE:dance-single;
#DESCRIPTION:Copied from Copied f;
#CHARTSTYLE:;
#DIFFICULTY:Beginner;
#METER:2;
#RADARVALUES:0.164902,0.249345,0.029297,0.023438,0.000000,197.000000,192.000000,5.000000,4.000000,0.000000,0.000000,0.000000,0.000000,0.000000,0.164902,0.249345,0.029297,0.023438,0.000000,197.000000,192.000000,5.000000,4.000000,0.000000,0.000000,0.000000,0.000000,0.000000;
#CREDIT:Copied from Copied f;
#NOTES:
0000
0000
0000
0000
,
0000
0000
0000
0000
,
0000
0000
0000
0000
,
0000
0000
0000
0000
,
0000
1000
0000
0000
,
0000
1000
0000
0000
,
0000
0001
0000
0000
,
0000
0010
0000
0000
,
0000
1000
0000
0000
,
0000
0100
0000
0000
,
0000
0010
0000
0000
,
0000
0001
0000
0000
,
0000
1000
0000
0000
,
0000
0100
0000
0000
,
0000
1000
0000
0000
,
0000
0001
0000
0000
,
0000
1000
0000
0001
,
0000
1000
0000
0000
,
0000
0100
0000
0010
,
0000
0100
0000
0000
,
0000
1000
0000
0001
,
0000
1000
0000
0000
,
0000
0001
0000
1000
,
0000
0001
0000
0000
,
0000
0100
0000
0010
,
0000
1000
0001
1000
,
0000
0001
0000
0001
,
0000
0100
0010
0100
,
0000
1000
0000
1000
,
0000
0100
0100
0010
,
0000
0001
0000
0001
,
0000
0001
0000
1000
,
0000
0010
0000
0000
,
0000
0010
0000
0000
,
0000
0100
0000
0000
,
0000
0100
0000
0000
,
0000
0001
0000
1000
,
0000
0001
0000
0010
,
0000
1000
0000
0001
,
0000
1000
1000
1000
,
0000
0100
0000
0010
,
0000
0001
0001
0001
,
1000
0100
0000
0100
,
0000
0010
0010
0010
,
0000
0001
0000
1000
,
0000
0100
0100
0100
,
0000
0010
0000
1000
,
0000
0001
0001
0001
,
0000
1000
0000
0100
,
0000
1000
1000
1000
,
1000
0001
0000
1000
,
0000
0010
0010
0010
,
0000
0100
0000
0001
,
0000
1000
1000
1000
,
0000
0100
0000
0010
,
0000
0001
0001
0001
,
0000
1000
0000
0001
,
0000
1000
0000
0001
,
0000
1001
0000
0001
,
0000
0010
0000
0100
,
0000
1000
0000
1000
,
0000
0001
0000
0100
,
0000
0010
0000
1000
,
0000
0001
0000
1000
,
0000
0100
0000
0010
,
0000
0001
0000
0000
,
0000
0001
0000
0000
,
0000
1000
0000
0000
,
0000
1000
0000
0000
,
0000
0100
0000
0000
,
0000
0001
0000
0000
,
0000
0001
0000
0000
,
0000
0010
0000
0000
,
0000
0001
0000
0001
,
0000
0001
0000
0000
,
0000
1000
0000
0010
,
0000
1000
0000
1000
,
0000
0001
0000
1000
,
0000
0100
0000
1000
,
0000
0001
0000
2002
,
3003
1001
0000
1000
,
0000
0001
0000
0000
,
0000
0100
0000
0010
,
0000
1000
0000
0000
,
0000
0001
0000
1000
,
0000
0001
0000
0000
,
0000
1000
1000
1000
,
0000
0100
0100
0100
,
0000
0010
0000
0010
,
0000
0010
0000
0010
,
0000
0001
0001
0001
,
0000
1000
1000
1000
,
0000
1001
0000
1000
,
0000
0001
0001
0001
,
0000
0100
0000
0010
,
0000
1000
1000
1000
,
0000
0100
0000
0010
,
0000
0001
0001
0001
,
0000
1000
0000
1000
,
0000
1000
0000
0100
,
0000
0010
0000
0001
,
0000
1000
0000
0001
,
0001
0001
0000
0100
,
0000
0010
0000
1000
,
1000
2002
0000
0000
,
0000
0000
0000
0000
,
0000
0000
0000
0000
0000
0000
0000
0000
0000
0000
0000
0000
0000
0000
0000
0000
0000
0000
0000
0000
0000
0000
0000
0000
0000
0000
0000
0000
0000
0000
0000
0000
0000
0000
0000
0000
0000
0000
0000
0000
0000
0000
0000
0000
0000
0000
0000
0000
0000
0000
0000
0000
0000
0000
0000
0000
0000
0000
0000
0000
0000
0000
0000
0000
0000
0000
0000
0000
0000
0000
0000
0000
0000
0000
3003
0000
0000
0000
0000
0000
0000
0000
0000
0000
0000
0000
0000
0000
0000
0000
0000
0000
0000
0000
0000
0000
0000
0000
0000
0000
0000
0000
0000
0000
0000
0000
0000
0000
0000
0000
0000
0000
0000
0000
0000
0000
0000
0000
0000
0000
0000
0000
0000
0000
0000
0000
0000
0000
0000
0000
0000
0000
0000
0000
0000
0000
0000
0000
0000
0000
0000
0000
0000
0000
0000
0000
0000
0000
0000
0000
0000
0000
0000
0000
0000
0000
0000
0000
0000
0000
0000
0000
0000
0000
0000
0000
0000
0000
0000
0000
0000
0000
0000
0000
0000
0000
0000
0000
0000
0000
0000
0000
0000
0000
0000
0000
0000
0000
0000
0000
0000
0000
;
