#TITLE:I want you;
#SUBTITLE:;
#ARTIST:Lin-G;
#TITLETRANSLIT:;
#SUBTITLETRANSLIT:;
#ARTISTTRANSLIT:;
#GENRE:;
#CREDIT:;
#BANNER:AV.avi;
#BACKGROUND:I want you-bg.png;
#LYRICSPATH:;
#CDTITLE:;
#MUSIC:I want you.mp3;
#OFFSET:-0.387000;
#SAMPLESTART:48.398998;
#SAMPLELENGTH:16.000000;
#SELECTABLE:YES;
#DISPLAYBPM:140.000000;
#BPMS:0.000000=140.000000
;
#STOPS:13.000000=0.840000
;
#BGCHANGES:0.000=I Want You.avi=1.000=1=1=1=StretchRewind==CrossFade==,
99999=-nosongbg-=1.000=0=0=0 // don't automatically add -songbackground-
;
#KEYSOUNDS:;
#ATTACKS:;

//---------------dance-single - ----------------
#NOTES:
     dance-single:
     :
     Hard:
     10:
     0.490056,0.494427,0.309372,0.118289,0.036397,377.000000,343.000000,34.000000,13.000000,0.000000,0.000000,0.490056,0.494427,0.309372,0.118289,0.036397,377.000000,343.000000,34.000000,13.000000,0.000000,0.000000:
0000
0000
0000
0000
,
0000
0000
0000
0000
,
0000
0000
0000
0000
,
0000
0000
1000
0010
,
1000
0000
0100
0000
1000
0001
0100
0010
,
1000
1001
0010
0100
,
1000
0001
0100
0000
1000
0010
0001
0000
,
0100
1000
0001
0000
0100
0000
0010
0000
,
1000
0000
0001
0000
0100
0010
0001
0000
,
1000
1001
0010
0100
,
0001
1000
0001
0000
1000
0010
0001
1000
,
0100
2001
3100
0010
,
0100
0001
0100
0000
1000
0010
0001
1000
,
0100
1001
0010
0100
,
0001
0010
0100
0000
1000
0010
0001
0100
,
0010
1001
0010
0100
,
0001
0010
0001
0000
0100
0010
1000
0001
,
0010
0000
1100
0000
0001
1000
0001
0000
,
0010
0001
0010
0000
2002
0000
0000
0000
,
0000
3003
0110
0001
,
0010
0100
0010
0000
0001
1000
0010
0100
,
0001
0011
0100
1000
,
0001
1000
0001
0000
1000
0010
0001
0100
,
1000
1001
0010
0100
,
0001
0010
0001
0000
0100
1000
0010
0100
,
0001
0000
1001
0000
0100
1000
0001
0010
,
0100
1000
0001
0100
0010
1000
0100
0010
,
0001
0011
1100
1001
,
0210
0000
0310
0000
0001
0010
0100
1000
,
0001
1001
0110
1100
,
0012
0000
1003
0000
0100
1000
0001
0010
,
0100
1001
0011
1100
,
0201
0000
0310
0000
0100
0010
0001
0000
,
0100
1000
0001
0000
1000
0010
1000
0000
,
0100
0010
0001
0000
0100
1000
0001
0100
,
0010
0000
1001
0000
0100
1000
0001
0100
,
0010
1000
0001
0010
0100
1000
0001
1000
,
0010
1000
0001
0010
0100
0010
0001
1000
,
0010
0100
1000
0001
0010
1000
0001
0010
,
0100
0010
0001
1000
0010
1000
0100
1000
,
0001
1000
0010
1000
0001
0010
0100
0010
,
0001
0100
0010
1000
0001
0010
0100
0001
,
1000
0010
0100
1000
0001
0100
0010
1000
,
0001
0010
0200
0000
0310
1000
0001
1000
,
0100
0010
0001
0000
0001
0000
0000
0000
0100
0000
1000
0000
0010
0000
0100
0000
,
0001
1000
0100
0000
1000
0000
0000
0000
0001
0000
0010
0000
0100
0000
1000
0000
,
0001
1000
0001
0000
0100
0000
0000
0000
0001
0000
0010
0000
0100
0000
0010
0000
,
0001
0010
0001
0000
1000
0000
0000
0000
1100
0000
0001
0000
0010
0000
0100
0000
,
0010
0001
0010
0000
0100
0000
0000
0000
0010
0000
1000
0000
0001
0000
1000
0000
,
0100
1000
0001
0000
1000
0000
0000
0000
0010
0000
0100
0000
0001
0000
1000
0000
,
0100
0010
0001
0000
1000
0000
0000
0000
0010
0000
0100
0000
0001
0000
1000
0000
,
0100
1000
0001
0000
1000
0000
0000
0000
2100
0000
0000
0000
0010
0000
0000
0000
,
0001
0000
3100
0000
0010
0100
0001
0010
,
0100
1100
0012
1000
,
0100
0000
0013
0000
0100
1000
0010
0100
,
0001
0011
2100
0001
,
0010
0000
3001
0000
0100
0010
0001
1000
,
0010
0000
0101
0000
0100
1000
0100
0000
,
0100
0010
0101
0000
0100
1000
0010
0100
,
0001
1000
0200
0000
1300
0000
0110
0000
,
2002
0000
0000
3003
0000
0000
0000
0000
;

//---------------dance-single - ----------------
#NOTES:
     dance-single:
     :
     Beginner:
     2:
     0.152086,0.192675,0.036397,0.109190,0.000000,117.000000,113.000000,4.000000,12.000000,0.000000,0.000000,0.152086,0.192675,0.036397,0.109190,0.000000,117.000000,113.000000,4.000000,12.000000,0.000000,0.000000:
0000
0000
0000
0000
,
0000
0000
0000
0000
,
0000
0000
0000
0000
,
0000
0000
1000
0000
,
1000
0000
1000
0000
,
1000
0000
0001
0000
,
0001
0000
0001
0000
,
0001
0000
0100
0000
,
0100
0000
0100
0000
,
0100
0000
0010
0000
,
0010
0000
0020
0000
,
0030
0000
0100
0000
,
0001
0000
0100
0000
,
0010
0000
1000
0000
,
0100
0000
1000
0000
,
0010
0000
1000
0000
,
0001
0000
0100
0000
,
0001
0000
1000
0000
,
0100
0000
0020
0000
,
0030
0000
0001
0000
,
0001
0000
0100
0000
,
1001
0000
1000
0000
,
1000
0000
0100
0000
,
1001
0000
0010
0000
,
0010
0000
1000
0000
,
1001
0000
0100
0000
,
0100
0000
0001
0000
,
1001
0000
1000
1000
,
1000
0000
0100
0000
,
0100
0000
0001
0001
,
0001
0000
0010
0000
,
0010
0000
0100
0100
,
0100
0000
1000
0000
,
1000
0000
0001
0000
,
0001
0000
0010
0000
,
0010
0000
0001
0001
,
0001
0000
0100
0000
,
0100
0000
1000
1000
,
1000
0000
0010
0000
,
0010
0000
0100
0100
,
0100
0000
0001
0000
,
0001
0000
0010
0000
,
0010
0000
0200
0000
,
0300
0000
2000
0000
,
3000
0000
0200
0000
,
0300
0000
0002
0000
,
0003
0000
0020
0000
,
0030
0000
0002
0000
,
0003
0000
2000
0000
,
3000
0000
0020
0000
,
0030
0000
0200
0000
,
0300
0000
0001
0001
,
0001
0000
1000
0000
,
1000
0000
0100
0100
,
0100
0000
0010
0000
,
0010
0000
1000
1000
,
1000
0000
0001
0000
,
0001
0000
0100
0000
,
0100
0000
0010
0000
,
0010
0000
0010
0010
,
0020
0000
0030
0000
;

//---------------dance-single - ----------------
#NOTES:
     dance-single:
     :
     Easy:
     5:
     0.240478,0.275250,0.063694,0.154686,0.000000,185.000000,178.000000,7.000000,17.000000,0.000000,0.000000,0.240478,0.275250,0.063694,0.154686,0.000000,185.000000,178.000000,7.000000,17.000000,0.000000,0.000000:
0000
0000
0000
0000
,
0000
0000
0000
0000
,
0000
0000
0000
0000
,
0000
0000
1000
0000
,
1000
0000
1000
0000
,
1000
0000
0001
0000
,
0001
0000
0001
0000
,
0001
0000
0100
0000
,
0100
0000
0100
0000
,
0100
0000
0010
0000
,
0010
0000
0010
0000
,
0010
0000
0100
0100
,
0001
0001
1000
0100
,
1000
0100
0010
0010
,
0001
0001
0100
0001
,
0100
0001
1000
1000
,
0010
0010
0100
0010
,
0100
0010
1000
1000
,
0001
0001
2000
0000
,
3000
0000
1000
1001
,
0000
0010
0000
0010
,
0100
0110
0001
1001
,
0000
1000
0000
0010
,
0100
0110
1000
0001
,
0000
0001
0000
0001
,
0001
0110
0100
0100
,
0010
0010
1000
1000
,
0001
0001
2000
0100
,
0000
0100
0000
0100
,
0000
3100
0200
0001
,
0000
0001
0000
0001
,
0000
0301
0002
0010
,
0000
0010
0000
0010
,
0000
0013
0010
1000
,
0001
1000
0010
0100
,
0001
1000
0100
0100
,
0100
0200
0010
0010
,
0310
0020
0001
0001
,
0031
0002
1000
1000
,
1003
2000
0010
0010
,
3010
0020
0100
0100
,
0130
0200
0001
0001
,
0301
0001
2002
0000
,
3003
0000
1000
0010
,
0000
0010
0100
0001
,
0000
0001
0010
0100
,
0000
0100
1000
0001
,
0000
0000
0001
1000
,
0001
0000
1000
0100
,
1000
0000
0001
0010
,
0001
0000
0100
0010
,
0100
0000
0020
1000
,
1000
1000
0000
0100
,
0100
0130
0002
0010
,
0010
0010
0000
1000
,
1000
1003
0200
0001
,
0001
0001
0000
0010
,
0010
0310
1000
0010
,
1000
0001
0100
0010
,
0100
0001
0100
0100
,
2002
0000
3003
0000
;

//---------------dance-single - ----------------
#NOTES:
     dance-single:
     :
     Medium:
     6:
     0.365267,0.412875,0.145587,0.054595,0.000000,281.000000,265.000000,16.000000,6.000000,0.000000,0.000000,0.365267,0.412875,0.145587,0.054595,0.000000,281.000000,265.000000,16.000000,6.000000,0.000000,0.000000:
0000
0000
0000
0000
,
0000
0000
0000
0000
,
0000
0000
0000
0000
,
0000
0000
1000
0010
,
1000
0001
0001
0010
,
0001
1000
1000
0100
,
1000
0010
0001
0100
,
0001
0010
0100
0100
,
1000
1000
0001
0001
,
0100
0100
0010
0010
,
1000
1000
2002
0000
,
3003
0000
0000
0000
0001
0000
1000
0010
,
1000
0000
0000
0010
1000
0000
1000
0000
,
0001
0000
0010
0000
0100
0000
0010
0001
,
0010
0000
0000
0001
1000
0000
0010
0000
,
0100
0000
0100
0000
0010
0000
0100
0001
,
1000
0000
0000
0010
1000
0000
0001
0000
,
0010
0000
0001
0000
0100
0000
0001
1000
,
0010
0100
0220
0000
,
0330
0000
0001
1000
,
0000
0001
1000
0000
0010
0000
0100
0000
,
0000
0010
0100
0000
0001
0000
0010
0000
,
0000
0001
0010
0000
0100
0000
0100
0000
,
0100
0100
1000
0010
,
0000
1000
0010
0000
0100
0000
0010
0000
,
0000
0100
0010
0000
1000
0000
0001
0000
,
0010
0001
0100
0010
,
1000
0000
0001
0000
0010
0000
0100
0001
,
0100
0000
0010
0100
0000
0100
0010
0000
,
1001
0000
1001
0000
0001
0000
1000
0010
,
1000
0000
0001
0100
0000
0100
0010
0000
,
1001
0000
1001
0000
1000
0000
0100
1000
,
0100
0000
0010
0001
0000
0001
0100
0000
,
0110
0110
0010
1000
,
0001
0010
0001
1000
,
0010
0000
0100
0000
0001
0100
0010
0100
,
0001
0000
1000
0001
0000
0001
1000
0000
,
1100
0000
1100
0000
1000
0100
0010
0100
,
1000
0000
0001
0100
0000
0100
0010
0000
,
0101
0000
0101
0000
0001
0100
0000
0100
,
0010
0000
0010
1000
0000
1000
0100
0000
,
0100
0010
0000
0000
0001
0000
0010
0100
,
1000
0000
1000
0100
0010
0000
0001
0000
,
1001
0110
0100
0001
,
0100
0010
0000
0010
0100
0000
1000
0000
,
1000
0010
0000
0010
0001
0000
0100
0000
,
0001
0010
0000
0010
0100
0000
0001
0000
,
1000
0100
0000
0100
0010
0001
0010
0000
,
0001
1000
0000
1000
0010
0100
0010
0000
,
0010
1000
0000
1000
0001
1000
0001
0000
,
0001
0010
0000
0010
0100
0000
1000
0000
,
0001
0000
0100
0000
0010
1000
0010
0100
,
0010
0000
0100
0001
0000
0001
1000
0010
,
0100
0000
0110
0000
0100
0001
0010
0001
,
1000
0000
0001
0010
0000
0010
0100
1000
,
0001
1000
0001
0000
0100
0001
1000
0001
,
0010
0000
0100
1000
0000
1000
0010
1000
,
0010
0100
0001
0000
1000
0000
0010
0000
,
0100
0001
0001
0010
,
0100
1000
0100
0100
,
2002
0000
3003
0000
;

//---------------dance-double - ----------------
#NOTES:
     dance-double:
     :
     Hard:
     12:
     0.423762,0.471793,0.300273,0.081893,0.000000,326.000000,293.000000,33.000000,9.000000,0.000000,0.000000,0.423762,0.471793,0.300273,0.081893,0.000000,326.000000,293.000000,33.000000,9.000000,0.000000,0.000000:
00000000
00000000
00000000
00000000
,
00000000
00000000
00000000
00000000
,
00000000
00000000
00000000
00000000
,
00000000
00000000
00000000
00000000
,
00010000
00000000
00000000
00000100
00000000
00000000
00000000
00000020
,
00000000
00000000
00000030
00000000
,
00001000
00000000
00000000
01000000
00000000
00000000
00000000
00200000
,
00000000
00000000
01300000
01000000
,
00010000
00000000
00000000
00100000
00000000
00000000
00000000
00002000
,
00000000
00000000
00003000
00000000
,
00010000
00000000
00000000
00000000
00000100
00000000
00000000
00002000
,
00000000
00000000
00000200
00003300
,
00001000
00000100
00001000
00000000
00000100
00000010
00000100
00000000
,
00001000
00000001
00000100
00000010
,
00001000
00000100
00001000
00000000
00000100
00010000
00001000
00010000
,
00000000
00001000
00000000
00011000
00000000
00011000
00000000
00000000
,
00010000
00100000
01000000
00000000
00100000
10000000
00100000
00000000
,
10000000
01000000
10000000
00010000
,
00100000
00001000
00010000
00000000
00001000
00010000
01000000
00000000
,
00200000
00020000
00000000
00330000
,
00100000
00000000
00101000
00000000
00010000
00001000
00010000
00000100
,
00000000
00000100
00010000
00000000
00010000
00001000
00010000
00000100
,
00000010
00000000
00000011
00000000
00000001
00001000
00000100
00000000
,
00001000
00000010
00001000
00000010
00001000
00000010
00001000
00000000
,
00000100
00000000
00010100
00000000
00010000
00001000
00010000
01000000
,
00000000
01000000
00100000
00000000
11000000
00000000
10010000
00000000
,
00100000
00010000
00100000
01000000
10000000
00010000
10000000
00100000
,
00000000
00010000
00000000
00001000
00000000
00010000
00000000
00000000
,
00010100
00000000
00001100
00000000
00000110
00000000
00000010
00000001
,
00000000
00000001
00001000
00000100
00001000
00000001
00000100
00000010
,
00001010
00000000
00010010
00000000
00011000
00000000
00001000
00010000
,
00000000
00010000
00001000
01000000
00100000
00010000
00100000
10000000
,
10010000
00000000
01010000
00000000
00011000
00000000
00001000
00010000
,
00000000
00010000
00001000
00000010
00000001
00000100
00000001
00001000
,
00000100
00001000
00000001
00000100
,
00001000
00010000
00001000
00011000
,
00010000
00100000
00010000
00100000
10000000
00100000
10000000
00100000
,
10000000
01000000
10000000
01000000
00010000
01000000
00010000
01000000
,
00010000
00001000
00010000
00001000
00000100
00001000
00000100
00001000
,
00000100
00000001
00000100
00000001
00001000
00000001
00001000
00000001
,
00000100
00000001
00000010
00001000
,
00010000
01000000
10000000
00100000
,
10000000
00100000
01000000
00000000
01000000
00100000
10000000
00000000
,
00100000
01000000
00010000
01000000
00100000
00000000
01100000
00000000
,
10000000
00000000
10100000
00000000
00100000
00010000
00000000
00010000
,
00001000
00000000
00011000
00000000
00001000
00000100
00000000
00000100
,
00000001
00000000
00000011
00000000
00000010
00001000
00000000
00001000
,
00010000
00000000
00011000
00000000
00010000
01000000
00000000
01000000
,
00100000
00010000
10000000
00010000
00100000
01000000
00000000
01000000
,
00010000
00001000
00010000
01000000
00100000
00010000
00000000
00100000
,
00001000
00010000
00000100
00001000
00000010
00000100
00000000
00000100
,
00000001
00000100
00000010
00001000
00000001
00001000
00000000
00001000
,
00001100
00000000
00010100
00000000
00011000
00000000
00010000
00001000
,
00000000
00001000
01000000
00100000
01000000
00010000
01000000
00100000
,
01100000
00000000
01010000
00000000
01001000
00000000
00010000
00001000
,
00000000
00001000
00010000
00001000
00000100
00000010
00001000
00000010
,
00001010
00000000
00001001
00000000
00000011
00000000
00000001
00000010
,
00000000
00000010
00000100
00001000
00000100
00001000
00000001
00000100
,
00000010
00001000
00000001
00000100
,
00000010
00001000
00000100
00010000
00001000
00100000
00010000
10000000
,
00100000
01100000
20020000
00000000
,
30030000
00000000
00000000
00000000
;

//---------------dance-double - ----------------
#NOTES:
     dance-double:
     :
     Medium:
     8:
     0.341869,0.416288,0.191083,0.072793,0.000000,263.000000,242.000000,21.000000,8.000000,0.000000,0.000000,0.341869,0.416288,0.191083,0.072793,0.000000,263.000000,242.000000,21.000000,8.000000,0.000000,0.000000:
00000000
00000000
00000000
00000000
,
00000000
00000000
00000000
00000000
,
00000000
00000000
00000000
00000000
,
00000000
00000000
00000000
00000000
,
00010000
00010000
00001000
00010000
,
00000100
00000100
00001000
00000100
,
00000010
00000010
00000001
00001000
,
00000100
00000100
00011000
00011000
,
00001000
00001000
01000000
00001000
,
01000000
01000000
00100000
01000000
,
00010000
00010000
10000000
00010000
,
20020000
00000000
30030000
00000000
,
10000000
00100000
01000000
00100000
,
00010000
00001000
00010000
00000100
,
00000010
00000001
00001000
00000001
,
00000100
00001000
00010000
00001000
,
00010000
00100000
10000000
00010000
,
00100000
00001000
00010000
00000100
,
00001000
00000001
00000100
00001000
,
00022000
00000000
00033000
00000000
,
00010000
00000000
00000100
00000000
00001000
00000100
00001000
00000000
,
00000001
00000100
00001000
00010000
,
00001000
00000000
00010000
00000000
01000000
10000000
01000000
00000000
,
10000000
00100000
00010000
00001000
,
00010000
00000000
00000100
00000000
00001000
00000001
00001000
00000000
,
00000001
00000010
00001000
00010000
,
00001000
00000000
01000000
00000000
00010000
10000000
00010000
00000000
,
10000000
00100000
00010000
00001000
,
00010000
00000000
00011000
00000000
00010100
00000000
00000100
00000010
,
00000000
00000010
00000001
00000010
00000001
00000000
00001000
00000000
,
00000001
00000000
00000101
00000000
00001001
00000000
00001000
00000100
,
00000000
00000100
00010000
00000100
00010000
00001000
00010000
00000000
,
00001000
00000000
00011000
00000000
01001000
00000000
01000000
00100000
,
00000000
00100000
10000000
00100000
10000000
00000000
00010000
00000000
,
10000000
01000000
00100000
01000000
,
00100000
00010000
00100000
00000000
00001000
00010000
00001000
00000000
,
00010000
00000000
00011000
00000000
00011000
00000000
00001000
00000100
,
00000000
00000100
00000001
00001000
00000001
00000000
00001000
00000000
,
00000100
00000000
00010100
00000000
00011000
00000000
00001000
00100000
,
00000000
00010000
00100000
00010000
01000000
00000000
00010000
00000000
,
10000000
00100000
01000000
00100000
,
10000000
00010000
00100000
00001000
,
00010000
00001000
00000100
00000001
,
00002000
00000000
00000000
00003000
00000002
00000000
00000000
00000003
,
00000100
00000000
00000010
00000000
00000100
00000010
00000000
00000000
,
00001000
00000000
00000001
00000000
00001000
00000001
00000000
00000000
,
00001000
00000000
00000100
00000000
00001000
00000100
00000000
00000000
,
00010000
00000000
00001000
00000000
00010000
00001000
00000000
00000000
,
01000000
00000000
00100000
00000000
01000000
00100000
00000000
00000000
,
10000000
00000000
00010000
00000000
10000000
00010000
00000000
00000000
,
00100000
00000000
00010000
00000000
00100000
00010000
00000000
00000000
,
00100000
00000000
00001000
00000000
00010000
00001000
00000000
00000000
,
00010000
00000000
00011000
00000000
00011000
00000000
00001000
01000000
,
00000000
01000000
00100000
01000000
00100000
00000000
00010000
00000000
,
00001000
00000000
00011000
00000000
00011000
00000000
00010000
00000010
,
00000000
00000010
00000100
00000010
00001000
00000000
00000100
00000000
,
00010000
00000000
00011000
00000000
00011000
00000000
00001000
01000000
,
00000000
01000000
00100000
00010000
00001000
00000000
00000100
00000000
,
00000001
00000100
00000010
00001000
,
00000100
00010000
00001000
01000000
,
00100000
00100000
20020000
00000000
,
30030000
00000000
00000000
00000000
;

//---------------dance-double - ----------------
#NOTES:
     dance-double:
     :
     Easy:
     4:
     0.194982,0.277525,0.018198,0.036397,0.000000,150.000000,148.000000,2.000000,4.000000,0.000000,0.000000,0.194982,0.277525,0.018198,0.036397,0.000000,150.000000,148.000000,2.000000,4.000000,0.000000,0.000000:
00000000
00000000
00000000
00000000
,
00000000
00000000
00000000
00000000
,
00000000
00000000
00000000
00000000
,
00000000
00000000
00000000
00000000
,
10000000
00000000
00000000
00000000
,
01000000
00000000
00000000
00000000
,
00100000
00000000
00000000
00000000
,
00010000
00000000
00000000
00000000
,
00100000
00000000
00000000
00000000
,
00001000
00000000
00000000
00000000
,
00010000
00000000
00000000
00000000
,
00000100
00000000
00000000
00000000
,
00001000
00000000
00001000
00000000
,
00000001
00000000
00000001
00000000
,
00000100
00000000
00000100
00000000
,
00000010
00000000
00000010
00000000
,
00001000
00000000
00001000
00000000
,
00000100
00000000
00000100
00000000
,
00010000
00000000
00010000
00000000
,
00022000
00000000
00033000
00000000
,
00010000
00001000
00000000
00001000
,
00000000
00010000
00000000
00010000
,
00001000
00010000
00000000
00010000
,
00000000
01000000
00000000
01000000
,
00100000
00100000
00000000
00100000
,
00000000
00010000
00000000
00010000
,
00100000
00001000
00010000
00000100
,
00001000
00000100
00000010
00000010
,
00000001
00000001
00000001
00000000
,
00001000
00001000
00000100
00000100
,
00010000
00010000
00010000
00000000
,
00001000
00001000
01000000
01000000
,
00100000
00100000
00100000
00000000
,
10000000
10000000
00010000
00010000
,
00100000
00000000
00100000
00000000
,
01000000
00000000
01000000
00000000
,
10000000
10000000
10000000
00000000
,
00100000
00100000
00010000
00010000
,
00001000
00001000
00001000
00000000
,
00010000
00010000
00000100
00000100
,
00000010
00000000
00000001
00000000
,
00001000
00000000
00000100
00000000
,
00010000
00000000
00001000
00000000
,
01000000
00000000
00100000
00000000
,
10000000
01000000
00000000
01000000
,
00100000
00100000
00000000
00100000
,
00010000
00010000
00000000
00010000
,
01000000
01000000
00000000
01000000
,
00010000
00010000
00000000
00100000
,
00001000
00001000
00000000
00010000
,
00000100
00000100
00000000
00000100
,
00000010
00000010
00000000
00000000
,
00000001
00000100
00000001
00000000
,
00001000
00001000
00000100
00000100
,
00010000
00001000
00010000
00000000
,
00001000
00001000
00100000
00100000
,
00010000
01000000
00010000
00000000
,
10000000
10000000
00100000
00100000
,
00010000
00001000
00000100
00000001
,
00001000
00000100
00010000
00001000
,
00100000
00100000
20020000
00000000
,
30030000
00000000
00000000
00000000
;

//---------------dance-single - Copied from----------------
#NOTES:
     dance-single:
     Copied from:
     Challenge:
     14:
     0.848824,1.041629,1.656051,0.054595,0.445860,653.000000,471.000000,182.000000,6.000000,0.000000,2.000000,0.848824,1.041629,1.656051,0.054595,0.445860,653.000000,471.000000,182.000000,6.000000,0.000000,2.000000:
// measure 0
0000
0000
0000
0000
,  // measure 1
0000
0000
0000
0000
,  // measure 2
0000
0000
0000
0000
,  // measure 3
0000
0000
0000
0000
0000
0000
0000
0000
1001
0000
1000
0000
0101
0000
0010
1000
,  // measure 4
0101
0001
1100
0010
1001
0000
1000
0100
,  // measure 5
0110
0000
0110
0000
0110
0000
0000
0000
0101
0000
1000
0000
0101
0000
0010
0100
,  // measure 6
1001
0001
1100
0010
1100
0000
0110
0000
,  // measure 7
1001
0000
0000
0000
0110
0000
0000
0000
0101
0000
1000
0000
0110
0000
0010
1000
,  // measure 8
0101
0000
0001
0000
1010
0100
0010
0000
1100
0000
0000
0000
0011
0000
1000
0000
,  // measure 9
0110
0110
0110
0000
1001
0000
0110
0000
,  // measure 10
1001
0010
1000
0110
0001
1000
0010
0000
,  // measure 11
1001
0002
0113
1002
,  // measure 12
0113
0010
0100
1001
0000
0100
0010
1000
,  // measure 13
1001
1001
1001
0000
0110
0000
1000
0000
,  // measure 14
0110
0100
0010
1001
0100
0001
1000
0001
,  // measure 15
0110
0000
1000
0000
1001
0000
0010
0010
1001
0000
0000
0000
0100
0000
0000
0000
,  // measure 16
0110
0100
0010
1001
0100
0010
1000
0001
,  // measure 17
0110
0110
0110
0000
1001
0100
0110
1000
,  // measure 18
1001
0010
0101
1000
0011
0100
0011
0000
,  // measure 19
1001
0000
0000
0000
1001
0100
0100
0100
1001
0000
0000
0000
0011
0000
0000
0000
,  // measure 20
1001
0010
1100
0010
1001
0100
1001
0001
,  // measure 21
0110
0110
0110
0000
1001
0000
1001
0010
,  // measure 22
0101
1000
0110
0001
1010
0100
1001
0010
,  // measure 23
1001
0100
1001
0010
1100
0001
0011
0100
,  // measure 24
0011
0100
1010
0001
1100
0001
1100
1000
,  // measure 25
0110
0110
0110
0000
1100
1100
0011
0011
,  // measure 26
0110
0100
0010
1001
0010
0101
1000
0110
,  // measure 27
1001
0000
0100
0010
0100
0010
0100
0010
1001
0000
0000
0000
1100
0000
0000
0000
,  // measure 28
0110
0000
0001
1001
0000
1000
0100
0001
,  // measure 29
0110
0110
0110
0000
1100
0000
0110
0000
,  // measure 30
0101
0000
0100
0110
0000
1000
0100
0010
,  // measure 31
1000
0010
1001
0001
1100
0000
0110
0000
,  // measure 32
0101
0000
1000
1100
0000
1001
0000
0010
,  // measure 33
1100
0110
0110
0001
1000
0101
0000
1100
,  // measure 34
1000
0000
0110
0000
0000
0000
0101
0000
1000
0000
0110
0000
0001
0000
0100
0010
,  // measure 35
0100
0001
1000
0010
1000
0001
0010
0100
1001
0100
0010
0001
1000
0100
0001
1000
,  // measure 36
0010
0100
1000
0001
0010
1000
0100
1000
0001
0010
0100
1000
0010
0001
0100
1000
,  // measure 37
0110
0001
0110
1000
0110
1000
0100
0010
1001
0100
1000
0010
1000
0001
0010
1000
,  // measure 38
0100
1000
0001
0100
1000
0001
1000
0100
1000
0001
0100
1000
0001
1000
0100
0001
,  // measure 39
0010
1000
0100
1000
0001
0010
0100
0010
1001
0010
0100
1000
0100
0000
0001
0010
,  // measure 40
0100
1000
0100
0000
0001
0010
0100
1000
0200
0000
0301
0010
0100
1000
0100
0001
,  // measure 41
0110
0001
0110
1000
0110
1000
0001
0000
1000
0010
0100
0010
0100
0000
0010
0001
,  // measure 42
0010
1000
0100
0000
0000
0100
0010
0000
0100
1000
0001
0010
0100
0001
1000
0010
,  // measure 43
0100
0001
1000
0100
0020
0000
0000
0000
1030
0100
1000
0100
0010
0000
0000
0110
,  // measure 44
0000
0000
0110
0000
1000
0100
0010
0000
0010
0001
0010
0000
0110
0000
0000
0110
,  // measure 45
0000
0000
1100
0000
1100
0000
1100
0000
0010
0001
0010
0001
0100
0000
0000
0110
,  // measure 46
0000
0000
0110
0000
1000
0100
0010
0000
0010
0001
0010
0000
0110
0000
0000
0110
,  // measure 47
0000
0000
1100
0000
1100
0000
1100
0000
0110
1000
0010
1000
0001
0000
0000
1001
,  // measure 48
0000
0000
1001
0000
0010
1000
0001
0000
0001
0100
0001
0000
1001
0000
0000
1001
,  // measure 49
0000
0000
1010
0000
1010
0000
1010
0000
0001
0100
0001
0100
1000
0000
0000
1001
,  // measure 50
0000
0000
1001
0000
0010
1000
0001
0000
0001
0100
0001
0000
1010
0000
0000
0000
,  // measure 51
1010
0101
1010
0101
0110
0000
1100
0000
,  // measure 52
0110
0000
0001
1001
0000
1000
0100
0001
,  // measure 53
0110
0110
0110
0000
1100
0000
0110
0000
,  // measure 54
0101
0000
0100
0110
0000
1000
0100
0010
,  // measure 55
1000
0010
1001
0001
1100
0000
0110
0000
,  // measure 56
0101
0000
1000
1100
0000
1001
0000
0010
,  // measure 57
1100
0110
0110
0001
1000
0101
0000
1100
,  // measure 58
1000
0000
0110
0000
0000
0000
0101
0000
1000
0000
0110
0000
0001
0000
1000
0001
,  // measure 59
1000
0001
1000
0001
1000
0001
1000
0001
1100
0000
0000
0000
0110
0000
0000
0000
,  // measure 60
0022
0033
0000
0000
;
