#TITLE:I dont need a man;
#SUBTITLE:;
#ARTIST:Miss a;
#TITLETRANSLIT:;
#SUBTITLETRANSLIT:;
#ARTISTTRANSLIT:;
#GENRE:;
#CREDIT:;
#BANNER:AV.avi;
#BACKGROUND:snapshot22.jpg;
#LYRICSPATH:;
#CDTITLE:;
#MUSIC:miss a.mp3;
#OFFSET:0.094000;
#SAMPLESTART:73.379997;
#SAMPLELENGTH:12.000000;
#SELECTABLE:YES;
#BPMS:0.000000=156.029999
;
#STOPS:
;
#BGCHANGES:0.000=IDNAM.avi=1.000=1=1=1=StretchRewind==CrossFade==,
99999=-nosongbg-=1.000=0=0=0 // don't automatically add -songbackground-
;
#KEYSOUNDS:;
#ATTACKS:;

//---------------dance-single - ----------------
#NOTES:
     dance-single:
     :
     Challenge:
     13:
     0.764157,0.800186,0.261422,0.040219,0.395485,798.000000,759.000000,39.000000,6.000000,0.000000,0.000000,0.764157,0.800186,0.261422,0.040219,0.395485,798.000000,759.000000,39.000000,6.000000,0.000000,0.000000:
0000
0000
0000
0000
,
0000
0000
0000
0000
,
0000
0000
0000
0000
,
0000
0000
0000
0000
,
1000
0100
0010
0001
0010
0000
0100
0010
,
0000
0100
0010
0000
0100
0000
0000
0000
1001
0000
0000
0000
0000
0000
0000
0000
,
1000
0100
0010
0001
0010
0100
0010
0000
,
0000
1000
0010
0000
1000
0000
0000
0000
1010
0000
0000
0000
0001
0000
1000
0000
,
1000
0000
0100
0000
0010
0000
0000
0000
0100
0010
0000
0000
0001
0000
1000
0000
,
0001
0000
0100
0000
0010
0000
0000
0000
0100
0010
0000
0000
1000
0000
0010
0000
,
0100
0000
0001
0000
0010
0000
0000
0000
0100
0010
0000
0000
0010
0000
0100
0000
,
0001
0000
1000
0000
0010
0000
0000
1000
0010
0000
0000
0000
1000
0000
0010
0000
,
0100
0000
0000
0100
0001
0000
0100
0000
0001
0000
0001
0000
0100
0000
0001
0000
,
0010
0000
0000
0100
1000
0000
0010
0000
0100
0000
0010
0000
0100
0000
0000
0000
,
1001
0010
1000
0101
0010
0100
1001
0100
,
0010
1010
0001
0000
2002
3003
0000
0000
,
1000
0001
0100
0000
0010
0000
0001
0000
0010
0000
0000
0000
0100
0010
0001
0000
,
1000
0100
0010
0000
1001
0000
0000
0000
,
0100
0000
0010
0000
0100
0000
0001
0010
0100
0000
0000
0000
1000
0000
0100
0000
,
0001
0010
0100
0000
0200
0301
0100
0010
,
1000
0000
0100
0000
0010
0000
0001
0000
0010
0100
0001
0000
1000
0000
0100
0000
,
0010
0000
0010
0000
0010
0100
1000
0000
1000
0000
0100
0000
0010
0000
0001
0000
,
0010
0001
0100
0010
0101
0000
0000
0000
,
0000
0000
0100
0010
0100
0000
0000
0000
0110
0000
0000
0000
0010
0000
1000
0000
,
0010
0001
0010
0000
0110
0000
1000
0000
,
1000
0000
0100
0010
0100
0000
0000
0000
0110
0000
0000
0000
0100
0000
0010
0000
,
1000
0010
0100
0010
0100
0010
1000
0000
,
0000
0000
0010
0100
0010
0000
0100
0000
0010
0000
0100
0000
0010
0000
1000
0000
,
0100
0010
0010
0100
0010
0100
0010
1000
,
0010
0100
1000
0000
0100
0000
0010
0000
0001
0100
0001
0000
0100
0000
0010
0000
,
0100
1000
0100
0010
0100
0010
1000
0100
,
0010
0000
0000
0000
0110
0000
1000
0100
,
0010
0000
0001
0000
0010
0000
0001
0000
1000
0001
0010
0000
0100
0000
1000
0000
,
0100
0000
0010
0000
0100
0000
0010
0000
1000
0100
0010
0000
1000
0000
0010
0000
,
0100
0000
0010
0000
0100
0000
0010
0000
1000
0001
0010
0000
1000
0000
0010
0000
,
0100
0000
0010
0000
0100
0000
0010
0000
0010
0100
0010
0000
1000
0000
0010
0000
,
0100
0000
0010
0000
0100
0000
0010
0000
0010
0100
0010
0000
1000
0000
0100
0000
,
0010
0000
0001
0000
0010
0000
0100
0000
0010
0100
1000
0000
0100
0000
0010
0000
,
0100
0000
0010
0000
0100
0000
0010
0000
0001
0100
0001
0000
1000
0000
0010
0000
,
0100
0000
0001
0000
0100
0000
0001
0000
1000
0001
1000
0000
0100
0000
0010
0000
,
0100
0000
0010
0000
0100
0000
0010
0000
1000
0001
1000
0000
0010
0000
0100
0000
,
0100
0000
0010
0000
0100
0000
0010
0000
0001
0100
0001
0000
0100
0000
0010
0000
,
0100
0000
0010
0000
0100
0000
0010
0000
1000
0100
1000
0000
0100
0000
0010
0000
,
0001
0000
0010
0000
0100
0000
0010
0000
0001
0010
0100
0000
1000
0000
0010
0000
,
0100
0000
0010
0000
0100
0000
0010
0000
1000
0100
0010
0000
1000
0000
0010
0000
,
0100
0000
0010
0000
0100
0000
0010
0000
1000
0100
0010
0000
1000
0000
0100
0000
,
0010
0000
0100
0000
0010
0000
0100
0000
1000
0100
0010
0000
1000
0000
0010
0000
,
1001
0000
0000
0000
0000
0000
0000
0000
0100
1000
0100
1000
0100
0000
0001
0000
,
0100
0000
0010
0000
0001
0000
0000
0000
0001
0100
0001
0000
1000
0000
0100
0000
,
1000
0000
0010
0000
0001
0000
0000
0000
0001
0010
0001
0000
0100
0000
0001
0000
,
0010
0000
0100
0000
0001
0000
0000
0000
0100
0010
0100
0000
0001
0000
0010
0000
,
0001
0000
0100
0000
0001
0000
0100
0000
0100
0001
0100
0000
0010
0000
0001
0000
,
0010
0000
0100
0000
0010
0000
0010
0000
1000
0001
1000
0000
0010
0000
1000
0000
,
0001
0000
0100
0000
0010
0000
0001
0000
0010
0100
0001
0000
0010
0000
0000
0000
,
1100
0001
0100
1010
0001
0010
1100
0010
,
1000
0110
1000
0000
2200
3300
0000
0000
,
0100
1000
0010
0000
0001
0000
1000
0000
0001
0000
0000
0000
0010
0001
0010
0000
,
0100
0010
0001
0000
1100
0000
0000
0000
,
0010
0100
0001
0000
0010
0000
0100
0000
0001
0010
0001
0000
0100
0000
0010
0000
,
1000
0010
1000
0000
0010
0000
0000
0000
0002
0000
0013
0000
0100
0000
1000
0000
,
0100
1000
0010
0000
0001
0000
1000
0100
1000
0000
0010
0000
0100
0000
0010
0000
,
0001
1000
0001
0000
0001
0010
0001
0000
0100
0000
0010
0000
0001
0000
1000
0000
,
0001
0100
0010
0001
1001
0000
0000
0000
,
0000
0000
0110
0000
0110
0000
1000
0001
1000
0000
0000
0000
0000
0000
1000
0010
,
0000
1000
0010
0000
1000
0100
0010
0001
1000
0010
0100
0010
0100
0000
0000
0000
,
0000
0000
0010
0001
0010
0100
1000
0100
0010
0001
0100
0010
0100
0000
0000
0000
,
1000
0000
0100
0000
0010
0000
0001
0010
0100
0000
0001
0100
0001
0000
0100
0000
,
0000
0000
0010
0100
0010
0000
1000
0001
0100
0000
0001
0000
0010
0000
0100
0000
,
1000
0100
0110
0001
0010
0110
0110
0110
,
1000
0000
0100
0010
0100
0000
0001
0000
0010
0000
1000
0010
1000
0000
0000
0000
,
1100
0110
0011
0000
0011
0110
0100
0000
,
1000
0000
0100
0010
0100
0000
0001
0000
0010
0000
1000
0000
0010
0000
0000
0000
,
1100
0101
0110
1001
,
0010
0000
0100
0000
1000
0000
0100
0000
0010
0000
0001
0010
0001
0000
0000
0000
,
1000
0100
0010
0001
0010
0100
1000
0100
,
0110
0000
0010
0100
0010
0000
1000
0000
0100
0000
0010
0100
0010
0000
0000
0000
,
1000
0000
0100
1000
0100
1000
0100
0000
0010
0000
0100
0000
0010
0000
1000
0000
,
0100
0000
0010
0001
0010
0000
1000
0000
0100
0000
0010
0000
0001
0000
0010
0000
,
0100
0000
0010
1000
0010
0000
1000
0000
0100
0000
0100
0000
0011
0000
0000
0000
,
0100
0000
0010
1000
0010
0000
0100
0001
0100
0000
0010
0100
0010
0000
1000
0000
,
0100
0000
0010
0100
0010
0000
1000
0000
0001
0000
0100
0010
0100
0000
0001
0000
,
1000
0000
0010
1000
0010
0000
0001
0000
0100
0000
0001
0100
0001
0000
1000
0000
,
0010
0000
1000
0010
1000
0000
0001
0000
0100
0000
0001
0100
0001
0000
0100
0000
,
0010
0000
0100
0010
0100
0000
0010
0000
1000
0000
1000
0010
1000
0000
0010
0000
,
0100
0001
0100
0001
0100
0000
0010
0000
0100
0000
0010
0100
0010
0000
1000
0000
,
0010
0000
1000
0010
1000
0000
0001
0000
0100
0000
0010
0100
0010
0000
0100
0000
,
1000
0001
1000
0001
1000
0001
1000
0000
0001
1000
0001
0000
1000
0001
1000
0000
,
0001
1000
0001
0000
1000
0001
1000
0000
0010
0000
0100
0000
0010
0000
0100
0000
,
0010
0100
0010
0000
0100
0010
0100
0000
0010
0100
0010
0000
0100
0010
0100
0000
,
0010
0100
0010
0000
0100
0010
0100
0000
0010
0000
1000
0000
0010
0000
0000
0000
,
0010
1000
0010
0000
1000
0010
1000
0000
0010
1000
0010
0000
1000
0010
1000
0000
,
0010
1000
0010
0000
1000
0010
1000
0000
0001
0000
1000
0000
0001
0000
0001
0000
,
0001
0010
0001
0000
0001
0010
0001
0000
0010
0001
0010
0000
0001
0010
0001
0000
,
0010
0001
0010
0000
0001
0010
0001
0000
0100
0000
0010
0000
0001
0000
1000
0000
,
0001
0010
0100
0010
0001
1000
0001
0000
,
0000
0000
0010
0001
0010
0000
0000
0000
0011
0000
0000
0000
0000
0000
0000
0000
;

//---------------dance-single - ----------------
#NOTES:
     dance-single:
     :
     Beginner:
     2:
     0.088098,0.128030,0.040219,0.000000,0.000000,92.000000,86.000000,6.000000,0.000000,0.000000,0.000000,0.088098,0.128030,0.040219,0.000000,0.000000,92.000000,86.000000,6.000000,0.000000,0.000000,0.000000:
0000
0000
0000
0000
,
0000
0000
0000
0000
,
0000
0000
0000
0000
,
0000
0000
0000
0000
,
0010
0000
0000
0000
,
0000
0000
0000
0000
,
1000
0000
0000
0000
,
0000
0000
0000
0000
,
0010
0000
0000
0000
,
0000
0000
0000
0000
,
0010
0000
0000
0000
,
0010
0000
0000
0000
,
1001
0000
0000
0000
,
0010
0000
0000
0000
,
0100
0000
0000
0010
,
0000
0000
1000
0000
,
0100
0000
0000
0010
,
0000
0000
0000
0000
,
0001
0000
0000
1000
,
0000
0000
0000
0000
,
0010
0000
0000
0100
,
0000
0000
0000
0000
,
1000
0000
0010
0000
,
0000
0000
0001
0000
,
0000
0000
0000
0000
,
0000
0000
0010
0000
,
0000
0000
0000
0000
,
0000
0000
0001
0000
,
0000
0000
1000
0000
,
0000
0000
0010
0000
,
0000
0000
0100
0000
,
0000
0000
0010
0000
,
0000
0000
1000
0000
,
0000
0000
0100
0000
,
0000
0000
0010
0000
,
0000
0000
0001
0000
,
0000
0000
0010
0000
,
0000
0000
1000
0000
,
0000
0000
0010
0000
,
0000
0000
0100
0000
,
0000
0000
0010
0000
,
0000
0000
1000
0000
,
0000
0000
0100
0000
,
0000
0000
0010
0000
,
0000
0000
0001
0000
,
0000
0000
0010
0000
,
0000
0000
0100
0000
,
0000
0000
1001
0000
,
0000
0000
1000
0000
,
0000
0000
0100
0000
,
0000
0000
0010
0000
,
0000
0000
0001
0000
,
0000
0000
1000
0000
,
0000
0000
0100
0000
,
0000
0000
0010
0000
,
0000
0000
0001
0000
,
0000
0000
0000
0000
,
0000
0000
0010
0000
,
0000
0000
0000
0000
,
0000
0000
0110
0000
,
0000
0000
0000
0000
,
0000
0000
1001
0000
,
0000
0000
0010
0000
,
0000
0000
0100
0000
,
0000
0000
1000
0000
,
0000
0000
0100
0000
,
0000
0000
0010
0000
,
0000
0000
1000
0000
,
0000
0000
0100
0000
,
0000
0000
0010
0000
,
0000
0000
0001
0000
,
0000
0000
1000
0000
,
0000
0000
0100
0000
,
0000
0000
0010
0000
,
0000
0000
0001
0000
,
0000
0000
1000
0000
,
0000
0000
0100
0000
,
0000
0000
0010
0000
,
0000
0000
0001
0000
,
0000
0000
0110
0000
,
0000
0000
1000
0000
,
0000
0000
0100
0000
,
0000
0000
0010
0000
,
0000
0000
0001
0000
,
0000
0000
1000
0000
,
0000
0000
0100
0000
,
0000
0000
0010
0000
,
0000
0000
0010
0000
,
0000
0000
0001
0000
,
0000
0000
1000
0000
,
0000
0000
0100
0000
,
0000
0000
0010
0000
,
0000
0000
1000
0000
,
0000
0000
0100
0000
,
0000
0000
0010
0000
,
0000
0000
1001
0000
;

//---------------dance-single - Copied from----------------
#NOTES:
     dance-single:
     Copied from:
     Easy:
     4:
     0.195348,0.256060,0.174281,0.000000,0.000000,204.000000,178.000000,26.000000,0.000000,0.000000,0.000000,0.195348,0.256060,0.174281,0.000000,0.000000,204.000000,178.000000,26.000000,0.000000,0.000000,0.000000:
0000
0000
0000
0000
,
0000
0000
0000
0000
,
0000
0000
0000
0000
,
0000
0000
0000
0000
,
1000
0000
0100
0000
,
0010
0000
0001
0000
,
0010
0000
0100
0000
,
0010
0000
0001
0000
,
0100
0010
0100
0000
,
0001
0000
0001
0000
,
1000
0001
1000
0000
,
0000
0000
1001
0000
,
0100
0010
0100
0000
,
0010
0000
1000
0000
,
0100
0000
0000
0010
,
0000
0000
1001
0000
,
1000
0000
0000
0100
,
0000
0000
0110
0000
,
0001
0000
0000
1000
,
0000
0000
0110
0000
,
1000
0000
0000
0100
,
0000
0000
1100
0000
,
0100
0000
0010
0100
,
0000
0000
1001
0000
,
1000
0000
0100
0000
,
0000
0000
1001
0000
,
0100
0000
0010
0000
,
0000
0000
0110
0000
,
1000
0100
0001
0000
,
0000
0000
1001
0000
,
1000
0100
0010
0000
,
0000
0000
0110
0000
,
0010
0010
0100
0000
,
0000
0000
0110
0000
,
1000
0100
0010
0000
,
0000
0000
1010
0000
,
1000
0100
0001
0000
,
0000
0010
0001
0000
,
1000
0100
0010
0000
,
0000
0000
1100
0000
,
0010
0100
0010
0000
,
0000
0100
0110
0000
,
1000
0001
1000
0000
,
0000
0000
0110
0000
,
1000
0100
0010
0000
,
0000
0001
1000
0000
,
0001
0000
1000
0000
,
0110
0000
0000
0000
,
0001
0000
0000
1000
,
0000
0000
0010
0000
,
0100
0000
0000
0010
,
0000
0000
1000
0000
,
0100
0000
0000
0000
0000
0000
0000
0010
,
0000
0000
1000
0000
,
0010
0000
0000
1000
0000
0000
0100
0000
,
0000
0010
0000
0000
1000
0000
0000
0000
,
0100
0000
0000
0010
,
0000
0000
0000
0000
,
0001
0000
0000
1001
,
0000
0000
0000
0000
,
0100
0000
0000
0110
,
0000
0000
0000
0000
,
1000
0000
0001
0000
,
0000
0000
0110
0000
,
1000
0000
0001
1000
,
0000
0010
0100
0000
,
0010
0000
1000
0001
,
0000
0010
0100
0000
,
1000
0000
0001
1000
,
0000
0100
0100
0000
,
1000
0000
0010
0100
,
0000
0100
0010
0000
,
0001
0000
1001
0000
,
0000
1000
0110
0000
,
1000
0000
0001
0000
,
0000
0100
0010
0000
,
1000
0000
0001
0000
,
0000
0100
0010
0000
,
1000
0000
0010
0000
,
0000
0000
0010
0010
,
1000
0000
0010
0100
,
0000
0001
1001
0000
,
0010
0000
0010
1000
,
0000
0010
0110
0000
,
0001
0000
0100
1000
,
0000
0100
1100
0000
,
0001
0000
0000
0010
0000
0000
0000
0000
,
0000
0010
0010
0000
,
0001
0000
0000
0010
0000
0000
0000
0000
,
0000
0000
0100
0000
,
1000
0000
0000
0100
0000
0000
0000
0000
,
0000
0000
0010
0000
,
1000
0000
0000
0001
0000
0000
0000
0000
,
0000
0000
0110
0000
,
1000
0000
0000
0100
0000
0000
0010
0000
,
0000
1000
1001
0000
;

//---------------dance-single - Copied from----------------
#NOTES:
     dance-single:
     Copied from:
     Hard:
     10:
     0.570724,0.672157,0.918329,0.100547,0.060328,596.000000,459.000000,137.000000,15.000000,0.000000,0.000000,0.570724,0.672157,0.918329,0.100547,0.060328,596.000000,459.000000,137.000000,15.000000,0.000000,0.000000:
// measure 0
0000
0000
0000
0000
,  // measure 1
0000
0000
0000
0000
,  // measure 2
0000
0000
0000
0000
,  // measure 3
0000
0000
0000
0000
,  // measure 4
0000
0000
0000
0000
,  // measure 5
0000
0000
0000
0000
,  // measure 6
0000
0000
0000
0000
,  // measure 7
0000
0000
0000
0000
0000
0000
1000
0100
,  // measure 8
0010
0001
1000
0010
0100
0000
0010
0000
,  // measure 9
0010
0000
0000
1000
0001
0100
0010
0100
,  // measure 10
0010
0000
1000
0100
0010
0000
0001
0010
,  // measure 11
0001
0000
0100
0010
0100
0000
1000
0100
,  // measure 12
0010
0001
1000
0010
0100
0000
0110
0000
,  // measure 13
0110
0000
0000
0001
0010
0100
0010
0000
,  // measure 14
1010
0000
0000
0110
0000
0000
0101
0000
,  // measure 15
0000
0110
0110
0000
1001
0000
0000
0000
,  // measure 16
1010
0000
0000
0101
0000
0000
1010
0000
,  // measure 17
0000
0110
0110
0000
1001
0000
0000
0000
,  // measure 18
1010
0000
0000
1001
0000
0000
0110
0000
,  // measure 19
0000
1001
1001
0000
1000
0100
0010
0001
,  // measure 20
0110
0000
0000
1001
0000
0000
1010
0000
,  // measure 21
0000
0101
0101
0000
1000
0100
0010
0001
,  // measure 22
1010
0000
0000
0100
0010
0000
1001
0000
,  // measure 23
0000
0100
0010
0000
1001
0000
1000
0100
,  // measure 24
0010
0001
1000
0000
0100
0000
1000
0000
,  // measure 25
0100
0010
1001
0000
1001
0000
1000
0100
,  // measure 26
0010
0001
0010
0100
0010
0000
1000
0000
,  // measure 27
0000
1000
0100
0010
0001
0000
0010
0000
,  // measure 28
0010
0100
1000
0010
1000
0001
0010
0000
,  // measure 29
0100
0001
0010
1000
0010
0000
0100
0000
,  // measure 30
1000
0100
0010
0001
1000
0010
0100
0001
,  // measure 31
1000
0000
0000
0000
1010
0000
0010
0001
,  // measure 32
0100
0010
0100
0000
1001
0000
0000
0000
,  // measure 33
0000
0000
0110
0000
1001
0000
0010
0001
,  // measure 34
0100
0010
1000
0001
0100
0000
0010
0000
,  // measure 35
0000
1000
0100
0010
0100
0000
0010
0000
,  // measure 36
1000
0100
0010
0001
0010
0100
0010
0000
,  // measure 37
0100
0010
0001
1000
0010
0000
0100
0000
,  // measure 38
1000
0100
0010
0001
0010
0100
1000
0100
,  // measure 39
0010
0000
0110
0000
,  // measure 40
2002
0000
3003
0220
0000
0330
2002
0000
,  // measure 41
0000
0000
3003
1000
0100
0010
0001
0010
,  // measure 42
0000
1000
0000
0100
0010
0001
0010
0100
,  // measure 43
0000
1010
0000
1001
0000
0110
0000
0000
,  // measure 44
2002
0000
3003
0220
0000
0330
2020
0000
,  // measure 45
0000
0000
3030
1000
0100
0010
0001
0110
,  // measure 46
0000
0000
0101
0010
0000
0000
1010
0000
,  // measure 47
0101
0000
0000
0000
1000
1000
1000
0001
,  // measure 48
0010
0100
0010
0100
1001
0000
1010
0000
,  // measure 49
1001
0000
0000
1000
0100
0010
0001
0010
,  // measure 50
0110
0000
0110
0001
1010
0000
1010
0010
,  // measure 51
0110
0000
0010
0010
1010
0000
1000
0100
,  // measure 52
0010
0001
0010
0100
0010
0000
0110
0000
,  // measure 53
0110
0000
0000
1000
0100
0010
0001
0000
,  // measure 54
1010
0000
0000
0110
0000
0000
1001
0000
,  // measure 55
0000
0110
0110
0000
1010
0000
0000
0000
,  // measure 56
0110
0000
0000
0101
0000
0000
1010
0000
,  // measure 57
0000
0110
0110
0000
1001
0000
0000
0000
,  // measure 58
0101
0000
0000
0110
0000
0000
1001
0000
,  // measure 59
0000
1010
1010
0000
0100
0010
0100
0010
,  // measure 60
1001
0000
0000
1001
0000
0000
0110
0000
,  // measure 61
0000
1001
1001
0000
1000
0100
0010
0001
,  // measure 62
0110
0000
0000
0100
0010
0000
1001
0000
,  // measure 63
0000
0000
1000
0000
0010
0000
0000
0000
0101
0000
0000
0000
0000
0000
0100
0010
,  // measure 64
0000
0100
0010
0000
0001
0000
1000
0000
0010
0000
0100
0000
0002
0000
0000
0000
,  // measure 65
0003
0000
1010
0000
1010
0000
0001
0010
0000
0100
1000
0001
0010
0000
0001
0000
,  // measure 66
1000
0010
0001
0100
0010
0100
0010
0100
,  // measure 67
0000
0000
1000
0100
0010
0000
0001
0100
0010
0000
1000
0000
0001
0000
0100
0000
,  // measure 68
0010
0100
1001
0000
1001
0010
0110
0000
,  // measure 69
0110
0000
1000
0001
0100
0000
0010
0000
0100
0001
1000
0000
0010
0000
0000
0000
,  // measure 70
0100
1100
0010
0001
,  // measure 71
0010
0000
0000
0000
0001
0000
0000
0000
0010
1000
0001
0000
1010
0000
0000
0000
,  // measure 72
0100
0010
1001
1010
,  // measure 73
1001
0000
0110
0000
0101
0110
0101
0000
,  // measure 74
1000
0100
0010
0001
1000
0010
0100
0001
,  // measure 75
0100
0000
0010
0100
0010
0000
0001
0100
0010
0000
0001
0010
0100
0000
0000
0000
,  // measure 76
0100
0000
0000
0010
0001
0100
0010
0000
1000
0000
0100
0000
0001
0000
0010
0000
,  // measure 77
0100
0000
1000
0100
1000
0000
0010
0000
0001
0000
0100
0000
0010
0000
0000
0000
,  // measure 78
0001
0000
0010
1000
0100
1000
0010
0000
0100
0000
0010
0000
0100
0000
0000
0000
,  // measure 79
0000
1001
0000
0010
0100
0100
0100
0001
,  // measure 80
1000
0010
0000
0100
1001
0000
0110
0000
,  // measure 81
2010
0000
0000
0000
3100
0001
0010
0100
,  // measure 82
0110
0000
0110
0001
1010
0000
1010
0010
,  // measure 83
0110
0000
1000
0100
0110
0000
0001
0010
,  // measure 84
1000
0001
0100
0010
1010
0000
0110
0000
,  // measure 85
0110
0000
0000
1000
0100
0010
0001
0000
,  // measure 86
1001
0000
0000
0110
0000
0000
1010
0000
,  // measure 87
0000
0110
0110
0000
1001
0000
0000
0000
,  // measure 88
0101
0000
0000
0110
0000
0000
1001
0000
,  // measure 89
0000
1010
1010
0000
0110
0000
0000
0000
,  // measure 90
1001
0000
0000
1010
0000
0000
0110
0000
,  // measure 91
0000
1001
1001
0000
1000
0100
0010
0001
,  // measure 92
0110
0000
0000
0110
0000
0000
1010
0000
,  // measure 93
0000
0110
0110
0000
1000
0100
0010
0001
,  // measure 94
1010
0000
0000
1000
0110
0000
0101
0000
,  // measure 95
0000
1000
0200
0300
1001
0000
0000
0000
;

//---------------dance-single - Copied from Copied f----------------
#NOTES:
     dance-single:
     Copied from Copied f:
     Medium:
     6:
     0.284404,0.384089,0.207797,0.013406,0.000000,297.000000,266.000000,31.000000,2.000000,0.000000,0.000000,0.284404,0.384089,0.207797,0.013406,0.000000,297.000000,266.000000,31.000000,2.000000,0.000000,0.000000:
0000
0000
0000
0000
,
0000
0000
0000
0000
,
0000
0000
0000
0000
,
0000
0000
0000
0000
,
1000
0000
0000
0010
0000
0000
0100
0000
,
0000
0010
1001
0000
,
0010
0000
0000
0100
0000
0000
0010
0000
,
0000
1000
1010
0000
,
1000
0100
0000
0100
0010
0000
0000
0000
,
0000
0001
1001
0000
,
0100
0010
0000
0010
1000
0000
0000
0000
,
0000
1000
1001
0000
,
1000
0100
0000
0100
0010
0000
0100
0000
,
0000
0001
1001
0000
,
1000
0000
0000
0100
0000
0000
0010
0000
,
0000
0001
0100
0000
0001
0000
0000
0000
,
1000
0000
0000
0010
0000
0000
0100
0000
,
0000
0010
0100
0000
1000
0000
0000
0000
,
0100
0000
0000
0010
0000
0000
0100
0000
,
0000
0001
1000
0000
0100
0000
0000
0000
,
0001
0000
0000
1000
0000
0000
0001
0000
,
0000
0100
0010
0000
0100
0000
0000
0000
,
1000
0000
0100
0010
,
0000
0000
1001
0000
,
1000
0100
0110
0001
,
0000
0100
0110
0000
,
1000
0100
0110
0001
,
0000
0010
1010
0000
,
1000
0100
0010
0001
,
0000
0100
0101
0000
,
1000
0100
0010
0100
,
0000
0000
0010
0000
0220
0000
0000
0330
,
1000
0000
0110
0001
,
0000
0010
1001
0000
,
0010
0000
0100
0010
,
0000
1000
0001
0000
,
0100
0010
0100
0001
,
0000
0010
1010
0000
,
1000
0100
0010
0100
,
0000
0001
1001
0000
,
1000
0100
0010
0100
,
0000
1000
1010
0000
,
1000
0100
0001
0100
,
0000
0001
1001
0000
,
1000
0100
0010
0100
,
0000
1000
1001
0000
,
0100
0010
0100
0010
,
0100
0000
0000
0000
0001
0100
0001
0000
,
1000
0000
0100
0010
,
0000
1000
0001
0000
1000
0000
0000
0000
,
0100
0000
0100
0010
,
0000
0100
0010
0000
0100
0000
0000
0000
,
1000
0000
0001
1000
,
0000
0001
1000
0000
0001
0000
0000
0000
,
0010
0000
0000
1000
0000
0000
0010
0000
,
0000
0100
0010
0000
0100
0000
0000
0000
,
1000
0000
0000
0010
0000
0000
1000
0000
,
0000
0010
0100
0000
0010
0000
0000
0000
,
1000
0000
0000
0001
0000
0000
1000
0000
,
0000
0010
0100
0000
0000
0100
0000
0000
,
0100
0000
0000
1000
0000
0000
0100
0000
,
0000
0010
0100
0000
0000
0010
0000
0000
,
1000
0000
0001
1000
,
0000
0010
0100
0000
,
0010
0000
1000
0001
,
0000
0100
0010
0000
0100
0000
0000
0000
,
1000
0000
0010
0100
,
0000
1000
0001
0000
1001
0000
0000
0000
,
0100
0000
0010
0100
,
0000
1000
0001
0000
0100
0000
0000
0000
,
0100
0000
0100
0010
,
0000
1000
0001
0000
0110
0000
0000
0000
,
1000
0100
0010
0001
,
0000
0100
0110
0000
,
1000
0100
0010
0000
0001
0010
0100
0000
,
0100
0000
0010
0000
0100
0010
0100
0000
,
1000
0000
1001
0000
,
0000
0100
0100
0000
,
1000
0000
1001
0000
,
0000
0100
0000
0000
0010
0100
0010
0000
,
1000
0000
0000
1000
0001
0000
1000
0000
,
0000
0000
0110
0000
,
1000
0000
0000
0100
0010
0000
0100
0000
,
0000
0000
0110
0000
,
1000
0000
0000
0001
1000
0000
0001
0000
,
0000
0000
0110
0000
,
1000
0000
0000
0001
0000
0000
1000
0000
,
0000
0001
1000
0000
0001
0000
0000
0000
,
0100
0000
0000
0010
0000
0000
0100
0000
,
0000
0010
0110
0000
,
1000
0000
0000
0001
0000
0000
1000
0000
,
0000
0000
1001
0000
,
0100
0000
0000
0010
0000
0000
0100
0000
,
0000
0000
0110
0000
,
1000
0100
0010
0001
,
0000
0000
0110
0000
;
