#VERSION:0.83;
#TITLE:Heartbeat Song;
#SUBTITLE:;
#ARTIST:Kelly Clarkson;
#TITLETRANSLIT:;
#SUBTITLETRANSLIT:;
#ARTISTTRANSLIT:;
#GENRE:;
#ORIGIN:;
#CREDIT:;
#BANNER:AV.avi;
#BACKGROUND:HeartBeat-bg.png;
#PREVIEWVID:;
#JACKET:;
#CDIMAGE:;
#DISCIMAGE:;
#LYRICSPATH:;
#CDTITLE:;
#MUSIC:Heartbeat song - Kelly Clarkson.mp3;
#OFFSET:-0.344000;
#SAMPLESTART:53.520000;
#SAMPLELENGTH:17.000000;
#SELECTABLE:YES;
#BPMS:0.000=148.970,
232.000=74.485,
248.000=148.970;
#STOPS:131.500=0.780;
#DELAYS:;
#WARPS:;
#TIMESIGNATURES:0.000=4=4;
#TICKCOUNTS:0.000=4;
#COMBOS:0.000=1;
#SPEEDS:0.000=1.000=0.000=0;
#SCROLLS:0.000=1.000;
#FAKES:;
#LABELS:0.000=Song Start;
#BGCHANGES:0.000=HeartBeatSong.avi=1.200=1=0=1===CrossFade==,
8.000=HeartBeatSong.avi=1.000=0=0=1=====,
99999=-nosongbg-=1.000=0=0=0 // don't automatically add -songbackground-
;
#KEYSOUNDS:;
#ATTACKS:
;

//---------------dance-single - ----------------
#NOTEDATA:;
#CHARTNAME:;
#STEPSTYPE:dance-single;
#DESCRIPTION:;
#CHARTSTYLE:;
#DIFFICULTY:Challenge;
#METER:12;
#RADARVALUES:0.593013,0.860861,1.130885,0.304729,0.091419,613.000000,446.000000,167.000000,45.000000,0.000000,0.000000,0.000000,0.000000,0.000000,0.593013,0.860861,1.130885,0.304729,0.091419,613.000000,446.000000,167.000000,45.000000,0.000000,0.000000,0.000000,0.000000,0.000000;
#CREDIT:;
#NOTES:
// measure 0
0000
0000
0000
0000
,  // measure 1
0000
0000
0000
0000
,  // measure 2
0000
0000
0000
0000
,  // measure 3
0000
0000
0000
0000
,  // measure 4
0000
0000
0000
0000
,  // measure 5
0000
0000
0000
0000
,  // measure 6
0000
0000
0000
0000
,  // measure 7
0000
0000
0000
0000
,  // measure 8
0000
0000
0000
0000
,  // measure 9
0000
0000
0000
0000
1010
0010
0101
0010
,  // measure 10
0100
0010
1010
0010
0100
0010
0101
0010
,  // measure 11
1000
0100
1100
0010
0100
0001
1010
0001
,  // measure 12
0100
0010
0101
0010
1000
0100
1100
0010
,  // measure 13
0100
0001
1010
0001
0100
0010
0110
0001
,  // measure 14
1000
0010
0101
0010
1000
0001
0110
0001
,  // measure 15
1000
0100
1001
0010
0100
0001
0011
0010
,  // measure 16
0100
0001
1100
0010
1000
0001
0110
0100
,  // measure 17
1000
0010
0101
0010
1000
0001
0110
0001
,  // measure 18
1000
0010
0011
0010
0100
0001
1100
0010
,  // measure 19
0100
0001
0011
0010
0100
0001
0110
0001
,  // measure 20
1000
0100
1001
0010
0100
0001
0101
0010
,  // measure 21
1000
0001
1010
0001
0100
0010
0110
0001
,  // measure 22
1000
0010
1100
0010
1000
0010
0110
1000
,  // measure 23
0100
0010
0101
0010
1000
0001
0110
0001
,  // measure 24
1000
0010
0110
0010
0100
0001
1010
0001
,  // measure 25
0100
0010
1001
0010
0110
0000
0000
1010
,  // measure 26
0000
0000
0110
0000
0000
0101
0000
0000
,  // measure 27
0110
0000
1001
0000
1100
0000
0000
1001
,  // measure 28
0000
0000
0110
0000
0000
0011
0000
0000
,  // measure 29
0110
0000
0101
0000
1001
0000
0000
0110
,  // measure 30
0000
0000
0011
0000
0000
0110
0000
0000
,  // measure 31
1100
0000
0110
0000
1001
1001
1001
1001
,  // measure 32
1001
1001
1001
1001
1001
1001
1001
1001
,  // measure 33
1010
0000
0110
1001
,  // measure 34
0000
1001
0000
0000
0011
0000
0000
0000
,  // measure 35
1100
0000
0110
1001
,  // measure 36
0000
1001
0000
0000
0011
0000
0000
1001
,  // measure 37
0000
1100
0000
1001
0000
1100
0000
1001
,  // measure 38
0000
0110
0000
0011
0000
0000
0110
0110
,  // measure 39
0000
1001
0000
0110
0000
1001
0000
1100
,  // measure 40
0000
0000
0000
0000
1000
0100
0010
0100
,  // measure 41
0101
0000
1001
0011
,  // measure 42
0000
0011
0000
0000
0110
0000
0000
0000
,  // measure 43
1001
0000
1100
0110
,  // measure 44
0000
0110
0000
0000
0011
0000
0000
1001
,  // measure 45
0000
1001
0000
1001
0000
1001
0000
1001
,  // measure 46
0000
0110
0000
0110
0000
0000
1100
1100
,  // measure 47
0000
1100
0000
1100
0000
0110
0000
0101
,  // measure 48
0000
1000
0100
0010
1000
0001
0100
0010
,  // measure 49
1001
0100
0010
0100
1010
0001
0101
0010
,  // measure 50
0100
0101
0010
1000
1100
0010
0100
0010
,  // measure 51
0101
0010
0100
1000
1001
0010
1100
0010
,  // measure 52
0001
1001
0010
0100
0101
1000
0001
1000
,  // measure 53
0011
1000
0010
1000
0011
1000
0011
1000
,  // measure 54
0100
0101
1000
0001
1001
0010
0100
1000
,  // measure 55
0220
0000
0000
0000
,  // measure 56
0000
0000
0000
0000
,  // measure 57
0000
0000
0000
0000
0000
0000
0000
0330
,  // measure 58
0000
0100
0000
0010
0000
0100
0000
1001
0000
0100
0010
2000
3200
0320
0032
0023
,  // measure 59
0030
0210
0000
1000
0000
0310
0100
0110
0000
0001
0010
0002
0023
0230
2300
3200
,  // measure 60
0320
0032
0000
0010
0000
0100
0003
1001
0000
1100
0000
0110
0000
0000
0101
0110
,  // measure 61
0000
1001
0000
0110
0000
2000
0000
0001
0000
0000
0000
0000
0000
0000
0000
0000
,  // measure 62
0010
0010
0100
0001
0001
0100
0100
0001
,  // measure 63
0010
0010
3100
0002
0203
0302
2003
3020
,  // measure 64
0130
0020
1000
0100
1000
0001
0130
0001
,  // measure 65
1000
1010
0001
2000
3200
0302
0023
2030
,  // measure 66
3002
0203
0001
1000
0001
1000
0001
0310
,  // measure 67
1000
1100
0001
0100
0110
0001
1000
0100
,  // measure 68
1010
0001
0100
2000
0100
3020
1000
0032
,  // measure 69
0100
1000
0010
0100
1000
0010
0100
0100
,  // measure 70
1000
0010
0100
0013
0110
0001
1100
0001
,  // measure 71
0100
1001
0001
0002
1000
0023
1000
2030
,  // measure 72
0100
0010
0100
0001
0001
0010
0001
3010
,  // measure 73
0100
1100
0010
2000
3002
0203
0320
0230
,  // measure 74
0010
0001
1000
0010
0001
0310
0110
0001
,  // measure 75
1000
1100
0010
0200
0320
0032
2003
3020
,  // measure 76
1000
1000
0100
0031
0011
0010
0110
0001
,  // measure 77
1000
1010
0100
1000
1100
0010
0100
0001
,  // measure 78
1010
0000
0110
1001
,  // measure 79
0000
1001
0000
0000
0110
0000
0000
0000
,  // measure 80
0011
0000
0110
1001
,  // measure 81
0000
1001
0000
0000
0110
0000
0000
0000
,  // measure 82
0011
0000
0110
1001
,  // measure 83
0000
1001
0000
0000
0110
0000
0000
0000
,  // measure 84
1100
0000
0110
1001
;

//---------------dance-single - Copied from----------------
#NOTEDATA:;
#CHARTNAME:Copied from;
#STEPSTYPE:dance-single;
#DESCRIPTION:Copied from;
#CHARTSTYLE:;
#DIFFICULTY:Hard;
#METER:10;
#RADARVALUES:0.435328,0.889556,0.751666,0.088033,0.088033,450.000000,339.000000,111.000000,13.000000,0.000000,0.000000,0.000000,0.000000,0.000000,0.435328,0.889556,0.751666,0.088033,0.088033,450.000000,339.000000,111.000000,13.000000,0.000000,0.000000,0.000000,0.000000,0.000000;
#CREDIT:Copied from;
#NOTES:
0000
0000
0000
0000
,
0000
0000
0000
0000
,
0000
0000
0000
0000
,
0000
0000
0000
0000
,
0000
0000
0000
0000
,
0000
0000
0000
0000
,
0000
0000
0000
0000
,
0000
0000
0000
0000
,
0000
0000
0000
0000
,
0000
0000
0000
0000
0001
1000
0010
0100
,
0001
0010
0100
1000
0001
1000
0010
0100
,
0001
0100
0010
0100
0001
0010
0100
0010
,
0001
0010
0100
0010
0001
1000
0010
1000
,
0001
1000
0100
1000
0010
0100
0001
1000
,
0100
0010
0001
1000
0010
0100
0001
1000
,
0100
0010
0001
0010
0200
0000
0000
2300
,
0000
0000
3020
0000
0000
0230
0000
0000
,
0302
0000
2003
0000
3010
0100
0001
0100
,
0010
0100
0001
0100
0010
0100
0001
0100
,
0010
0100
0001
0100
0010
1000
0001
1000
,
0010
1000
0001
1000
0010
1000
0001
1000
,
0010
1000
0001
1000
0100
0010
0001
0010
,
0100
0010
0001
0010
0100
0010
0001
0010
,
0100
0010
0001
0010
0002
0000
0000
2003
,
0000
3200
0000
0000
,
1300
0001
1000
0001
1001
0000
0000
0110
,
0000
0000
1010
0000
0000
0110
0000
0000
,
0001
0000
1000
0000
1010
0000
0000
1100
,
0000
0000
0110
0000
0000
0101
0000
0000
,
0010
0000
0100
0000
1100
0000
0000
0110
,
0000
0000
1001
0000
0000
0011
0000
0000
,
0110
0000
0001
0000
1000
1000
1000
1000
,
1000
1000
1000
1000
1000
1000
1000
0100
,
1001
0000
1001
0110
,
0000
0110
0000
0000
1001
0000
0000
0000
,
1010
0000
0101
1001
,
0000
1001
0000
0000
1010
0000
0000
0000
,
0110
0000
1001
1100
,
0000
1100
0000
0000
0011
0000
0000
0000
,
0110
0000
1001
1100
,
0000
1100
0000
0000
0011
0000
0000
0000
,
1001
0000
0110
0011
,
0000
0011
0000
0000
1100
0000
0000
0000
,
0110
0000
1001
0110
,
0000
0110
0000
0000
0011
0000
0000
0000
,
1001
0000
0011
1001
,
0000
1001
0000
0000
1100
0000
0000
0000
,
0011
0000
0110
1100
,
0000
1100
1000
0001
1000
0010
1000
0001
,
1000
0010
0100
0001
0000
1010
0000
0000
,
0000
0100
0010
1000
0010
0100
0001
0010
,
0001
0010
0100
0001
0000
1000
0000
0000
,
0000
1000
0100
0010
0100
1000
0100
0010
,
0100
1000
0001
0100
0000
0010
0000
0000
,
1000
0010
0000
0100
0000
0001
0000
0000
,
2002
0000
0000
0000
,
0000
0000
0000
0000
,
0000
0000
0000
0000
,
3003
0100
0000
0010
0000
1000
0010
0100
0000
1000
0010
0100
0000
0010
0000
1000
,
0000
0100
0000
1000
0000
0010
0100
0001
0000
0010
0100
0001
0000
0010
0000
1100
,
0000
1100
0000
0110
0000
0011
0000
0110
0000
1001
0000
1100
0000
0000
0110
0110
,
0000
0011
0000
0110
0000
2002
0000
0000
0000
0000
0000
0000
0000
0000
0000
3003
,
0000
0100
0000
0001
0000
1000
0010
0100
,
0000
1000
0001
1000
0000
0010
0000
1010
,
0000
0110
0000
0011
0000
0001
1000
0010
,
0000
0100
0010
1000
0000
0010
0000
1100
,
0000
0110
0000
0011
0000
0110
0000
1100
,
0000
0110
0000
1001
0000
0000
1000
1100
,
0000
0110
0000
1001
0000
0011
0000
0110
,
0000
0000
0000
0000
1000
1000
0001
1000
,
0000
0010
0000
0100
0000
1000
0001
1000
,
0000
0010
0100
0010
0000
1000
0000
0001
,
0000
1000
0000
0010
0000
0100
0010
0100
,
0000
1000
0001
1000
0000
0010
0000
1100
,
0000
0110
0000
0011
0000
0110
0000
1100
,
0000
0110
0000
0101
0000
0000
0001
0011
,
0000
0110
0000
1100
0000
0110
0000
1001
,
0000
0000
0000
0000
1000
1000
0001
1000
,
1010
0000
0110
1001
,
0000
1001
0000
0000
0011
0000
0000
0000
,
0110
0000
1100
0011
,
0000
0011
0000
0000
0110
0000
0000
0000
,
1100
0000
1001
0011
,
0000
0011
0000
0000
0110
0000
0000
0000
,
1100
0000
1001
0011
;

//---------------dance-single - Copied from Copied f----------------
#NOTEDATA:;
#CHARTNAME:Copied from Copied f;
#STEPSTYPE:dance-single;
#DESCRIPTION:Copied from Copied f;
#CHARTSTYLE:;
#DIFFICULTY:Medium;
#METER:6;
#RADARVALUES:0.228305,0.401735,0.027087,0.033859,0.040631,236.000000,232.000000,4.000000,5.000000,0.000000,0.000000,0.000000,0.000000,0.000000,0.228305,0.401735,0.027087,0.033859,0.040631,236.000000,232.000000,4.000000,5.000000,0.000000,0.000000,0.000000,0.000000,0.000000;
#CREDIT:Copied from Copied f;
#NOTES:
0000
0000
0000
0000
,
0000
0000
0000
0000
,
0000
0000
0000
0000
,
0000
0000
0000
0000
,
0000
0000
0000
0000
,
0000
0000
0000
0000
,
0000
0000
0000
0000
,
0000
0000
0000
0000
,
0000
0000
0000
0000
,
0000
0000
1000
0100
,
1000
0010
0001
0010
,
0100
1000
0100
1000
,
0001
1000
0010
0100
,
0010
1000
0001
1000
,
0100
0010
1000
0001
,
1000
0001
1000
0010
,
0100
0010
0001
1000
,
0001
1000
0100
1000
,
0010
0100
0001
1000
,
0010
0100
0001
1000
,
0010
1000
0100
1000
,
0010
0100
0001
1000
,
0010
1000
0100
1000
,
0001
1000
0010
0100
,
0010
0100
1000
0010
,
0100
0000
1000
0000
0010
0000
0000
0010
,
0000
0000
0100
0000
0000
0100
0000
0000
,
0001
0000
1000
0000
0001
0000
0000
0001
,
0000
0000
0100
0000
0000
0100
0000
0000
,
1000
0000
0001
0000
0100
0000
0000
0100
,
0000
0000
0010
0000
0000
0010
0000
0000
,
0001
0000
1000
0002
0000
0000
0000
0000
,
0000
0000
2003
0000
0000
0000
0000
3000
,
0001
0000
1000
0010
,
0000
0010
0000
0000
0100
0000
0000
0000
,
1000
0000
0001
0010
,
0000
0010
0000
0000
0100
0000
0000
0010
,
0000
0010
0000
0010
0000
0010
0000
0010
,
0000
0100
0000
0010
0000
0000
0010
0100
,
0000
0100
0000
0100
0000
0100
0000
0010
,
0000
0000
0000
0000
1000
0001
1000
0001
,
0010
0000
0100
0010
,
0000
1000
0000
0000
0001
0000
0000
0000
,
1000
0000
0010
0100
,
0000
0100
0000
0000
0001
0000
0000
1000
,
0000
1000
0000
1000
0000
1000
0000
1000
,
0000
0100
0000
0010
0000
0000
0001
1000
,
0000
1000
0000
1000
0000
1000
0000
1000
,
0000
0001
0000
0000
1000
0000
0000
0000
,
0100
0000
0010
1000
,
0000
1000
0000
0000
0001
0000
0000
0000
,
0100
0000
0010
1000
,
0000
1000
0000
0000
0001
0000
0000
0000
,
0100
0000
0010
0001
,
0000
0001
0000
0000
1000
0000
0000
0000
,
2002
0000
0000
0000
,
0000
0000
0000
0000
,
0000
0000
0000
0000
,
3003
1001
0000
0000
,
1001
0000
0000
0000
0000
0000
0000
0000
1001
0000
0000
0000
0000
0000
0000
0100
,
0000
0100
0000
0100
0000
0100
0000
0100
0000
0010
0000
1000
0000
0000
0000
0001
,
0000
0001
0000
0001
0000
2000
0000
0001
0000
0000
0000
0000
0000
0000
0000
0000
,
3001
0000
1000
0001
,
0000
0001
0000
0000
0010
0000
0000
0000
,
0100
0000
1000
0001
,
0000
0001
0000
0000
0010
0000
0000
0100
,
0000
0100
0000
0100
0000
0100
0000
0100
,
0000
0100
0000
0010
0000
0000
1000
0001
,
0000
0001
0000
0001
0000
0001
0000
0100
,
0000
0000
0000
0000
1000
0001
1000
0001
,
0100
0000
1000
0010
,
0000
0010
0000
0000
0100
0000
0000
0000
,
0001
0000
1000
0100
,
0000
0100
0000
0000
1000
0000
0000
0000
,
0010
0000
0001
1000
,
0000
1000
0000
0000
0100
0000
0000
0000
,
1000
0000
0010
1000
,
0000
1000
0000
0000
0001
0000
0000
0000
,
1000
0000
0100
1000
,
0000
1000
0000
0000
0010
0000
0000
0000
,
0001
0000
0100
0010
,
0000
0010
0000
0000
0001
0000
0000
0000
,
0010
0000
0001
1000
,
0000
1000
0000
0000
0001
0000
0000
0000
,
0100
0000
0010
1000
;

//---------------dance-single - Copied from Copied f----------------
#NOTEDATA:;
#CHARTNAME:Copied from Copied f;
#STEPSTYPE:dance-single;
#DESCRIPTION:Copied from Copied f;
#CHARTSTYLE:;
#DIFFICULTY:Easy;
#METER:4;
#RADARVALUES:0.165425,0.200867,0.027087,0.013544,0.003386,171.000000,167.000000,4.000000,2.000000,0.000000,0.000000,0.000000,0.000000,0.000000,0.165425,0.200867,0.027087,0.013544,0.003386,171.000000,167.000000,4.000000,2.000000,0.000000,0.000000,0.000000,0.000000,0.000000;
#CREDIT:Copied from Copied f;
#NOTES:
0000
0000
0000
0000
,
0000
0000
0000
0000
,
0000
0000
0000
0000
,
0000
0000
0000
0000
,
0000
0000
0000
0000
,
0000
0000
0000
0000
,
0000
0000
0000
0000
,
0000
0000
0000
0000
,
0000
0000
0000
0000
,
0000
0000
1000
0000
,
0001
0000
1000
0000
,
0100
0000
1000
0000
,
0010
0000
0100
0000
,
1000
0000
0010
0000
,
1000
0000
0001
0000
,
1000
0000
1001
0000
,
0000
1001
0000
0000
,
0000
0000
1000
0000
,
0010
0000
0001
0000
,
0010
0000
1000
0000
,
0001
0000
0010
0000
,
1000
0000
0100
0000
,
1000
0000
0001
0000
,
0010
0000
1010
0000
,
0000
0110
0000
0000
,
0000
0000
0000
0000
0001
0000
0000
0001
,
0000
0000
1000
0000
0000
1000
0000
0000
,
0100
0000
0000
0000
0010
0000
0000
0010
,
0000
0000
0001
0000
0000
0001
0000
0000
,
1000
0000
0000
0000
0100
0000
0000
0100
,
0000
0000
0010
0000
0000
0010
0000
0000
,
0001
0000
1000
1000
,
1000
1000
1000
0000
,
0001
0000
0100
1000
,
0000
1000
0000
0000
0010
0000
0000
0000
,
1000
0000
0001
0010
,
0000
0010
0000
0000
0100
0000
0000
0000
,
1000
0000
0001
1000
,
0000
1000
0000
0000
0010
0000
0000
0000
,
0100
0000
0010
1000
,
0000
1000
0000
0000
0001
0000
0000
0000
,
0010
0000
0100
0010
,
0000
0010
0000
0000
1000
0000
0000
0000
,
0001
0000
1000
0001
,
0000
0001
0000
0000
1000
0000
0000
0000
,
0100
0000
0010
1000
,
0000
1000
0000
0000
0001
0000
0000
0000
,
0100
0000
0010
1000
,
0000
1000
0000
0000
0001
0000
0000
0000
,
0100
0000
0010
0100
,
0000
0100
0000
0000
0010
0000
0000
0000
,
1000
0000
0001
1000
,
0000
1000
0000
0000
0100
0000
0000
0000
,
0010
0000
1000
0001
,
0000
0001
0000
0000
1000
0000
0000
0000
,
0020
0000
0000
0000
,
0000
0000
0000
0000
,
0000
0000
0000
0000
,
1030
0000
0000
0000
,
1000
0000
0000
0000
,
0001
0000
0000
0000
,
0010
0000
0000
0000
0000
2000
0000
0000
0000
0000
0000
0000
0000
0000
0000
0000
,
3001
0000
1000
0010
,
0000
0010
0000
0000
1000
0000
0000
0000
,
0001
0000
1000
0010
,
0000
0010
0000
0000
0100
0000
0000
0000
,
1000
0000
0001
1000
,
0000
1000
0000
0000
0010
0000
0000
0000
,
0100
0000
0010
1000
,
0000
1000
0000
0000
0001
0000
0000
0000
,
1000
0000
0010
0100
,
0000
0100
0000
0000
1000
0000
0000
0000
,
0010
0000
0001
1000
,
0000
1000
0000
0000
0010
0000
0000
0000
,
0100
0000
0010
0001
,
0000
0001
0000
0000
1000
0000
0000
0000
,
0100
0000
0010
0001
,
0000
0001
0000
0000
1000
0000
0000
0000
,
0100
0000
1000
0001
,
0000
0001
0000
0000
1000
0000
0000
0000
,
0010
0000
0100
0010
,
0000
0010
0000
0000
1000
0000
0000
0000
,
0001
0000
1000
0100
,
0000
0100
0000
0000
1000
0000
0000
0000
,
0010
0000
0001
0001
;

//---------------dance-single - Copied from Copied f----------------
#NOTEDATA:;
#CHARTNAME:Copied from Copied f;
#STEPSTYPE:dance-single;
#DESCRIPTION:Copied from Copied f;
#CHARTSTYLE:;
#DIFFICULTY:Beginner;
#METER:2;
#RADARVALUES:0.148979,0.172172,0.027087,0.013544,0.003386,154.000000,150.000000,4.000000,2.000000,0.000000,0.000000,0.000000,0.000000,0.000000,0.148979,0.172172,0.027087,0.013544,0.003386,154.000000,150.000000,4.000000,2.000000,0.000000,0.000000,0.000000,0.000000,0.000000;
#CREDIT:Copied from Copied f;
#NOTES:
0000
0000
0000
0000
,
0000
0000
0000
0000
,
0000
0000
0000
0000
,
0000
0000
0000
0000
,
0000
0000
0000
0000
,
0000
0000
0000
0000
,
0000
0000
0000
0000
,
0000
0000
0000
0000
,
0000
0000
0000
0000
,
0000
0000
1000
0000
,
0000
0000
1000
0000
,
0000
0000
1000
0000
,
0000
0000
0100
0000
,
0000
0000
0010
0000
,
0000
0000
0001
0000
,
1000
0000
1001
0000
,
0000
1001
0000
0000
,
0000
0000
1000
0000
,
0000
0000
0001
0000
,
0000
0000
1000
0000
,
0000
0000
0010
0000
,
0000
0000
0100
0000
,
0000
0000
0001
0000
,
0010
0000
1010
0000
,
0000
0110
0000
0000
,
0000
0000
0000
0000
0001
0000
0000
0001
,
0000
0000
1000
0000
0000
1000
0000
0000
,
0100
0000
0000
0000
0010
0000
0000
0010
,
0000
0000
0001
0000
0000
0001
0000
0000
,
1000
0000
0000
0000
0100
0000
0000
0100
,
0000
0000
0010
0000
0000
0010
0000
0000
,
0001
0000
1000
0000
,
1000
0000
1000
0000
,
0001
0000
0100
1000
,
0000
1000
0000
0000
0010
0000
0000
0000
,
1000
0000
0001
0010
,
0000
0010
0000
0000
0100
0000
0000
0000
,
1000
0000
0001
1000
,
0000
1000
0000
0000
0010
0000
0000
0000
,
0100
0000
0010
1000
,
0000
1000
0000
0000
0001
0000
0000
0000
,
0010
0000
0100
0010
,
0000
0010
0000
0000
1000
0000
0000
0000
,
0000
0000
1000
0001
,
0000
0001
0000
0000
1000
0000
0000
0000
,
0000
0000
0010
1000
,
0000
1000
0000
0000
0001
0000
0000
0000
,
0000
0000
0010
1000
,
0000
1000
0000
0000
0001
0000
0000
0000
,
0100
0000
0000
0100
,
0000
0100
0000
0000
0010
0000
0000
0000
,
0001
0000
0001
1000
,
0000
1000
0000
0000
0100
0000
0000
0000
,
0000
0000
1000
0001
,
0000
0001
0000
0000
1000
0000
0000
0000
,
0020
0000
0000
0000
,
0000
0000
0000
0000
,
0000
0000
0000
0000
,
1030
0000
0000
0000
,
1000
0000
0000
0000
,
0001
0000
0000
0000
,
0010
0000
0000
0000
0000
2000
0000
0000
0000
0000
0000
0000
0000
0000
0000
0000
,
3001
0000
1000
0010
,
0000
0010
0000
0000
1000
0000
0000
0000
,
0001
0000
1000
0010
,
0000
0010
0000
0000
0100
0000
0000
0000
,
1000
0000
0001
1000
,
0000
1000
0000
0000
0010
0000
0000
0000
,
0100
0000
0010
1000
,
0000
1000
0000
0000
0001
0000
0000
0000
,
1000
0000
0010
0100
,
0000
0100
0000
0000
1000
0000
0000
0000
,
0010
0000
0001
1000
,
0000
1000
0000
0000
0010
0000
0000
0000
,
0100
0000
0010
0001
,
0000
0001
0000
0000
1000
0000
0000
0000
,
0100
0000
0010
0001
,
0000
0001
0000
0000
1000
0000
0000
0000
,
0100
0000
1000
0001
,
0000
0001
0000
0000
1000
0000
0000
0000
,
0010
0000
0100
0010
,
0000
0010
0000
0000
1000
0000
0000
0000
,
0001
0000
1000
0100
,
0000
0100
0000
0000
1000
0000
0000
0000
,
0010
0000
0001
0001
;
