#VERSION:0.83;
#TITLE:Galway Girl;
#SUBTITLE:;
#ARTIST:Ed Sheeran;
#TITLETRANSLIT:;
#SUBTITLETRANSLIT:;
#ARTISTTRANSLIT:;
#GENRE:;
#ORIGIN:;
#CREDIT:;
#BANNER:AV.avi;
#BACKGROUND:Galway Girl-bg.png;
#PREVIEWVID:;
#JACKET:;
#CDIMAGE:;
#DISCIMAGE:Galway Girl-bn.png;
#LYRICSPATH:;
#CDTITLE:;
#MUSIC:Galway Girl - Ed Sheeran.mp3;
#OFFSET:-0.060000;
#SAMPLESTART:28.840000;
#SAMPLELENGTH:19.000000;
#SELECTABLE:YES;
#BPMS:0.000=100.020,
29.000=50.010,
31.000=100.020,
127.000=50.010,
135.000=100.020;
#STOPS:;
#DELAYS:;
#WARPS:;
#TIMESIGNATURES:0.000=4=4;
#TICKCOUNTS:0.000=4;
#COMBOS:0.000=1;
#SPEEDS:0.000=1.000=0.000=0;
#SCROLLS:0.000=1.000;
#FAKES:;
#LABELS:0.000=Song Start;
#BGCHANGES:0.000=GG.avi=1.200=1=1=1=StretchRewind==CrossFade==,
4.000=GG.avi=1.000=0=0=1=====,
99999=-nosongbg-=1.000=0=0=0 // don't automatically add -songbackground-
;
#KEYSOUNDS:;
#ATTACKS:
;

//---------------dance-single - ----------------
#NOTEDATA:;
#CHARTNAME:;
#STEPSTYPE:dance-single;
#DESCRIPTION:;
#CHARTSTYLE:;
#DIFFICULTY:Challenge;
#METER:16;
#RADARVALUES:0.710362,0.969276,0.913015,0.369733,0.928106,659.000000,538.000000,121.000000,49.000000,0.000000,10.000000,0.000000,0.000000,0.000000,0.710362,0.969276,0.913015,0.369733,0.928106,659.000000,538.000000,121.000000,49.000000,0.000000,10.000000,0.000000,0.000000,0.000000;
#CREDIT:;
#NOTES:
0000
0000
0000
0000
,
0000
0000
0000
0000
,
0000
0000
0000
0000
,
0000
0000
0000
0000
,
0000
0000
0000
0000
1001
0000
0010
0000
0100
0010
1100
0000
0001
0100
0010
0100
,
0000
0000
1000
0000
0100
0000
0010
0000
1001
0000
0010
0000
0100
0000
1000
0000
0100
0000
0010
0000
0101
0000
0010
0000
0100
0000
1000
0010
0100
0000
0001
0000
,
0100
1000
0010
0100
0101
0010
1000
0010
0000
0001
0011
0100
0010
1000
0100
0010
,
0000
0000
0100
0000
1000
0000
0001
0000
1100
0010
1000
0010
0000
0100
0000
0100
0010
0000
0010
1000
1001
1000
0001
0000
0100
0000
0001
0000
0100
0000
1000
0000
,
0100
0001
0010
0000
1000
0100
0010
0100
0000
1000
0010
0000
0100
1000
0001
1000
,
0010
0100
0001
0010
1000
0001
0100
1000
0010
0010
0010
0010
0001
1000
0100
0010
,
0100
0001
1000
0010
0100
0001
0100
0010
0000
0001
1000
1000
0200
0001
0010
0001
,
0000
0010
0000
0001
0010
0000
0001
0310
1000
0100
0010
0001
2001
0000
0000
0001
,
0100
0000
3020
0000
0000
0000
1000
0000
0231
0000
0010
0001
1301
0000
0110
0001
,
1100
0000
0011
0110
1100
0000
0110
0000
1100
0000
0000
0210
2000
0301
0010
0100
,
0001
0100
3020
0001
1000
0100
0001
1030
0120
0000
1000
0001
0230
0001
1000
0010
,
0000
0001
0000
0010
1300
0000
1000
0100
0010
0001
0010
0100
2001
0000
0000
0000
,
3001
0010
0220
0000
0000
0330
1000
0100
0010
0001
0010
0100
0110
0000
1000
0100
,
0110
0000
0001
0010
0100
0001
0100
0010
0101
0000
1000
0100
0110
0000
1000
0110
,
0000
1000
0100
0110
0000
1000
0110
0000
1000
0100
0010
0001
0110
0000
1000
0100
,
0000
1000
0100
0010
0012
0000
0000
0000
1003
0100
0010
0001
0220
0000
0000
0330
,
0100
0010
0200
0000
0000
0300
1000
0100
0010
0001
0010
0100
0110
0000
1000
0100
,
0110
0000
1000
0100
0010
0001
0010
0100
0110
0000
1000
0100
0110
0000
0001
0110
,
0000
0001
0010
0110
0000
0100
0110
0000
1000
0100
0010
0001
0110
0000
1000
0110
,
0000
1000
0100
0010
2002
0000
0000
3003
0000
0000
0002
0000
1013
0000
0000
0100
,
0110
0000
1001
0000
1100
0100
0100
0000
1001
0000
0000
0100
0110
0000
0000
1000
,
1001
0100
0100
0000
1001
0010
0110
0000
0110
0000
0000
1000
1001
0000
0000
0100
,
0110
1000
1001
0000
1001
0010
0110
0000
1001
0000
0000
0100
0110
0000
0000
0000
,
0000
0000
0000
0000
0000
0000
0000
0000
0110
0000
1000
1000
1001
0000
0000
0100
,
0110
1000
1001
0001
1001
0100
0110
0000
1001
0000
0000
0010
0110
0000
0000
0100
,
0110
0000
0100
0000
0100
0010
0110
0000
1001
0000
0000
1000
1100
0000
0000
0010
,
0011
0000
0011
0000
1001
0001
1001
0000
0110
0000
0000
0010
0110
0000
0000
0000
,
0000
0000
0000
0000
1001
0000
0000
0000
0000
0000
0000
0000
0000
0000
0000
0000
0110
0000
0000
0000
0000
0000
1000
0000
0010
0000
0100
0000
0100
0000
0010
0100
,
0001
0000
0010
0000
0100
0000
1000
0100
0010
0000
0001
0000
0010
0000
0100
0010
0100
0000
0001
0000
0010
0000
0000
1001
0000
1000
0100
0010
0001
0010
0100
1000
,
0100
0010
0001
0010
0100
0000
0100
0010
1001
0000
1010
0000
1001
0000
1010
0000
1001
0000
0000
1000
0100
0010
0001
0010
2001
0000
0000
0000
0000
0000
0000
0000
,
3001
0010
0220
0000
0000
0330
1000
0100
0010
0001
0010
0100
0110
0000
1000
0100
,
0110
0000
0001
0010
0100
0001
0100
0010
0101
0000
2000
0100
3110
0000
1000
0110
,
0000
1000
0100
0110
0000
1000
0110
0000
1000
0100
0010
0001
0110
0000
1000
0110
,
0000
1000
0100
0010
0012
0000
0000
0000
1003
0100
2000
0001
3220
0000
0000
0330
,
0100
0010
0200
0000
0000
0300
1000
0100
0010
0001
0010
0100
0110
0000
1000
0100
,
0110
0000
1000
0100
0010
0001
0010
0100
0110
0000
2000
0100
3110
0000
0001
0110
,
0000
0001
0010
0110
0000
0100
0110
0000
1000
0100
1001
0001
0110
0000
1000
0110
,
0000
0000
0000
0000
0000
0000
0000
0000
0000
0000
0000
0000
1000
0000
0000
0000
0000
0000
0000
0000
0000
0000
0000
0000
0100
0000
0000
0000
0000
0000
0000
0000
0000
0000
0000
0000
0010
0000
0000
0000
0000
0000
0000
0000
0000
0000
0000
0000
2002
0000
0000
0000
0000
0000
0000
0000
0000
0000
0000
0000
0000
0000
0000
0000
0000
0000
0000
0000
0000
0000
0000
0000
0000
3003
0000
0000
0000
0000
0000
0000
0000
0000
0000
0000
0000
0000
0000
0000
0000
0000
0000
0000
0000
0000
0000
0000
0100
0000
0000
0000
0000
0000
0000
0000
0000
0000
0000
0000
0010
0000
0000
0000
0000
0000
0000
0000
0000
0000
0000
0000
0200
0000
0000
0000
0000
0000
0000
0000
0000
0000
0000
0000
0010
0000
0000
0000
0000
0000
0000
0000
0000
0000
0000
0000
1302
0000
0000
0000
0000
0000
0000
0000
0000
0000
0000
0000
0000
0000
0000
0000
0000
0000
0000
0000
0000
0000
0000
0000
0000
0000
0000
0000
0000
0000
0000
0000
0000
0000
0000
0000
0000
0000
0000
0000
0000
0000
0000
0000
0000
0000
0000
0000
,
1003
0100
2100
0000
0000
0000
0100
3010
0100
0001
0100
0010
0210
0000
1300
0100
,
0120
0000
0031
0010
0100
0001
0100
0010
0210
0000
2300
0000
3120
0000
1030
0100
,
0010
0100
0010
0000
1000
0100
0010
0001
1000
0100
0010
0001
0010
1000
0001
0010
,
0000
0001
0010
0100
0120
0000
0000
0000
0000
0130
2000
0010
3210
0000
0000
0000
,
0301
0010
0200
0000
0000
0000
1300
0100
0010
0001
0010
0100
0120
0000
0031
0010
,
0210
0000
1300
0100
0010
0001
0010
0100
0120
0000
0032
0000
0013
0000
1000
0100
,
0010
0100
1000
0000
1000
0100
0010
0001
0010
0100
1000
0100
0010
0000
1000
0100
,
0000
1000
0100
0010
0220
0000
0000
0000
0000
0000
0000
0000
0000
0000
0000
0000
,
0000
0000
0000
0330
0000
0000
0000
0000
;

//---------------dance-single - Copied from----------------
#NOTEDATA:;
#CHARTNAME:Copied from;
#STEPSTYPE:dance-single;
#DESCRIPTION:Copied from;
#CHARTSTYLE:;
#DIFFICULTY:Hard;
#METER:11;
#RADARVALUES:0.413929,0.577533,0.045273,0.256550,0.584782,384.000000,378.000000,6.000000,34.000000,0.000000,0.000000,0.000000,0.000000,0.000000,0.413929,0.577533,0.045273,0.256550,0.584782,384.000000,378.000000,6.000000,34.000000,0.000000,0.000000,0.000000,0.000000,0.000000;
#CREDIT:Copied from;
#NOTES:
// measure 0
0000
0000
0000
0000
,  // measure 1
0000
0000
0000
0000
,  // measure 2
0000
0000
0000
0000
,  // measure 3
0000
0000
0000
0000
,  // measure 4
0000
0000
0000
0000
0010
0000
1000
0000
0010
0000
0100
0000
0001
0100
0010
0100
,  // measure 5
0000
1000
0010
1000
0100
1000
0001
1000
0010
1000
0001
1000
0100
1000
0001
1000
,  // measure 6
0010
0100
0001
0100
0001
0100
0010
0100
0000
0010
1000
0010
1000
0010
1000
0010
,  // measure 7
0000
1000
0010
0100
0010
0000
0000
0000
0000
0000
0110
0000
1000
0010
1000
0010
,  // measure 8
1000
0000
0010
0000
0100
0001
0100
0001
0000
1000
0100
0000
0100
1000
0010
1000
,  // measure 9
0001
1000
0100
1000
0001
1000
0010
0000
0100
0000
0001
0000
0000
0010
1000
0010
,  // measure 10
1000
0000
0100
1000
0001
1000
0100
1000
0000
0010
0000
0100
0002
0000
1000
0010
,  // measure 11
0000
1000
0000
0100
1000
0000
0100
1003
0000
0010
0100
0010
1000
0000
0100
0000
,  // measure 12
1000
0000
0001
1000
0001
0000
0100
0000
0010
0000
0010
0100
0010
0000
0100
0000
,  // measure 13
1000
0000
0010
0100
0001
0000
1000
0000
0100
0000
0000
1000
0000
1000
0100
1000
,  // measure 14
0001
1000
0010
1000
0001
1000
0100
1000
0001
0000
0010
0100
0000
0100
0010
0100
,  // measure 15
0000
0010
0000
0100
0010
0000
1000
0100
0010
0001
0100
0010
2000
0000
0000
0000
,  // measure 16
3020
0000
0000
0000
0230
0000
0000
0000
0300
0000
0000
0000
0000
0000
0010
0100
,  // measure 17
0000
0100
0000
0100
0000
0100
0000
0100
0000
0100
0000
0000
0020
0000
0000
0000
,  // measure 18
2030
0000
0000
0000
3002
0000
0000
0000
0003
0000
0000
0000
0000
0000
0100
0010
,  // measure 19
0000
0010
0000
0010
0000
0010
0000
0010
0000
0010
0000
0000
0200
0000
0000
0000
,  // measure 20
0302
0000
0000
0000
2003
0000
0000
0000
3000
0000
0000
0000
0000
0000
0100
0010
,  // measure 21
0000
0010
0000
0010
0000
0010
0000
0010
0000
0010
0000
0000
0200
0000
0000
0000
,  // measure 22
0302
0000
0000
0003
0020
0000
0000
0000
0030
0000
0000
0000
1000
0000
0010
0100
,  // measure 23
0001
0100
0010
0100
0002
0000
0000
0000
0000
0000
2003
0000
3010
0000
0000
0010
,  // measure 24
0100
0000
0010
0000
0100
0010
0100
0000
0010
0000
0000
1000
0001
0000
0000
1000
,  // measure 25
0010
1000
0001
0000
0100
0001
0100
0000
0010
0000
0000
0010
0100
0000
0000
1000
,  // measure 26
0001
0100
0010
0000
1000
0001
1000
0000
0010
0000
0000
0000
1001
0000
0000
0000
,  // measure 27
0000
0000
0000
0000
0000
0000
0000
0000
1001
0000
0000
0000
0010
0000
0000
0010
,  // measure 28
1000
0000
0010
0000
0100
0001
0100
0000
0001
0000
0000
0000
0010
0000
0000
0010
,  // measure 29
1000
0000
0001
0000
1000
0100
1000
0000
0001
0000
0000
0000
0100
0000
0000
0001
,  // measure 30
0010
0000
0100
0000
1000
0001
1000
0000
0001
0000
0000
0000
0110
0000
0000
0000
,  // measure 31
0000
0110
0000
0000
1001
0000
0010
0100
,  // measure 32
0010
1000
0001
0010
0100
1000
0010
0100
,  // measure 33
0001
0000
1000
0000
0010
0100
0010
0100
0010
0000
0000
0000
2000
0000
0000
0000
,  // measure 34
3020
0000
0000
0000
0230
0000
0000
0000
0300
0000
0000
0000
0000
0000
0100
0010
,  // measure 35
0000
0010
0000
0010
0000
0010
0000
0010
0000
0010
0000
0000
2000
0000
0000
0000
,  // measure 36
3002
0000
0000
0000
0023
0000
0000
0000
0030
0000
0000
0000
0000
0000
0000
0100
,  // measure 37
0000
0100
0000
0100
0000
0100
0000
0100
0000
0100
0000
0000
2000
0000
0000
0000
,  // measure 38
3002
0000
0000
0000
0023
0000
0000
0000
0030
0000
0000
0000
0000
0000
0000
0100
,  // measure 39
0000
0001
0000
0100
0000
0001
0000
0100
0000
0001
0000
0000
0200
0000
0000
0000
,  // measure 40
0320
0000
0000
0030
2000
0000
0000
0000
3000
0000
0000
0000
0100
0000
0010
0000
,  // measure 41
1000
0001
1000
0001
2000
0000
0000
0000
0000
0000
0000
3000
0020
0000
0000
0000
,  // measure 42
0130
0010
0200
0000
0000
0000
0301
1000
0001
1000
0001
1000
0002
0000
0103
0001
,  // measure 43
0200
0000
0310
1000
0010
1000
0010
1000
0010
0000
0100
0000
0001
0000
0001
0100
,  // measure 44
0001
0100
0001
0000
1000
0100
1000
0001
1000
0100
1000
0001
1000
0000
0010
0100
,  // measure 45
0000
0100
0010
0100
0020
0000
0030
0000
0000
0001
1000
0001
1000
0000
0000
0000
,  // measure 46
0100
1000
0001
0000
0000
0000
0010
1000
0001
1000
0100
1000
0001
0000
0010
0100
,  // measure 47
0010
0000
0100
1000
0001
1000
0010
1000
0001
0000
0100
0000
0010
0000
0001
0010
,  // measure 48
0100
0010
0001
0000
0010
0100
0001
0000
0100
0010
0001
0100
0010
0000
0001
0010
,  // measure 49
0000
0000
0000
0000
0000
0000
0000
0000
0000
0000
0000
0000
0100
0000
0000
0000
0000
0000
0000
0000
0000
0000
0000
0000
0010
0000
0000
0000
0000
0000
0000
0000
0000
0000
0000
0000
0001
0000
0000
0000
0000
0000
0000
0000
0000
0000
0000
0000
0200
0000
0000
0000
0000
0000
0000
0000
0000
0000
0000
0000
0000
0000
0000
0000
0000
0000
0000
0000
0000
0000
0000
0000
0000
0300
0000
0000
0000
0000
0000
0000
0000
0000
0000
0000
0000
0000
0000
0000
0000
0000
0000
0000
0000
0000
0000
0000
0000
0000
0000
0000
0000
0000
0000
0000
0000
0000
0000
0000
0000
0000
0000
0000
0000
0000
0000
0000
0000
0000
0000
0000
0000
0000
0000
0000
0000
0000
0000
0000
0000
0000
0000
0000
0000
0000
0000
0000
0000
0000
0000
0000
0000
0000
0000
0000
0000
0000
0000
0000
0000
0000
0000
0000
0000
0000
0000
0000
0000
0000
0000
0000
0000
0000
0000
0000
0000
0000
0000
0000
0000
0000
0000
0000
0000
0000
0000
0000
0000
0000
0000
0000
0000
0000
0000
0000
0000
0000
0000
0000
0000
0000
0000
0000
;

//---------------dance-single - Copied from Copied f----------------
#NOTEDATA:;
#CHARTNAME:Copied from Copied f;
#STEPSTYPE:dance-single;
#DESCRIPTION:Copied from Copied f;
#CHARTSTYLE:;
#DIFFICULTY:Medium;
#METER:7;
#RADARVALUES:0.264095,0.304087,0.279186,0.135820,0.015091,245.000000,208.000000,37.000000,18.000000,0.000000,0.000000,0.000000,0.000000,0.000000,0.264095,0.304087,0.279186,0.135820,0.015091,245.000000,208.000000,37.000000,18.000000,0.000000,0.000000,0.000000,0.000000,0.000000;
#CREDIT:Copied from Copied f;
#NOTES:
0000
0000
0000
0000
,
0000
0000
0000
0000
,
0000
0000
0000
0000
,
0000
0000
0000
0000
,
0000
0000
1000
0100
0010
0001
0010
0100
,
0010
0000
1000
0100
1000
0100
0010
0001
,
0010
0000
0100
0001
0100
0001
0100
0001
,
1000
0000
1010
0000
0000
0110
1001
0000
,
0010
0100
0000
0100
0010
0000
1000
0000
,
0001
1000
0000
1000
0001
0000
1000
0000
,
0010
0100
0000
0100
0010
0000
1000
0000
,
1000
0010
0000
0010
0100
0000
0001
0000
,
0000
0001
0000
0000
1000
0000
0010
0100
,
0010
0000
0100
0010
0100
0000
0100
0000
0100
0000
0000
0000
1000
0000
0000
0000
,
1000
0000
0001
0001
,
0000
0100
0100
0000
0000
0000
1000
0000
,
1000
0100
0010
0000
0000
0000
0001
0000
0010
0000
0000
0000
0100
0000
0000
0000
,
0100
0001
0000
0001
0100
0000
1000
0000
,
1000
0100
0000
0100
0010
0000
0100
0000
,
0001
1000
0000
1000
0110
0000
0001
0000
,
0001
0100
0000
0100
0010
0000
0100
0000
,
0010
0100
0000
0100
0010
0000
1000
0000
,
0001
1000
0000
1000
0001
0000
0100
0000
,
0010
1000
0000
1000
0010
0000
1001
0000
,
0001
0001
0001
0101
,
0100
0100
0100
1100
,
1000
1000
1000
1010
,
0000
0000
0101
0101
,
0001
0001
0001
0110
,
0100
0100
0100
1001
,
1000
1000
1000
0110
,
0000
0110
0000
0000
1000
0000
1001
0000
,
0000
1001
0000
0110
,
0000
0000
0000
0000
0010
0100
0010
0100
0010
0000
0000
0000
1000
0000
0000
0000
,
0010
0100
0000
0100
0001
0000
0110
0000
,
1000
0100
0000
0100
0010
0000
1000
0000
,
0001
0100
0000
0100
0001
0000
0110
0000
,
1000
0100
0000
0100
0010
0000
0001
0000
,
0001
1000
0000
1000
0001
0000
1001
0000
,
0010
0100
0000
0100
0010
0000
1001
0000
,
0001
0100
0000
0100
0001
0000
1000
0000
,
0010
0100
0000
0100
0010
0000
2010
0000
,
3010
0102
0103
0210
,
0310
2010
3010
0102
,
0103
0210
0310
2100
,
3100
2002
3003
0210
,
0310
0102
0103
2100
,
3100
0120
0130
0102
,
0103
2010
3010
0102
,
0103
0220
0000
0000
,
0000
0000
0000
0330
0000
0000
0000
0000
;

//---------------dance-single - Copied from Copied f----------------
#NOTEDATA:;
#CHARTNAME:Copied from Copied f;
#STEPSTYPE:dance-single;
#DESCRIPTION:Copied from Copied f;
#CHARTSTYLE:;
#DIFFICULTY:Easy;
#METER:5;
#RADARVALUES:0.195107,0.204391,0.052819,0.000000,0.000000,181.000000,174.000000,7.000000,0.000000,0.000000,0.000000,0.000000,0.000000,0.000000,0.195107,0.204391,0.052819,0.000000,0.000000,181.000000,174.000000,7.000000,0.000000,0.000000,0.000000,0.000000,0.000000,0.000000;
#CREDIT:Copied from Copied f;
#NOTES:
0000
0000
0000
0000
,
0000
0000
0000
0000
,
0000
0000
0000
0000
,
0000
0000
0000
0000
,
0000
1000
0100
1000
,
0010
0000
0001
0000
0010
0000
0100
0010
,
0100
1000
0100
0010
,
0100
0001
0000
1010
,
0100
0010
0100
0001
,
1000
0001
1000
0100
,
0010
1000
0001
0100
,
0000
0000
0000
0110
,
1000
0001
0100
1000
,
0100
0000
1000
1000
1000
0000
0100
0000
,
0010
1000
0001
0100
,
0100
0100
0000
0010
,
0100
0000
0001
1000
0001
0000
0100
0000
,
0010
0000
1000
0001
1000
0000
0100
0000
,
0010
0000
0100
0010
0100
0000
1000
0000
,
0100
0000
1000
0100
1000
0000
0100
0000
,
0001
0000
0100
0001
0100
0000
1000
0000
,
0001
0000
1000
0001
1000
0000
0100
0000
,
0010
0000
0100
0010
0100
0000
1000
0000
,
0001
1000
0000
1000
,
0100
1000
0100
0010
,
0001
0010
0001
0100
,
0010
0100
0010
1000
,
0000
0000
1010
0100
,
0001
0100
0001
1000
,
0010
1000
0010
0100
,
0001
0100
0001
1001
,
0000
0000
0000
1010
,
0000
0110
0000
0000
,
0000
0101
0000
0010
,
0100
0010
0100
1000
,
0001
1000
0001
0100
,
0010
0100
0010
1000
,
0001
1000
0001
0010
,
0001
0010
0001
1000
,
0100
1000
0100
1000
,
0010
1000
0001
0100
,
0010
1000
0100
1000
,
0001
1000
0100
1000
,
0001
1000
0010
0001
,
0100
0001
1000
0010
,
0100
1000
0100
0001
,
0100
1000
0001
1000
,
0010
1000
0010
0100
,
0001
1000
0001
1000
,
0010
1000
0000
0000
;

//---------------dance-single - Copied from Copied f----------------
#NOTEDATA:;
#CHARTNAME:Copied from Copied f;
#STEPSTYPE:dance-single;
#DESCRIPTION:Copied from Copied f;
#CHARTSTYLE:;
#DIFFICULTY:Beginner;
#METER:3;
#RADARVALUES:0.181094,0.185810,0.022637,0.000000,0.000000,168.000000,165.000000,3.000000,0.000000,0.000000,0.000000,0.000000,0.000000,0.000000,0.181094,0.185810,0.022637,0.000000,0.000000,168.000000,165.000000,3.000000,0.000000,0.000000,0.000000,0.000000,0.000000,0.000000;
#CREDIT:Copied from Copied f;
#NOTES:
0000
0000
0000
0000
,
0000
0000
0000
0000
,
0000
0000
0000
0000
,
0000
0000
0000
0000
,
0000
1000
0100
1000
,
0010
0001
0010
0100
,
0100
1000
0100
0010
,
0100
0001
0000
1010
,
0100
0010
0100
0001
,
1000
0001
1000
0100
,
0010
1000
0001
0100
,
0000
0000
0000
0100
,
1000
0001
0100
1000
,
0100
1000
1000
0100
,
0010
1000
0001
0100
,
0100
0100
0000
0010
,
0100
0001
0001
0100
,
0010
1000
1000
0100
,
0010
0100
0100
1000
,
0100
1000
1000
0100
,
0001
0100
0100
1000
,
0001
1000
1000
0100
,
0010
0100
0100
1000
,
0001
1000
0000
1000
,
0100
1000
0100
0010
,
0001
0010
0001
0100
,
0010
0100
0010
1000
,
0000
0000
1010
0100
,
0001
0100
0001
1000
,
0010
1000
0010
0100
,
0001
0100
0001
0001
,
0000
0000
0000
1000
,
0000
0010
0000
0000
,
0000
0101
0000
0010
,
0100
0010
0100
1000
,
0001
1000
0001
0100
,
0010
0100
0010
1000
,
0001
1000
0001
0010
,
0001
0010
0001
1000
,
0100
1000
0100
1000
,
0010
1000
0001
0100
,
0010
1000
0100
1000
,
0001
1000
0100
1000
,
0001
1000
0010
0001
,
0100
0001
1000
0010
,
0100
1000
0100
0001
,
0100
1000
0001
1000
,
0010
1000
0010
0100
,
0001
1000
0001
1000
,
0010
1000
0000
0000
;
