#TITLE:First Rabbit;
#SUBTITLE:;
#ARTIST:AKB48;
#TITLETRANSLIT:;
#SUBTITLETRANSLIT:;
#ARTISTTRANSLIT:;
#GENRE:;
#CREDIT:;
#BANNER:AV.avi;
#BACKGROUND:FirstRabbit-bg.png;
#LYRICSPATH:;
#CDTITLE:;
#MUSIC:FirstRabbit - AKB48.mp3;
#OFFSET:-0.200000;
#SAMPLESTART:112.680000;
#SAMPLELENGTH:20.000000;
#SELECTABLE:YES;
#BPMS:0.000000=168.050003
,163.000000=84.054985
,165.000000=168.050003
,273.000000=84.025002
,281.000000=168.050003
;
#STOPS:304.500000=1.400000
;
#BGCHANGES:0.000=FirstRabbit.avi=1.200=0=0=1=====,
2.500=FirstRabbit.avi=1.000=0=0=1=====,
99999=-nosongbg-=1.000=0=0=0 // don't automatically add -songbackground-
;
#KEYSOUNDS:;
#ATTACKS:;

//---------------dance-single - ----------------
#NOTES:
     dance-single:
     :
     Challenge:
     15:
     0.781914,1.335043,1.348921,0.210942,0.124900,986.000000,743.000000,243.000000,38.000000,0.000000,2.000000,0.781914,1.335043,1.348921,0.210942,0.124900,986.000000,743.000000,243.000000,38.000000,0.000000,2.000000:
0000
0000
0000
1010
,
1001
0110
0110
0101
,
0110
1001
1010
1001
,
0110
0101
1010
0110
,
0101
0110
1001
1100
,
0110
0101
0110
1001
,
0110
0101
0110
0101
,
0110
0000
0101
0000
0110
0000
1001
1001
,
0000
0000
1000
0000
0001
1000
0001
0000
1000
0000
1000
0001
1000
0000
0000
0000
,
0110
1010
0101
0110
,
1001
1010
1001
1010
,
1001
1010
1001
0110
,
0101
1001
1001
1010
,
0101
0110
0101
1010
,
1001
0000
1010
0000
1001
0000
1010
1000
,
0100
0010
0001
0100
0010
0100
1001
1001
,
0000
0000
0110
0000
1001
0000
1001
0000
0110
0000
0100
0010
0200
0000
0000
0000
,
0310
0210
0310
1002
,
1003
1020
1030
0210
,
0310
0000
1001
0000
1010
1001
1002
0000
,
1003
0000
1001
0000
0010
0001
0010
0000
,
0110
1001
1010
2002
,
3003
0101
0110
0201
,
0310
0000
2001
0000
3010
0000
1001
1001
,
0000
0000
0100
0000
0010
0100
0010
0000
1001
0000
0010
0100
0010
0000
0000
0000
,
1010
0101
0110
2001
,
3010
0110
0110
0102
,
0103
0000
1010
0011
0000
0102
0000
0000
,
1000
0000
1003
0000
1000
0001
1000
0001
,
0010
1000
0001
0100
0010
0001
0100
0010
,
0100
1000
0100
0010
0002
2000
0000
0000
,
0000
0000
0000
0000
0000
3003
0110
1001
,
0000
0000
1001
0000
0000
0000
1001
0000
0001
0000
1000
0001
1000
0000
0000
0000
,
0000
0000
0110
0000
0110
0000
0000
0000
0000
0000
0000
0000
1010
0000
0000
0110
,
0000
0101
0110
0000
0000
0000
0110
0000
,
0000
0000
1001
0000
1001
0000
0000
0000
0000
0000
0000
0000
1010
0000
0000
0110
,
0000
0000
0101
0000
0101
0000
0000
0000
0100
0001
1000
0001
0102
0000
0000
0000
,
0103
2010
3010
0102
,
0100
0000
0003
0000
0120
0000
0000
0000
0130
0000
0100
0001
2010
0000
0000
0000
,
3001
0000
0210
0010
0310
1001
1000
1000
,
0000
0000
0110
0000
0001
1000
0001
1000
0001
0000
0001
0000
1001
0000
0110
0000
,
0110
0110
1001
0000
0010
0100
0001
0100
,
0010
0100
0001
0000
1000
0100
0010
0001
,
0010
1000
0010
0000
1000
0100
0010
0100
,
0010
0100
0001
1000
0010
0100
0001
1000
,
0010
0100
1001
0000
1000
0100
0010
0100
,
1000
0100
0011
0000
0001
0100
0010
0100
,
0001
0100
0010
0100
0001
1000
0010
0100
,
0001
0000
0100
0000
0010
0000
0100
0000
0000
0000
0100
0000
0100
0010
0100
0000
,
0001
0000
1000
0010
0100
0000
0000
0000
1010
0000
0000
0000
0101
0000
0000
0000
,
0110
0102
0103
1010
,
1001
1010
0101
0220
,
0030
0000
0020
0000
0000
0000
1330
0001
,
0000
0001
1010
0000
1001
0000
1010
0000
,
0101
0000
0110
0000
0101
0000
1000
0100
,
0010
0001
0010
1000
0100
0010
0100
0010
,
0100
0001
0110
0110
0000
0110
1001
0110
,
0001
1000
0001
1000
0001
0000
0000
0000
1001
0000
0000
0000
1001
0000
0000
0000
,
0110
0000
0101
0000
0110
0000
0101
0010
,
0100
0001
0110
0000
1000
0100
0010
0001
,
0010
1000
1010
0000
1000
0100
0010
0100
,
0001
0100
0110
1000
0100
0010
0001
1000
,
0010
1000
1001
0010
1000
0001
1000
0010
,
1000
0001
0110
0010
1010
0100
0110
0010
,
1010
0100
0010
0100
1001
0000
1001
0000
0000
0000
0110
0000
0110
0000
0000
0000
,
1010
0000
2020
0000
0000
0000
3031
1000
0001
0000
0100
0000
0000
0000
0010
0000
,
0100
0010
0100
0000
0101
0000
0101
0000
0000
0000
1010
0000
1010
0000
0000
0000
,
0110
0001
0220
0000
0000
0000
0000
0000
0000
0000
0000
0000
0330
0000
0000
0000
,
1001
0000
0000
0000
0000
0000
0000
0000
1001
0000
0000
0000
0000
0000
0110
0000
0110
0000
0000
0000
0101
0000
0000
0000
0110
0000
0000
1010
0000
0000
1010
0000
,
1010
0000
0000
0000
0101
0000
0000
0000
0110
0000
0000
0000
0000
0000
1001
0000
1001
0000
0000
0000
1010
0000
0000
0000
0110
0000
0000
0110
0000
0000
0110
0000
,
0110
0000
0000
0000
0101
0000
0100
0010
1100
0000
0000
0000
1001
0000
0000
0000
0100
0000
0000
0000
0010
0000
0000
0000
0001
0000
0000
0000
1000
0000
0000
0000
,
0010
0100
0001
0010
1000
0001
0100
0010
,
1000
0001
1010
0000
1001
0000
0010
0100
,
0001
0000
0100
0000
0110
0000
0110
0000
0000
0000
1001
0000
0100
0010
0100
0000
,
0100
0000
0100
0010
0100
0000
0110
0000
0000
0000
0100
0000
0100
0010
0100
0000
,
1001
2002
0000
0000
0000
0000
0000
0000
,
0000
0000
0000
0000
0000
0000
0000
0000
0000
3003
0000
0000
0000
0000
0000
0000
1001
0000
0000
0000
0000
0000
0000
0000
0000
0000
0000
0000
0000
0000
0000
0000
1000
0000
0000
0000
0000
0000
0000
0000
0100
0000
0000
0000
0000
0000
0000
0000
0010
0000
0000
0000
0000
0000
0000
0000
0001
0000
0000
0000
0000
0000
0000
0000
,
0010
1000
1010
0000
1000
0100
0010
0001
,
0010
0100
0110
0000
0001
0010
1000
0001
,
1000
0010
1000
0100
0010
0100
1000
0100
,
0010
0100
0110
0000
0001
1000
0010
1000
,
0001
1000
1010
0000
1000
0100
0010
0001
,
0010
1000
0100
0010
0001
0100
0010
0100
,
0001
0000
0100
0000
0010
0000
0100
0000
0000
0000
0100
0000
0100
0010
0100
0000
,
0010
0000
0100
0001
1000
0000
0000
0000
0110
0000
0000
0000
0101
0000
0000
0000
,
0110
0000
0101
0000
1010
0000
1001
0010
,
1000
0001
0100
0010
0100
0001
0100
0010
,
0100
0001
1000
0010
0100
0001
1000
0010
,
0100
0001
1000
0010
0001
0100
0010
0001
,
1000
0100
0010
0001
1000
0010
1000
0001
,
1000
0010
2001
0000
0001
0000
0001
0000
,
3001
0100
0000
0110
0000
0110
0000
0110
,
1001
0000
1000
0010
1000
0000
0000
0000
0100
0000
0010
0000
0001
0000
1000
0000
,
0010
1000
1010
0000
1000
0100
0010
0001
,
0010
0100
0101
0000
1000
0100
0010
0100
,
1000
0100
0010
0001
0010
0100
0001
0100
,
0010
0100
0101
0000
1000
0100
0010
0100
,
1000
0100
0110
0000
0001
0010
0100
0001
,
0100
0010
1000
0100
0010
0001
0010
1000
,
0001
0000
1000
0000
0010
0000
1000
0000
0000
0000
1000
0000
1000
0001
1000
0000
,
0001
0000
1000
0010
1000
0000
0000
0000
0110
0000
0000
0000
0101
0000
0000
0000
,
1010
0000
1001
1000
0100
0010
0001
0010
,
1000
0001
0100
0010
0100
0001
2020
0000
,
0030
0000
0020
0000
0000
3030
0001
1000
,
0000
1000
0010
0001
1000
0010
0100
0001
,
0100
0010
0100
0001
1000
0010
0100
0001
,
0100
0010
0210
0000
0010
0000
0010
0000
,
0010
0000
0000
0000
0310
0000
0010
0000
0000
0000
1000
0000
0010
0100
1000
0000
,
0100
0001
0010
0001
1000
0000
0010
0000
1000
0000
0001
0000
0100
0000
0010
0000
,
1000
0001
0100
0010
1000
0100
0010
0001
,
1000
0010
0100
0001
1000
0010
0100
0001
,
1000
0100
0010
0100
1000
0100
0010
0100
,
0001
0100
0010
0100
0001
0010
1000
0001
,
0100
0010
1000
0001
0010
1000
0001
1000
,
0010
1000
0001
0010
1000
0001
1000
0010
,
1000
0001
0110
0110
0110
0110
0110
0110
,
0110
0110
0110
0000
1001
0000
1010
0000
,
1001
0000
0101
0000
0110
0000
0000
0000
0101
0000
0000
0000
0100
0001
1000
0001
,
0100
0001
1000
0001
1010
0000
1010
0000
0000
0000
0110
0000
0000
0000
0110
0000
,
0000
0220
0000
0000
0000
0000
0000
0000
,
0000
0330
0000
0000
;

//---------------dance-single - Copied from----------------
#NOTES:
     dance-single:
     Copied from:
     Hard:
     11:
     0.498014,0.601394,0.072164,0.538458,0.000000,628.000000,615.000000,13.000000,97.000000,0.000000,0.000000,0.498014,0.601394,0.072164,0.538458,0.000000,628.000000,615.000000,13.000000,97.000000,0.000000,0.000000:
// measure 0
0000
0000
0000
2010
,  // measure 1
0000
3020
0000
0230
,  // measure 2
0302
0023
0230
2300
,  // measure 3
3000
0001
0002
0000
0000
0000
0000
0000
,  // measure 4
0023
0230
2300
3020
,  // measure 5
0230
0302
0023
0000
,  // measure 6
0000
0230
2300
3020
,  // measure 7
0000
0032
0000
0023
,  // measure 8
0230
2300
3020
0230
,  // measure 9
0000
0320
2030
3020
,  // measure 10
0000
0230
0302
0023
,  // measure 11
0000
0230
0000
2300
,  // measure 12
0000
0000
3002
0023
,  // measure 13
0230
2300
3002
0103
,  // measure 14
0101
0000
0010
0000
1000
0002
0000
0000
,  // measure 15
0000
0000
0000
0000
,  // measure 16
0000
0003
1000
0100
,  // measure 17
0010
0001
1000
0100
,  // measure 18
0010
0001
1000
0020
,  // measure 19
0000
0030
0100
0000
0001
0002
0000
0000
,  // measure 20
0000
0000
0003
0000
1000
0100
1000
0000
,  // measure 21
0001
0010
0100
2000
,  // measure 22
0000
3000
0010
0000
0100
0000
0002
0000
,  // measure 23
0013
0000
0020
0000
0031
0000
0100
1000
,  // measure 24
0000
0001
1000
0010
1000
0001
0010
0000
,  // measure 25
0100
1000
0001
0020
,  // measure 26
0030
0100
1000
0002
,  // measure 27
0103
0000
0010
1000
0000
0002
0000
0000
,  // measure 28
0013
0000
1000
0000
0100
1000
0001
0100
,  // measure 29
0010
1000
0001
0010
0100
1000
0001
0100
,  // measure 30
0010
0100
0001
1000
0100
2000
0000
0000
,  // measure 31
0100
0001
3010
0001
,  // measure 32
0010
0100
1000
2001
,  // measure 33
0000
3010
0001
0012
,  // measure 34
0000
0013
1000
2100
,  // measure 35
0000
3100
0010
0012
,  // measure 36
0000
0013
0100
1001
,  // measure 37
0010
0000
0100
0000
0001
0010
0001
0000
,  // measure 38
1000
0000
0100
0000
0010
0001
0010
0000
,  // measure 39
0100
0000
1000
0001
0100
0010
0100
0001
,  // measure 40
0000
1000
0100
0010
0001
1000
0200
1000
,  // measure 41
1000
1300
1000
0000
0100
0010
0001
0100
,  // measure 42
0010
0100
0001
0000
1000
0100
1000
0001
,  // measure 43
1000
0100
1000
0000
0010
0001
0010
0100
,  // measure 44
1000
0001
0100
0010
0001
0010
1000
0100
,  // measure 45
1000
0001
1000
0000
0010
1000
0001
1000
,  // measure 46
0100
1000
0001
0000
0010
0100
1000
0001
,  // measure 47
0100
0010
0100
0000
0001
1000
0100
1000
,  // measure 48
0001
1000
0100
0010
0000
0001
1000
0100
,  // measure 49
1000
0001
0010
0000
0100
0000
1000
0100
,  // measure 50
1000
0100
1000
0000
0001
0000
0010
0001
,  // measure 51
0010
0001
0010
0100
1000
0001
2000
0000
,  // measure 52
3010
0000
0002
0000
0103
0000
0010
0100
,  // measure 53
0000
0100
0010
0000
1000
0000
0001
0000
,  // measure 54
0010
0100
1000
0001
,  // measure 55
0100
0020
0000
0000
1000
0000
0100
0000
,  // measure 56
1030
0000
0001
1000
0000
0001
0010
0100
,  // measure 57
0001
0010
0011
0000
0100
0000
0010
0100
,  // measure 58
0001
0100
0020
0000
1030
0000
0001
0010
,  // measure 59
0100
0010
0002
0000
1003
0000
0010
1000
,  // measure 60
0001
1000
0200
0000
1300
0000
0010
0100
,  // measure 61
0001
0010
0002
0000
1003
0000
0200
0000
,  // measure 62
0310
0002
0013
2000
,  // measure 63
3100
0002
0013
2000
,  // measure 64
3100
0000
0001
1000
0000
0001
1000
0000
,  // measure 65
0010
0200
0000
0000
0010
0000
0001
0000
,  // measure 66
0310
0000
0100
1000
0000
1000
0100
0000
,  // measure 67
0100
2000
0000
0000
0000
0000
0000
0000
,  // measure 68
3100
0000
1001
0000
0010
0100
1001
0000
,  // measure 69
0001
0010
0011
0000
0100
1000
1100
0000
,  // measure 70
0010
0100
1001
0010
0100
0001
1000
0100
,  // measure 71
1000
0001
0010
0100
1000
0001
0100
0010
,  // measure 72
1000
0001
2000
0000
3100
0000
0001
0010
,  // measure 73
0100
0010
0002
0000
1003
0000
0010
1000
,  // measure 74
0001
1000
0100
1000
0000
0001
0010
0100
,  // measure 75
1000
0002
0000
0000
0000
0000
0000
0000
,  // measure 76
0000
0000
0000
0000
0000
0000
0000
0000
0000
0003
0000
0000
0000
0000
0000
0000
1000
0000
0000
0000
0000
0000
0000
0000
0000
0000
0000
0000
0000
0000
0000
0000
0010
0000
0000
0000
0000
0000
0000
0000
1000
0000
0000
0000
0000
0000
0000
0000
0001
0000
0000
0000
0000
0000
0000
0000
1000
0000
0000
0000
0000
0000
0000
0000
,  // measure 77
0100
1000
0001
0000
0100
0010
0001
0010
,  // measure 78
0100
0010
0001
0000
0010
1000
0001
0010
,  // measure 79
0100
1000
0001
0100
0010
1000
0001
0010
,  // measure 80
0100
1000
0001
0000
0010
0100
0001
0100
,  // measure 81
0010
0100
0001
0000
1000
0010
1000
0100
,  // measure 82
1000
0010
1000
0000
0001
0010
0100
0010
,  // measure 83
0001
1000
0100
1000
0000
1000
0100
1000
,  // measure 84
0100
1000
0100
0000
0010
0000
0001
0010
,  // measure 85
0001
0010
0001
0000
1000
0000
0100
1000
,  // measure 86
0100
1000
0100
0000
0001
0000
1000
0001
,  // measure 87
1000
0001
1000
0000
0010
0000
0100
0000
,  // measure 88
0001
0000
0010
0100
1000
0001
0100
0010
,  // measure 89
0000
1000
0000
0001
0010
0100
1000
0001
,  // measure 90
0100
0010
2000
0000
0001
0000
0100
0000
,  // measure 91
3001
0000
0010
0001
0000
1000
0100
1000
,  // measure 92
0001
1000
0010
0000
0001
0100
0010
0100
,  // measure 93
0001
0100
0010
0000
0100
1000
0001
1000
,  // measure 94
0010
1000
0001
0000
0100
1000
0001
0010
,  // measure 95
0100
1000
0001
0100
0010
1000
0001
0010
,  // measure 96
0100
1000
0001
0000
0010
1000
0001
1000
,  // measure 97
0100
1000
0001
0000
0010
0100
0001
0100
,  // measure 98
0010
0100
0002
0000
1003
0000
0020
0000
,  // measure 99
0130
0000
0001
1000
0000
1000
0010
1000
,  // measure 100
0001
1000
0100
0000
0010
0000
0001
0100
,  // measure 101
0001
0100
0001
0000
1000
0000
0010
1000
,  // measure 102
0010
1000
0020
0000
0230
0000
0302
0000
,  // measure 103
2003
0000
3200
0000
0310
0000
0001
1000
,  // measure 104
0000
1000
0002
0000
0203
0000
0320
0000
,  // measure 105
2030
3002
0023
0230
,  // measure 106
2300
3002
0000
0000
0010
0000
1000
0000
,  // measure 107
0103
0000
0010
1000
0000
1000
0100
1000
,  // measure 108
0100
1000
0002
0000
0010
0003
1000
0100
,  // measure 109
1000
0100
2000
0000
3100
0000
0010
0100
,  // measure 110
0010
0100
0020
0000
0130
0000
0001
1000
,  // measure 111
0001
1000
0002
0000
0013
0000
0100
1000
,  // measure 112
0001
1000
0200
0000
1300
0000
0001
1000
,  // measure 113
0010
0100
0002
0000
0013
0000
0100
1000
,  // measure 114
0001
1000
0020
0000
1030
0000
0002
0000
,  // measure 115
0013
0000
0100
1000
0001
1000
0100
1000
,  // measure 116
0001
1000
0020
0000
0130
0000
1000
0001
,  // measure 117
0010
0100
2000
0000
3001
0000
0010
0100
,  // measure 118
0001
1000
0100
0100
0000
0100
0000
0100
,  // measure 119
0000
0200
0000
0000
0000
0000
0000
0000
,  // measure 120
0000
0000
0000
0300
0000
0000
0000
0000
;

//---------------dance-single - Copied from Copied f----------------
#NOTES:
     dance-single:
     Copied from Copied f:
     Medium:
     6:
     0.225217,0.334108,0.083267,0.083267,0.000000,284.000000,269.000000,15.000000,15.000000,0.000000,0.000000,0.225217,0.334108,0.083267,0.083267,0.000000,284.000000,269.000000,15.000000,15.000000,0.000000,0.000000:
0000
0000
0000
1000
,
0000
1000
0000
1000
,
0000
0100
0000
1000
,
0000
0010
0000
1000
,
0000
0001
0000
1000
,
0000
0001
0000
1000
,
0000
0010
0000
0100
,
0000
1000
0000
1000
,
0000
1000
0000
1001
,
0000
0001
0000
0010
,
0000
0001
0000
1000
,
0000
0100
0000
1000
,
0000
0010
0000
1000
,
0000
0001
0000
1000
,
0000
0010
0000
1000
,
0000
1000
0000
0100
,
0000
1000
0000
0001
,
0000
0000
0000
0001
,
0000
1000
0000
0001
,
0000
0000
0000
1000
,
0000
0100
0000
1000
,
0000
0010
0000
1000
,
0000
1000
0000
0001
,
0000
0001
0000
0001
,
0000
1000
0010
1000
,
0000
0100
0000
1000
,
0000
0010
0000
0001
,
0000
0010
0000
1000
,
0000
0001
0000
1000
,
0000
0010
0000
1000
,
0000
0001
0000
1000
,
0000
0001
0000
1000
,
1000
1000
0000
0001
,
0000
0000
0010
1000
,
0000
1000
0100
0010
,
0000
0001
0010
0100
,
0000
1000
1000
0001
,
0000
0010
0010
0100
,
0000
0100
0100
0010
,
1000
0001
1000
0001
,
1000
0001
1000
1001
,
0000
1001
0000
1000
,
0000
0001
1000
0001
,
0000
0010
0100
0010
,
0000
1000
0001
1000
,
0001
1000
0010
1000
,
0000
1000
0001
1000
,
0000
0100
1000
0100
,
0000
0010
1000
0001
,
1000
0001
0000
1000
,
0010
1000
0000
0001
,
1000
0001
1000
0001
,
0000
1000
0000
0100
,
1000
0001
1000
0010
,
1000
0001
1000
0001
,
0010
0100
0000
0100
,
0000
0010
0000
1000
,
0000
0001
1000
0001
,
0000
0010
0100
0010
,
0000
0100
0010
0100
,
0000
1000
0001
1000
,
0000
1000
0100
0010
,
0001
0010
0100
0010
,
0100
0010
1000
0001
,
1000
0000
0001
0000
0000
0001
0000
0000
,
0001
0000
0000
0000
,
0000
0000
1000
0000
0000
1000
0000
0000
,
1000
0000
0000
0000
,
0000
1001
0000
1001
,
0000
1001
0000
1010
,
0000
1100
0000
0000
,
0000
1000
0000
0000
,
0000
1000
0000
0001
,
0000
1000
0000
0000
,
0000
0100
0000
0010
,
0000
0200
0000
0000
0000
0000
0000
0000
,
0000
0000
0000
0000
0000
0000
0000
0000
0000
0300
0000
0000
0000
0000
0000
0000
1000
0000
0000
0000
0000
0000
0000
0000
0000
0000
0000
0000
0000
0000
0000
0000
0000
0000
0000
0000
0000
0000
0000
0000
0000
0000
0000
0000
0000
0000
0000
0000
0100
0000
0000
0000
0000
0000
0000
0000
0000
0000
0000
0000
0000
0000
0000
0000
,
0000
1000
0000
0000
,
0000
0010
0000
0001
,
0000
0010
0000
0000
,
0000
1000
0000
0100
,
0000
1000
0000
0000
,
0000
0010
0000
0001
,
0000
0010
0000
1000
,
0000
0100
0000
1000
,
0000
0001
0000
1000
,
0000
0010
0000
1000
,
0000
0001
0000
0010
,
0000
0100
0000
0010
,
0000
1000
0000
0001
,
0000
2002
0000
0000
,
0000
3003
0000
0000
,
0000
1000
0000
0001
,
0000
1000
0000
0100
,
0000
1000
0000
0010
,
0000
1000
0000
0001
,
0000
1000
0000
0001
,
0000
0100
0000
1000
,
0000
0010
0000
1000
,
0000
0001
1000
0001
,
1000
0001
0000
0100
,
0000
0010
0000
0100
,
0000
0010
0100
0010
,
0000
0220
0000
0330
,
0000
1000
0000
0001
,
0000
1000
0001
1000
,
0000
2002
0000
0000
,
0000
3003
0000
0000
,
0000
1000
0100
0010
,
0000
0001
0010
0100
,
0000
1000
0001
1000
,
0000
0001
1000
0001
,
0000
1000
0001
1000
,
0000
1000
0100
0010
,
0000
0001
0010
0100
,
1000
0001
1000
0001
,
1000
2020
0000
0000
,
3030
0220
0000
0330
,
0000
0202
0000
0303
,
0000
2002
0000
0000
0000
0000
0000
0000
,
0000
0000
0000
3003
0000
0000
0000
0000
;

//---------------dance-single - Copied from Copied f----------------
#NOTES:
     dance-single:
     Copied from Copied f:
     Easy:
     3:
     0.111815,0.200465,0.022204,0.022204,0.000000,141.000000,137.000000,4.000000,4.000000,0.000000,0.000000,0.111815,0.200465,0.022204,0.022204,0.000000,141.000000,137.000000,4.000000,4.000000,0.000000,0.000000:
0000
0000
0000
1000
,
0000
0000
0000
1000
,
0000
0000
0000
0001
,
0000
0000
0000
0001
,
0000
0000
0000
0010
,
0000
0000
0000
0010
,
0000
0000
0000
0100
,
0000
0100
0000
0100
,
0000
0000
0000
1000
,
0000
0000
0000
1000
,
0000
0000
0000
0001
,
0000
0000
0000
1000
,
0000
0000
0000
1000
,
0000
0000
0000
0010
,
0000
0000
0000
0001
,
0000
1000
0000
0001
,
0000
0010
0000
0100
,
0000
0000
0000
0100
,
0000
0000
0000
1000
,
0000
0000
0000
1000
,
0000
0000
0000
0001
,
0000
0000
0000
0001
,
0000
0000
0000
0010
,
0000
0010
0000
0010
,
0000
0000
0000
1000
,
0000
0000
0000
0001
,
0000
0000
0000
1000
,
0000
0000
0000
0010
,
0000
0000
0000
0001
,
0000
0000
0000
1000
,
0000
0000
0000
1000
,
0000
0001
0000
1000
,
0000
0000
0000
0010
,
0000
0000
0000
1000
,
0000
0000
0000
0001
,
0000
0000
0000
1000
,
0000
0000
0000
0010
,
0000
1000
0000
0001
,
0000
0000
0000
1000
,
0000
0001
0000
1000
,
0000
0000
0000
1001
,
0000
1001
0000
0000
,
0000
1000
0000
0000
,
0000
1000
0000
0000
,
0000
1000
0000
0000
,
0000
0001
0000
0000
,
0000
0010
0000
0000
,
0000
0010
0000
0000
,
0000
0010
0000
0000
,
0000
0001
0000
0000
,
0000
0100
0000
0000
,
0000
1000
0000
0000
,
0000
2000
0000
3000
,
0000
0100
0000
0000
,
0000
1000
0000
0000
,
0000
0100
0000
0000
,
0000
0010
0000
0000
,
0000
0001
0000
0000
,
0000
1000
0000
0000
,
0000
1000
0000
0000
,
0000
1000
0000
0000
,
0000
0001
0000
0000
,
0000
0001
0000
0000
,
0000
1000
0000
0000
,
0000
0010
0000
0000
,
0000
0000
0000
0000
,
0000
1000
0000
0000
,
0000
0000
0000
0000
,
0000
1001
0000
0010
,
0000
0100
0000
1000
,
0000
0001
0000
1000
,
0000
0001
0000
0100
,
0000
1000
0000
0000
,
0000
1000
0000
0000
,
0000
1000
0000
0100
,
0000
2000
0000
0000
0000
0000
0000
0000
,
0000
0000
0000
0000
0000
0000
0000
0000
0000
3000
0000
0000
0000
0000
0000
0000
0001
0000
0000
0000
0000
0000
0000
0000
0000
0000
0000
0000
0000
0000
0000
0000
0000
0000
0000
0000
0000
0000
0000
0000
0000
0000
0000
0000
0000
0000
0000
0000
0000
0000
0000
0000
0000
0000
0000
0000
0000
0000
0000
0000
0000
0000
0000
0000
,
0000
1000
0000
0000
,
0000
0100
0000
0000
,
0000
0010
0000
0000
,
0000
1000
0000
0000
,
0000
0001
0000
0000
,
0000
0100
0000
0100
,
0000
0100
0000
0000
,
0000
1000
0000
0000
,
0000
0001
0000
0000
,
0000
0010
0000
1000
,
0000
0010
0000
0000
,
0000
0100
0000
0010
,
0000
0100
0000
0000
,
0000
1000
0000
0001
,
0000
1000
0000
0000
,
0000
0010
0000
0000
,
0000
1000
0000
0000
,
0000
0100
0000
0000
,
0000
0010
0000
0000
,
0000
0001
0000
0000
,
0000
1000
0000
0000
,
0000
0010
0000
0010
,
0000
0010
0000
0000
,
0000
0001
0000
0000
,
0000
1000
0000
0000
,
0000
0010
0000
1000
,
0000
0001
0000
0000
,
0000
0100
0000
0000
,
0000
0010
0000
0000
,
0000
1000
0000
0000
,
0000
0001
0000
0001
,
0000
0001
0000
0000
,
0000
0100
0000
0000
,
0000
0010
0000
0000
,
0000
1000
0000
0000
,
0000
0001
0000
0000
,
0000
1000
0000
0000
,
0000
0100
0000
0000
,
0000
1000
0000
0000
,
0000
0001
0000
0000
,
0000
0001
0000
0000
,
0000
0000
1000
0000
0000
0000
0000
2002
,
0000
0000
0000
0000
,
0000
0000
0000
3003
0000
0000
0000
0000
;

//---------------dance-single - Copied from Copied f----------------
#NOTES:
     dance-single:
     Copied from Copied f:
     Beginner:
     1:
     0.065027,0.133643,0.005551,0.022204,0.000000,82.000000,81.000000,1.000000,4.000000,0.000000,0.000000,0.065027,0.133643,0.005551,0.022204,0.000000,82.000000,81.000000,1.000000,4.000000,0.000000,0.000000:
0000
0000
0000
1000
,
0000
0000
0000
0000
,
0000
0000
0000
0001
,
0000
0000
0000
0000
,
0000
0000
0000
0010
,
0000
0000
0000
0000
,
0000
0000
0000
0100
,
0000
0000
0000
0100
,
0000
0000
0000
1000
,
0000
0000
0000
0000
,
0000
0000
0000
0001
,
0000
0000
0000
0000
,
0000
0000
0000
1000
,
0000
0000
0000
0000
,
0000
0000
0000
0001
,
0000
0000
0000
0001
,
0000
0000
0000
0100
,
0000
0000
0000
0000
,
0000
0000
0000
0000
,
0000
0000
0000
1000
,
0000
0000
0000
0001
,
0000
0000
0000
0000
,
0000
0000
0000
0010
,
0000
0000
0000
0010
,
0000
0000
0000
1000
,
0000
0000
0000
0000
,
0000
0000
0000
1000
,
0000
0000
0000
0000
,
0000
0000
0000
0001
,
0000
0000
0000
1000
,
0000
0000
0000
1000
,
0000
0000
0000
1000
,
0000
0000
0000
0000
,
0000
0000
0000
1000
,
0000
0000
0000
0000
,
0000
0000
0000
1000
,
0000
0000
0000
0000
,
0000
1000
0000
0000
,
0000
0000
0000
1000
,
0000
0000
0000
1000
,
0000
0000
0000
1000
,
0000
1000
0000
0000
,
0000
1000
0000
0000
,
0000
0000
0000
0000
,
0000
1000
0000
0000
,
0000
0000
0000
0000
,
0000
0010
0000
0000
,
0000
0000
0000
0000
,
0000
0010
0000
0000
,
0000
0000
0000
0000
,
0000
0100
0000
0000
,
0000
0000
0000
0000
,
0000
2000
0000
3000
,
0000
0100
0000
0000
,
0000
0000
0000
0000
,
0000
0100
0000
0000
,
0000
0000
0000
0000
,
0000
0001
0000
0000
,
0000
0000
0000
0000
,
0000
1000
0000
0000
,
0000
0000
0000
0000
,
0000
0001
0000
0000
,
0000
0000
0000
0000
,
0000
1000
0000
0000
,
0000
0010
0000
0000
,
0000
0000
0000
0000
,
0000
1000
0000
0000
,
0000
0000
0000
0000
,
0000
1000
0000
0010
,
0000
0000
0000
1000
,
0000
0000
0000
1000
,
0000
0000
0000
0100
,
0000
0000
0000
0000
,
0000
0000
0000
0000
,
0000
1000
0000
0000
,
0000
2000
0000
0000
0000
0000
0000
0000
,
0000
0000
0000
0000
0000
0000
0000
0000
0000
3000
0000
0000
0000
0000
0000
0000
0001
0000
0000
0000
0000
0000
0000
0000
0000
0000
0000
0000
0000
0000
0000
0000
0000
0000
0000
0000
0000
0000
0000
0000
0000
0000
0000
0000
0000
0000
0000
0000
0000
0000
0000
0000
0000
0000
0000
0000
0000
0000
0000
0000
0000
0000
0000
0000
,
0000
1000
0000
0000
,
0000
0000
0000
0000
,
0000
0010
0000
0000
,
0000
0000
0000
0000
,
0000
0001
0000
0000
,
0000
0100
0000
0000
,
0000
0100
0000
0000
,
0000
1000
0000
0000
,
0000
0000
0000
0000
,
0000
0010
0000
0000
,
0000
0010
0000
0000
,
0000
0100
0000
0000
,
0000
0100
0000
0000
,
0000
1000
0000
0000
,
0000
1000
0000
0000
,
0000
0010
0000
0000
,
0000
0000
0000
0000
,
0000
0100
0000
0000
,
0000
0000
0000
0000
,
0000
0001
0000
0000
,
0000
0000
0000
0000
,
0000
0010
0000
0000
,
0000
0010
0000
0000
,
0000
0001
0000
0000
,
0000
0000
0000
0000
,
0000
0010
0000
0000
,
0000
0001
0000
0000
,
0000
0000
0000
0000
,
0000
0010
0000
0000
,
0000
1000
0000
0000
,
0000
0001
0000
0000
,
0000
0001
0000
0000
,
0000
0100
0000
0000
,
0000
0000
0000
0000
,
0000
1000
0000
0000
,
0000
0000
0000
0000
,
0000
1000
0000
0000
,
0000
0000
0000
0000
,
0000
1000
0000
0000
,
0000
0000
0000
0000
,
0000
0001
0000
0000
,
0000
0000
1000
0000
0000
0000
0000
2002
,
0000
0000
0000
0000
,
0000
0000
0000
3003
0000
0000
0000
0000
;
