#VERSION:0.83;
#TITLE:First Kiss;
#SUBTITLE:DJMAX TECHNIKA;
#ARTIST:BJJ;
#TITLETRANSLIT:;
#SUBTITLETRANSLIT:;
#ARTISTTRANSLIT:;
#GENRE:;
#ORIGIN:;
#CREDIT:;
#BANNER:AV.avi;
#BACKGROUND:First Kiss-bg.png;
#PREVIEWVID:;
#JACKET:;
#CDIMAGE:;
#DISCIMAGE:First Kiss.png;
#LYRICSPATH:;
#CDTITLE:;
#MUSIC:First Kiss.mp3;
#OFFSET:-0.190000;
#SAMPLESTART:44.959999;
#SAMPLELENGTH:16.000000;
#SELECTABLE:YES;
#DISPLAYBPM:107.000000;
#BPMS:0.000=107.000;
#STOPS:;
#DELAYS:;
#WARPS:;
#TIMESIGNATURES:0.000=4=4;
#TICKCOUNTS:0.000=4;
#COMBOS:0.000=1;
#SPEEDS:0.000=1.000=0.000=0;
#SCROLLS:0.000=1.000;
#FAKES:;
#LABELS:0.000=Song Start;
#BGCHANGES:0.000=First Kiss.avi=2.000=1=1=1=StretchRewind==CrossFade==,
4.000=First Kiss.avi=1.000=0=0=1=====,
99999=-nosongbg-=1.000=0=0=0 // don't automatically add -songbackground-
;
#KEYSOUNDS:;
#ATTACKS:
;

//---------------dance-single - ----------------
#NOTEDATA:;
#CHARTNAME:;
#STEPSTYPE:dance-single;
#DESCRIPTION:;
#CHARTSTYLE:;
#DIFFICULTY:Hard;
#METER:8;
#RADARVALUES:0.396722,0.434440,0.476867,0.177656,0.107529,297.000000,246.000000,51.000000,19.000000,0.000000,0.000000,0.000000,0.000000,0.000000,0.396722,0.434440,0.476867,0.177656,0.107529,297.000000,246.000000,51.000000,19.000000,0.000000,0.000000,0.000000,0.000000,0.000000;
#CREDIT:;
#DISPLAYBPM:107.000000;
#NOTES:
0000
0000
0000
0000
,
0000
0000
0000
0000
,
0000
0000
0000
0000
,
0000
0000
0000
0000
,
0001
0010
0100
0010
0001
0000
1000
0000
,
0010
1000
0100
1000
0010
0000
0101
0000
,
0001
1000
0010
0100
0001
0000
0010
0000
,
1000
0010
0100
0001
0010
0000
1001
0000
,
1000
0100
0010
0001
1000
0000
1001
0000
,
0100
0010
0100
0001
0100
0000
0101
0000
,
0010
1000
0001
1000
0010
0000
1001
0000
,
1000
0010
0100
0001
0100
0000
0101
0000
,
1100
1001
0011
1100
,
1001
0000
0110
0000
2001
0010
3001
0000
,
0110
0011
1100
1001
,
0110
0000
0110
0000
0210
0001
0310
0000
,
1100
1001
0011
1100
,
1001
0110
0021
0031
,
1100
1001
0110
1001
,
1000
0100
1000
0100
1000
0001
0010
0100
,
1000
0000
0010
0100
0001
0100
0010
0100
0001
0000
0000
0000
1000
0000
0000
0000
,
0100
0000
1000
0001
1000
0100
1000
0001
1000
0000
0000
0000
0010
0000
0100
0000
,
0002
0000
0013
0100
2000
0000
3010
0100
,
0001
0010
0100
1000
0002
0000
0103
0000
,
1000
0010
1000
0001
2000
0000
3010
0000
,
0010
0100
0010
0001
0020
0000
0130
0000
,
1001
0110
0011
1100
,
2001
0000
0100
0000
3010
0000
0200
0300
,
1000
0010
1000
0010
0000
0000
0100
0000
0000
0000
0000
0000
0001
0010
0001
0000
,
1000
0100
1000
0100
0000
0000
0010
0000
0000
0000
1000
0000
1000
0000
0001
0000
,
0010
0100
0010
0001
0000
0000
1000
0000
0000
0000
0010
0000
0100
0000
0000
0000
,
1000
0100
0010
0001
0010
0100
1000
0001
,
0110
0000
0110
0000
0000
0110
0000
0000
0000
0000
0000
0000
1000
0000
0100
0000
,
1100
1100
0000
1100
0000
0000
0100
0010
,
0011
0000
0000
0011
0000
0000
0011
0000
0000
0000
1000
0000
0100
1000
0001
1000
,
0100
1000
0001
1000
0100
0010
0100
0010
,
0001
0000
0100
0010
1000
0010
0100
0010
1000
0000
0000
0000
0001
0000
0000
0000
,
0010
0000
0001
1000
0001
0010
0001
1000
0001
0000
0000
0000
0100
0000
0010
0000
,
2000
0000
3100
0010
0002
0000
0103
0010
,
1000
0100
0010
0001
2000
0000
3010
0000
,
0001
0100
0001
1000
0002
0000
0103
0000
,
0100
0010
0100
1000
0200
0000
0310
0000
,
1001
0110
1100
0011
,
1002
0000
0010
0000
0103
0000
0020
0030
,
2002
3003
0000
0000
;

//---------------dance-single - ----------------
#NOTEDATA:;
#CHARTNAME:;
#STEPSTYPE:dance-single;
#DESCRIPTION:;
#CHARTSTYLE:;
#DIFFICULTY:Challenge;
#METER:13;
#RADARVALUES:0.642502,0.678835,1.626959,0.140255,0.359988,481.000000,307.000000,174.000000,15.000000,0.000000,0.000000,0.000000,0.000000,0.000000,0.642502,0.678835,1.626959,0.140255,0.359988,481.000000,307.000000,174.000000,15.000000,0.000000,0.000000,0.000000,0.000000,0.000000;
#CREDIT:;
#DISPLAYBPM:107.000000;
#NOTES:
// measure 0
0000
0000
0000
0000
,  // measure 1
0000
0000
0000
0000
,  // measure 2
0000
0000
0000
0000
,  // measure 3
0000
0000
0000
0000
0000
0000
0000
0000
0000
0000
0000
0000
1001
0100
0010
0001
,  // measure 4
0110
0000
1000
0001
0010
0000
0110
1000
0110
0000
0010
0001
0000
0000
0100
1000
,  // measure 5
1001
0000
0000
0110
0000
0000
0110
0000
1001
0000
0000
0000
2000
3000
0001
0000
,  // measure 6
0110
0000
0000
0000
0000
0000
0110
0000
1001
0000
0000
0000
1100
0000
0000
1000
,  // measure 7
1001
0000
0000
0110
0000
0000
1001
0000
1000
0100
0010
0100
2000
3001
0000
0010
,  // measure 8
0110
0000
1000
0001
1000
0000
0110
0000
0110
0000
0000
0000
0100
0000
0000
1000
,  // measure 9
1001
0000
0000
0110
0000
0000
0110
0000
1001
0000
0000
0000
2000
3000
0101
0000
,  // measure 10
0101
0000
0000
0000
1001
0000
0100
0101
,  // measure 11
0101
0000
0000
1100
0000
0000
0110
0000
1001
0100
0010
0100
2000
3100
0000
0000
,  // measure 12
1001
0000
0010
0000
1100
0000
0001
0000
0110
0000
1000
0000
1001
0000
0000
1001
,  // measure 13
1001
0000
0100
0000
0110
0000
1000
0000
1001
0000
0100
0100
1001
0010
0010
0000
,  // measure 14
1001
0000
0100
0000
1100
0000
1000
0001
1010
0000
0001
0000
1100
0010
1000
0001
,  // measure 15
0110
0000
0000
0000
1100
0000
0000
0110
0110
0000
1001
0000
0000
0000
1001
0000
,  // measure 16
0110
0000
1000
0000
1100
0000
0100
0000
0110
0000
0001
0000
1001
0000
0010
0100
,  // measure 17
1001
0000
0100
0000
1100
0000
0001
0000
0110
0000
0001
0001
0110
1000
1000
0000
,  // measure 18
0110
0000
1000
0000
1100
0000
0001
0100
1001
0000
0001
0110
0110
0000
0001
0000
,  // measure 19
0110
1001
0110
1001
0110
0010
0001
0100
,  // measure 20
1001
0000
1001
0000
0000
0000
0110
0000
0000
0110
0000
0000
1000
0000
0000
1100
,  // measure 21
1100
0000
1100
0000
0000
0000
0110
0000
0000
0110
0000
0100
0020
1030
1001
0000
,  // measure 22
1001
0000
1001
0000
0000
0000
0110
0000
0000
0110
0000
0000
0000
0000
0000
0101
,  // measure 23
0101
0000
1001
0000
0000
0000
1100
0000
0000
1100
0000
0010
0002
0103
1100
0000
,  // measure 24
0110
0000
0110
0000
0000
0000
1100
0000
0000
1100
0000
0000
1001
0000
0000
1010
,  // measure 25
1010
0000
1001
0000
0110
0000
1100
0000
0000
1100
0000
0010
0200
0301
0011
0000
,  // measure 26
0011
0000
1001
0000
1001
0000
0110
0000
0000
1100
0000
0000
1001
0000
0000
1000
,  // measure 27
1001
0000
0000
0000
1001
0000
0000
0100
0110
0000
0110
0000
1002
0003
0000
0000
,  // measure 28
0001
0100
0010
0001
0000
0000
2000
0000
0000
0000
3000
0000
0001
1000
0100
0000
,  // measure 29
0100
1000
0010
0001
0000
0000
0200
0000
0000
0000
1300
0000
0002
0003
0100
0000
,  // measure 30
0001
1000
0100
0010
0000
0100
2000
0000
0000
0000
0100
0000
3100
0000
0000
0000
,  // measure 31
0101
0101
0101
0101
0101
0101
0101
0101
,  // measure 32
1100
0000
1100
0000
0000
0110
0000
0000
0000
0000
0000
0000
1000
0100
0010
1001
,  // measure 33
1001
0000
1001
0000
0000
0000
1100
0000
0000
0000
0000
0000
0000
1000
0001
0000
,  // measure 34
0110
0000
0000
0110
0000
0000
0110
0000
0000
0000
0000
0000
0100
1000
0100
0000
,  // measure 35
0110
1001
0110
1001
0110
1001
0000
0110
,  // measure 36
1001
0000
1001
0000
0000
0000
0110
0000
0000
0110
0000
0000
1001
0000
0000
0011
,  // measure 37
0011
0000
0011
0000
0000
0000
0110
0000
0000
0110
0000
0010
0200
0301
1001
0000
,  // measure 38
1001
0000
1001
0000
0000
0000
0110
0000
0000
0110
0000
0000
0000
0000
0000
1010
,  // measure 39
1010
0000
1001
0000
0000
0000
0011
0000
0000
0011
0000
0100
2000
3010
0011
0000
,  // measure 40
1001
0100
1100
0010
1001
0100
1100
1000
,  // measure 41
1100
0000
0010
0000
0101
0000
0010
0000
1001
0000
0100
0000
2100
3010
0011
0000
,  // measure 42
1001
0000
0010
0000
0101
0000
0100
0000
1100
0000
1000
0000
1100
0000
0010
0100
,  // measure 43
0101
0000
0000
0000
1001
0000
0000
0000
0110
0000
0000
0000
1001
1000
0001
0000
,  // measure 44
1100
0000
0000
0000
;

//---------------dance-single - ----------------
#NOTEDATA:;
#CHARTNAME:;
#STEPSTYPE:dance-single;
#DESCRIPTION:;
#CHARTSTYLE:;
#DIFFICULTY:Medium;
#METER:5;
#RADARVALUES:0.229751,0.287990,0.121554,0.140255,0.023376,172.000000,159.000000,13.000000,15.000000,0.000000,0.000000,0.000000,0.000000,0.000000,0.229751,0.287990,0.121554,0.140255,0.023376,172.000000,159.000000,13.000000,15.000000,0.000000,0.000000,0.000000,0.000000,0.000000;
#CREDIT:;
#DISPLAYBPM:107.000000;
#NOTES:
0000
0000
0000
0000
,
0000
0000
0000
0000
,
0000
0000
0000
0000
,
0000
0000
0000
0000
,
1000
0000
0100
0110
,
0001
0000
0000
0001
0000
0000
0001
0000
0001
0000
0000
0000
0000
0000
0000
0000
,
0100
0000
0001
1001
,
0010
0000
0000
0010
0000
0000
0010
0000
0010
0000
0000
0000
0000
0000
0000
0000
,
0100
0000
0000
0000
0001
0100
0001
0000
,
1000
0000
0000
0000
0010
1000
0010
0000
,
0100
0000
0000
0000
0001
0010
0001
0000
,
0010
0000
0100
1001
,
1000
1000
1000
1000
,
0100
0010
0100
0000
1000
0010
1000
0000
,
0001
0001
0001
0001
,
0200
0300
0002
0003
1000
0001
0000
0000
,
0001
0001
0001
0001
,
0010
0001
0100
0000
0010
0100
0010
0000
,
1000
1000
1000
1000
,
0002
0003
2000
3000
0100
0010
0000
0000
,
1100
1000
0001
0001
,
0101
0100
0010
0010
,
1000
0000
0001
1000
0001
0000
0100
0000
,
0110
1000
0001
1000
,
1100
0100
0010
0010
,
0001
0100
0001
0010
,
0011
0001
0100
0100
,
0020
0030
2000
3000
0002
0003
0200
0300
,
0010
0000
0000
0010
0000
0000
0010
0000
0000
0000
0000
0000
0000
0000
0000
0000
,
0100
0000
0000
0100
0000
0000
0100
0000
0000
0000
0000
0000
0000
0000
0000
0000
,
0001
0000
0000
0001
0000
0000
0001
0000
0000
0000
0000
0000
0000
0000
0000
0000
,
1000
0001
1000
0001
1000
0001
1000
0001
,
0200
0000
0000
0300
,
0020
0000
0000
0030
,
2000
0000
0000
3000
,
0001
1000
0001
1000
0001
1000
0001
0000
,
0101
0001
1000
1000
,
1100
0100
0010
0010
,
0001
0000
1000
0001
1000
0000
0100
0000
,
0110
0001
1000
0001
,
0101
0100
0010
0010
,
1000
0100
1000
0010
,
1010
1000
0100
0100
,
0020
0030
0002
0003
2000
3000
0200
0300
,
0010
0000
0000
0000
;

//---------------dance-single - ----------------
#NOTEDATA:;
#CHARTNAME:;
#STEPSTYPE:dance-single;
#DESCRIPTION:;
#CHARTSTYLE:;
#DIFFICULTY:Easy;
#METER:3;
#RADARVALUES:0.158956,0.226278,0.093503,0.037401,0.000000,119.000000,109.000000,10.000000,4.000000,0.000000,0.000000,0.000000,0.000000,0.000000,0.158956,0.226278,0.093503,0.037401,0.000000,119.000000,109.000000,10.000000,4.000000,0.000000,0.000000,0.000000,0.000000,0.000000;
#CREDIT:;
#DISPLAYBPM:107.000000;
#NOTES:
0000
0000
0000
0000
,
0000
0000
0000
0000
,
0000
0000
0000
0000
,
0000
0000
0000
0000
,
1000
0000
1000
0000
,
0001
0000
0001
0000
,
0100
0000
0100
0000
,
0010
0000
0010
0000
,
1000
0000
0001
0000
,
1000
0000
0100
0000
,
0010
0000
0001
0000
,
1000
0000
0001
0000
,
0100
0100
0100
0100
,
0010
0000
1001
0000
,
0001
0001
0001
0001
,
1000
0100
0010
0000
,
0001
1000
1000
0001
,
0100
0010
1001
0000
,
0001
0000
0001
0000
,
0100
0010
0100
0000
,
1000
1000
1000
1001
,
0001
0001
0001
1001
,
0100
0000
0100
0000
,
0010
0000
0010
0000
,
0100
0100
0100
1001
,
0010
0010
0010
1001
,
0001
0100
0001
0100
,
0010
1000
0100
1000
,
0002
0000
0000
0003
,
2000
0000
0000
3000
,
0002
0000
0000
0003
,
0200
0000
0000
0300
,
0010
0000
0000
0010
,
0010
0000
0000
0100
,
0100
0000
0000
0000
,
0001
0001
0001
0001
,
0100
0100
0100
0110
,
1000
1000
1000
1001
,
0001
0000
0001
0000
,
0100
0000
0010
0000
,
1000
1000
1000
1001
,
0010
0010
0010
0110
,
0100
0000
0100
0000
,
0001
0100
0010
1000
,
0100
0000
0000
0000
;

//---------------dance-single - ----------------
#NOTEDATA:;
#CHARTNAME:;
#STEPSTYPE:dance-single;
#DESCRIPTION:;
#CHARTSTYLE:;
#DIFFICULTY:Beginner;
#METER:1;
#RADARVALUES:0.100182,0.164566,0.037401,0.000000,0.000000,75.000000,71.000000,4.000000,0.000000,0.000000,0.000000,0.000000,0.000000,0.000000,0.100182,0.164566,0.037401,0.000000,0.000000,75.000000,71.000000,4.000000,0.000000,0.000000,0.000000,0.000000,0.000000,0.000000;
#CREDIT:;
#DISPLAYBPM:107.000000;
#NOTES:
0000
0000
0000
0000
,
0000
0000
0000
0000
,
0000
0000
0000
0000
,
0000
0000
0000
0000
,
0001
0000
0000
0000
,
1000
0000
0000
0000
,
0001
0000
0000
0000
,
1000
0000
0000
0000
,
0100
0000
0000
0000
,
0010
0000
0000
0000
,
0100
0000
0000
0000
,
0010
0000
0000
0000
,
0001
0000
0001
0000
,
0001
0000
0001
0000
,
1000
0000
1000
0000
,
1000
0000
1000
0000
,
0010
0000
0010
0000
,
0010
0000
0010
0000
,
0100
0000
0100
0000
,
0100
0000
0100
0000
,
1001
0000
0001
0000
,
0001
0000
0001
0000
,
1001
0000
1000
0000
,
1000
0000
1000
0000
,
0100
0000
0100
0000
,
0010
0000
0010
0000
,
0001
0000
0001
0000
,
1000
0000
1000
0000
,
0001
0000
0000
0000
,
1000
0000
0000
0000
,
0001
0000
0000
0000
,
0100
0100
0100
0100
,
0010
0000
0000
0000
,
0010
0000
0000
0000
,
0010
0000
0000
0000
,
0100
0100
0100
0100
,
1001
0000
1000
0000
,
1000
0000
1000
0000
,
1001
0000
0001
0000
,
0001
0000
0001
0000
,
0100
0000
0100
0000
,
0010
0000
0010
0000
,
1000
0000
1000
0000
,
0001
0000
0001
0000
,
0100
0000
0000
0000
;

//---------------dance-double - ----------------
#NOTEDATA:;
#CHARTNAME:;
#STEPSTYPE:dance-double;
#DESCRIPTION:;
#CHARTSTYLE:;
#DIFFICULTY:Easy;
#METER:3;
#RADARVALUES:0.110868,0.185137,0.056102,0.009350,0.000000,83.000000,77.000000,6.000000,1.000000,0.000000,0.000000,0.000000,0.000000,0.000000,0.110868,0.185137,0.056102,0.009350,0.000000,83.000000,77.000000,6.000000,1.000000,0.000000,0.000000,0.000000,0.000000,0.000000;
#CREDIT:;
#DISPLAYBPM:107.000000;
#NOTES:
00000000
00000000
00000000
00000000
,
00000000
00000000
00000000
00000000
,
00000000
00000000
00000000
00000000
,
00000000
00000000
00000000
00000000
,
01000000
00000000
00000000
00000000
,
00010000
00000000
00000000
00000000
,
00001000
00000000
00000000
00000000
,
00000100
00000000
00000000
00000000
,
00000001
00000000
00000000
00000000
,
00000010
00000000
00000000
00000000
,
00001000
00000000
00000000
00000000
,
00010000
00000000
00000000
00000000
,
01000000
00000000
01000000
00000000
,
01000000
00000000
01000000
00000000
,
10000000
00000000
10000000
00000000
,
10000000
00010000
10010000
00000000
,
00010000
00000000
00010000
00000000
,
00001000
00000000
00001000
00000000
,
00000100
00000000
00000100
00000000
,
00000010
00000010
00000110
00000000
,
00000001
00000000
00000001
00000000
,
00000100
00000000
00000100
00000000
,
00001000
00000000
00001000
00000000
,
00010000
00000000
00010000
00000000
,
00100000
00000000
00100000
00000000
,
10000000
00000000
10000000
00000000
,
01000000
00000000
01000000
00000000
,
00010000
00010000
00010000
00010000
,
00011000
00000000
00000000
00000000
,
01100000
00000000
00000000
00000000
,
10010000
00000000
00000000
00000000
,
02000000
00000000
00000000
00000000
,
03100000
00000000
00000000
00000000
,
00001000
00000000
00000000
00000000
,
00010000
00000000
00000000
00000000
,
00000100
00000100
00000100
00000100
,
00000010
00000000
00000010
00000000
,
00000001
00000000
00000001
00000000
,
00001000
00000000
00001000
00000000
,
00000100
00000000
00000100
00000000
,
00010000
00010000
00010000
00000000
,
00001000
00001000
00001000
00000000
,
01000000
01000000
01000000
00000000
,
00100000
00100000
00100000
00100000
,
10010000
00000000
00000000
00000000
;

//---------------dance-double - ----------------
#NOTEDATA:;
#CHARTNAME:;
#STEPSTYPE:dance-double;
#DESCRIPTION:;
#CHARTSTYLE:;
#DIFFICULTY:Medium;
#METER:7;
#RADARVALUES:0.248452,0.287990,0.149605,0.158956,0.000000,186.000000,170.000000,16.000000,17.000000,0.000000,0.000000,0.000000,0.000000,0.000000,0.248452,0.287990,0.149605,0.158956,0.000000,186.000000,170.000000,16.000000,17.000000,0.000000,0.000000,0.000000,0.000000,0.000000;
#CREDIT:;
#DISPLAYBPM:107.000000;
#NOTES:
00000000
00000000
00000000
00000000
,
00000000
00000000
00000000
00000000
,
00000000
00000000
00000000
00000000
,
00000000
00000000
00000000
00000000
,
00000010
00000000
00000000
00000001
00000100
00000000
00000000
00000000
,
00000100
00000100
00001010
00000000
,
00000100
00000000
00000000
00000100
00001000
00000000
00000000
00000000
,
00010000
00010000
00110000
00000000
,
00100000
00000000
00000000
10000000
00010000
00000000
00000000
00000000
,
00100000
00100000
11000000
00000000
,
00010000
00000000
00000000
00010000
00001000
00000000
00000000
00000000
,
00000010
00000010
00001100
00000001
,
00000100
00001000
00010000
00100000
,
00010000
00001000
00010000
00001000
00010000
00000000
00010000
00000000
,
01000000
10000000
01000000
00000000
00100000
00010000
00100000
00000000
,
00002000
00003000
00020000
00030000
00002000
00013000
00000000
00000000
,
01000000
00010000
00001000
00000010
,
00001000
00010000
00001000
00010000
00001000
00000000
00001000
00000000
,
00000100
00000001
00000100
00000000
00000010
00001000
00000010
00000000
,
00020000
00030000
00002000
00003000
00020000
00031000
00000000
00000000
,
00001000
00000000
00001100
00000000
00000001
00000000
00001000
00000001
,
00001000
00000000
00000100
00000000
00001100
00000000
00001000
00000010
,
00001000
00000000
00000100
00010000
00001000
00000000
00010000
00000000
,
00001000
00001000
00010000
00011000
,
00010000
00000000
01010000
00000000
10000000
00000000
00010000
10000000
,
00010000
00000000
01000000
00000000
01010000
00000000
00010000
00100000
,
00010000
00000000
01000000
00001000
00010000
00000000
00001000
00000000
,
00200000
00300000
00002000
00003000
00020000
00030000
00000200
00000300
,
00000020
00000000
00000000
00000130
00000000
00000000
00000000
00000000
,
00000002
00000000
00000000
00000103
00000000
00000000
00000000
00000000
,
00002000
00000000
00000000
00013000
00000000
00000000
00000000
00000000
,
00100000
01000000
00100000
01000000
00100000
01000000
00100000
01000000
,
00100000
00000000
00000000
10010000
00000000
00000000
00000000
00000000
,
01000000
00000000
00000000
01100000
00000000
00000000
00000000
00000000
,
00001000
00000000
00001000
00000000
,
00010000
00000100
00010000
00001000
00010000
00000100
00010000
00000000
,
00000010
00000000
00001010
00000000
00000100
00000001
00000100
00000000
,
00001000
00000000
00010000
00000000
00110000
00000000
00100000
10000000
,
00100000
00000000
01000000
00010000
01000000
00000000
00100000
10000000
,
00010000
00010000
10000000
10010000
,
00100000
00000000
00110000
00000000
01000000
10000000
01000000
00000000
,
00010000
00000000
00001000
00000000
00001010
00000000
00000010
00000001
,
00000010
00000000
00000100
00000000
00001000
00000000
00000001
00000100
,
00002000
00003000
00020000
00030000
00002000
00003000
00000200
00000300
,
00000010
00000000
00000000
00000000
;

//---------------dance-double - ----------------
#NOTEDATA:;
#CHARTNAME:;
#STEPSTYPE:dance-double;
#DESCRIPTION:;
#CHARTSTYLE:;
#DIFFICULTY:Hard;
#METER:10;
#RADARVALUES:0.317912,0.308561,0.224408,0.149605,0.042077,238.000000,214.000000,24.000000,16.000000,0.000000,0.000000,0.000000,0.000000,0.000000,0.317912,0.308561,0.224408,0.149605,0.042077,238.000000,214.000000,24.000000,16.000000,0.000000,0.000000,0.000000,0.000000,0.000000;
#CREDIT:;
#DISPLAYBPM:107.000000;
#NOTES:
00000000
00000000
00000000
00000000
,
00000000
00000000
00000000
00000000
,
00000000
00000000
00000000
00000000
,
00000000
00000000
00000000
00000000
,
10000000
01000000
00100000
00000000
00010000
00000000
01010000
00000000
,
01000000
00000000
00000000
00001000
00000000
00000000
00010000
00000000
00000010
00000000
00000000
00000000
00001000
00000001
00001000
00000000
,
00000100
00000000
00000010
00000001
00000100
00000000
00000001
00000100
,
00000010
00000000
00000000
00010000
00000000
00000000
00001000
00000000
01000000
00000000
00000000
00000000
01100000
00000000
00000000
00000000
,
00100000
10000000
01000000
00000000
10000000
00010000
01000000
00100000
,
10000000
01000000
10000000
00000000
00010000
00100000
00010000
00000000
,
00100000
00001000
00010000
00000000
00001000
00010000
00000010
00001000
,
00000100
00001000
00000001
00000100
00000010
00000000
00000110
00000000
,
00000010
00000000
00001010
00000000
00001000
00000001
00001000
00000000
,
00000001
00000100
00001000
00010000
00001000
00000000
00010000
01000000
,
10000000
00010000
10000000
00000000
00100000
10000000
00100000
00000000
,
10000000
00100000
00010000
00001000
00000200
00000020
00000330
00000000
,
00001000
00000000
00001100
00000000
00001000
00000100
00000010
00000000
,
00001000
00010000
01000000
10000000
00100000
10000000
01000000
00000000
,
10000000
00100000
00010000
00000000
00100000
01000000
00010000
00000000
,
00001000
00000010
00000001
00001000
00000200
00000020
00000330
00000000
,
00000001
00000011
00000100
00001100
,
00001000
00011000
00010000
00110000
,
00100000
10000000
01000000
00000000
00010000
00001000
00000010
00000000
,
00000001
00000100
00001000
00010000
00100000
01000000
00010000
00000000
,
10000000
10100000
01000000
01010000
,
00010000
00000000
00011000
00000000
00001000
00000000
00001010
00000010
,
00000001
00000000
00000100
00000001
00000100
00000000
00001000
00000000
,
00020000
00030000
00002000
00003000
00000200
00000300
00000020
00000030
,
00001000
00000000
00000000
00001000
00000000
00000000
00000101
00000000
00000000
00000000
00000000
00000000
00000001
00000000
00000010
00000000
,
00000100
00000000
00000000
00000100
00000000
00000000
00001100
00000000
00000000
00000000
00000000
00000000
00000000
00000000
00000000
00000000
,
00010000
00000000
00000000
00010000
00000000
00000000
00011000
00000000
00000000
00000000
00000000
00000000
01000000
00000000
00000000
00000000
,
10000000
01000000
10000000
01000000
10000000
01000000
10000000
01000000
,
00100000
00000000
00100000
00000000
00000000
00100000
00000000
00000000
00000000
00000000
00000000
00000000
00000000
00000000
00000000
00000000
,
01000000
00000000
00000000
10000000
00000000
00000000
10010000
00000000
00000000
00000000
00000000
00000000
00000000
00000000
00000000
00000000
,
00010000
00000000
00000000
00010000
00000000
00000000
00010000
00000000
00000000
00000000
00000000
00000000
00000000
00000000
00000000
00000000
,
20000000
30100000
00020000
00130000
20000000
30100000
00020000
00030000
,
00001000
00000000
00011000
00000000
00010000
01000000
10000000
00000000
,
10000000
00000000
00110000
00000000
00010000
00000000
00100000
00001000
,
00010000
00000000
00001000
00010000
00000010
00000000
00000100
00000001
,
00000100
00000010
00000100
00001000
00000100
00000001
00001000
00000000
,
00000001
00000101
00000100
00000110
,
00001000
00000000
00011000
00000000
00100000
00000000
01100000
01000000
,
01000000
00000000
10000000
00010000
10000000
00000000
01010000
00000000
,
00200000
00300000
00020000
00030000
00002000
00003000
00000200
00000300
,
00000010
00000000
00000000
00000000
;

//---------------dance-double - ----------------
#NOTEDATA:;
#CHARTNAME:;
#STEPSTYPE:dance-double;
#DESCRIPTION:;
#CHARTSTYLE:;
#DIFFICULTY:Challenge;
#METER:12;
#RADARVALUES:0.443473,0.514269,0.271160,0.149605,0.252459,332.000000,303.000000,29.000000,16.000000,0.000000,0.000000,0.000000,0.000000,0.000000,0.443473,0.514269,0.271160,0.149605,0.252459,332.000000,303.000000,29.000000,16.000000,0.000000,0.000000,0.000000,0.000000,0.000000;
#CREDIT:;
#DISPLAYBPM:107.000000;
#NOTES:
00000000
00000000
00000000
00000000
,
00000000
00000000
00000000
00000000
,
00000000
00000000
00000000
00000000
,
00000000
00000000
00000000
00000000
00000000
00000000
00000000
00000000
00000000
00000000
00000000
00000000
00000001
00000100
00000010
00001000
,
00000100
00000100
00000100
00001000
00001100
00000000
00000100
00010000
,
00001000
00010000
00000000
00010000
01000000
00000000
00100000
00000000
01100000
00000000
00000000
00000000
00100000
00010000
00100000
00000000
,
01000000
00000000
10000000
00010000
10010000
00000000
01000000
00100000
,
00010000
00001000
00000000
00001000
00000100
00000000
00000010
00000000
00000010
00001000
00000001
00000100
00000000
00000100
00000000
00000000
,
00001000
00000000
00010000
00001000
00000000
00001000
01000000
00000000
00010000
00000000
10000000
00000000
00100000
00000000
00010000
00000000
,
00100000
00000000
01000000
00001000
00000000
00010000
00000010
00000000
00000100
00000000
00000000
00000000
00000101
00000000
00000001
00000000
,
00000100
00000000
00000000
00000000
00000010
00001000
00000010
00000000
00000100
00000000
00000000
00000000
00001000
00000000
00010000
00000000
,
00100000
10000000
00000000
00010000
01000000
00000000
00100000
00000000
10000000
01000000
00100000
00010000
00000000
01000000
00000000
00000000
,
11000000
01000000
00100000
00010000
00100000
01000000
00010000
00001000
,
00011000
00001000
00000100
00000001
00000010
00000001
00001000
00000001
,
00000100
00000001
00000000
00000001
00000010
00000000
00000100
00000000
00000100
00001000
00000000
00001000
00000010
00000000
00000100
00000000
,
00002000
00003000
00020000
00030000
00200000
20000000
30300000
00000000
,
01010000
00010000
00100000
00001000
00010000
00000100
00010000
00001000
,
00011000
00001000
00000100
00000010
00001000
00000001
00000100
00001000
,
00010000
00001000
00000000
00001000
01000000
00000000
00010000
00000000
10000000
00100000
00000000
01000000
00010000
00000000
00100000
00000000
,
02000000
03000000
00020000
00030000
00002000
00000020
00003030
00000000
,
00000010
00000001
00000100
00000001
00001000
00000100
00010000
00001000
,
00100000
00010000
01000000
10000000
01000000
00100000
10000000
01000000
,
00110000
00000000
00010000
01000000
10100000
00000000
10000000
01000000
,
00010000
00000000
00001000
00000000
00000100
00000000
00001000
00000000
00010000
00100000
01000000
00010000
00000000
10000000
00000000
00000000
,
00100000
10000000
01000000
10000000
00010000
01000000
00001000
00010000
,
00000010
00001000
00000100
00000001
00000100
00000010
00000001
00000100
,
00001010
00000000
00000001
00000100
00001000
00000000
00001000
00010000
,
00002000
00003000
00020000
00030000
02000000
03000000
20000000
30000000
,
00100000
01000000
00010000
10000000
00000000
00010000
01000000
00000000
00000000
00000000
00000000
00000000
00100000
00001000
00010000
00001000
,
00000100
00000010
00001000
00000001
00000000
00001000
00000001
00000000
00000000
00000000
00000000
00000000
00000000
00000000
00000000
00000000
,
00000010
00000100
00001000
00000001
00000000
00001000
00000100
00000000
00000000
00000000
00000000
00000000
00000000
00000000
00000000
00000000
,
00010100
00010100
00010100
00010100
00010100
00010100
00010100
00010100
,
00010000
00000000
00001000
00000000
00000000
00011000
00000000
00000000
00000000
00000000
00000000
00000000
00010000
01000000
00100000
00010000
,
10000000
00000000
00000000
10010000
00000000
00000000
01010000
00000000
00000000
00000000
00000000
00000000
10000000
01000000
00010000
00001000
,
00010000
00000000
00000000
00001000
00000000
00000000
00011000
00000000
00000000
00001100
00000000
00000000
00000000
00000000
00000100
00000000
,
00000110
00000010
00001000
00000001
00000100
00000001
00001001
00000000
,
00000001
00001000
00000100
00010000
00001000
00100000
01000000
10000000
,
00010000
01000000
00001000
00010000
00000010
00000100
00000001
00000100
,
00001000
00000000
00010000
00100000
10000000
00000000
00010000
10000000
,
00010000
01000000
00100000
01000000
00100000
10000000
00010000
00000000
,
00100000
10000000
00100000
00000000
01000000
00000000
00010000
00000000
00001000
00000000
00000010
00000000
00000100
00000000
00000001
00000000
,
00000010
00000001
00000010
00000000
00000100
00000000
00001000
00000000
00010000
00000000
00100000
00000000
00010000
00000000
01000000
00000000
,
01010000
00000000
00000000
00000000
00100000
10000000
00100000
00000000
11000000
00000000
00000000
00000000
00100000
00010000
00100000
00000000
,
00020000
00030000
00002000
00003000
00000200
00000300
00000020
00000030
,
00001001
00000000
00000000
00000000
;
