#TITLE:Far East Princess;
#SUBTITLE:;
#ARTIST:Nauts;
#TITLETRANSLIT:;
#SUBTITLETRANSLIT:;
#ARTISTTRANSLIT:;
#GENRE:;
#CREDIT:;
#BANNER:AV.avi;
#BACKGROUND:;
#LYRICSPATH:;
#CDTITLE:;
#MUSIC:Far East Princess.mp3;
#OFFSET:0.160000;
#SAMPLESTART:85.000000;
#SAMPLELENGTH:15.000000;
#SELECTABLE:YES;
#BPMS:0.000000=102.010002
,121.000000=25.503000
,124.000000=102.004997
,178.000000=25.500999
,179.000000=102.022003
,193.000000=51.011002
,196.000000=102.022003
;
#STOPS:
;
#BGCHANGES:0.000=far.avi=0.800=1=1=1=StretchRewind==CrossFade==,
1.000=far.avi=1.000=0=0=1=====,
99999=-nosongbg-=1.000=0=0=0 // don't automatically add -songbackground-
;
#KEYSOUNDS:;
#ATTACKS:;

//---------------dance-single - ----------------
#NOTES:
     dance-single:
     :
     Challenge:
     15:
     0.818373,1.029449,1.553885,0.100251,0.798425,800.000000,582.000000,217.000000,14.000000,0.000000,4.000000,0.818373,1.029449,1.553885,0.100251,0.798425,800.000000,582.000000,217.000000,14.000000,0.000000,4.000000:
0000
0000
0000
0000
,
0000
0000
0000
0000
,
0000
0000
0000
0000
,
0000
0000
0000
0000
,
0000
0000
0000
0000
,
0000
0000
0000
0000
,
0000
0000
1100
0001
0001
0110
1000
1000
,
0011
0100
0100
1010
0001
0001
1100
0010
,
0010
1100
0001
0001
0110
1000
1000
0011
,
0100
0100
1001
0010
0010
1100
0001
0001
,
0110
1000
1000
0011
0100
0100
0011
1000
,
1000
0000
0110
0000
0001
0000
0001
0000
1100
0000
0100
0001
0010
0100
1000
0100
,
0010
0001
1000
0100
1001
0000
0100
1000
0100
0011
1100
0000
0001
0010
0001
0110
,
1100
0000
0000
0000
0010
0000
0001
0100
0010
0000
1001
0000
0110
0000
0000
0000
1001
0000
0000
0000
1001
0000
0000
0000
1010
0000
0000
0000
0010
0000
0100
0000
,
0010
0000
1100
0000
0011
0000
0000
0000
0100
0000
0010
0000
0100
0000
0011
0000
1100
0000
0000
0000
1000
0000
0001
0010
1000
0000
0110
0000
1100
0000
0000
0000
,
0110
0000
1010
0000
1001
0000
0010
0100
0010
0101
1100
0000
0100
1000
0100
0011
,
0110
0000
0001
1000
0001
0110
0011
0000
0110
0000
1001
0000
1001
0000
0100
1000
,
0100
0011
1100
0000
0100
0001
0100
1001
0110
0000
1000
0100
1000
0110
0011
0000
,
1100
0000
0110
0000
1001
0000
0100
1000
0001
0110
1001
0000
0100
1000
0010
1001
,
1001
0000
0101
0000
1010
0110
1001
0000
0010
0000
1100
0000
1100
0000
0100
0001
,
0010
1100
0110
0000
0001
1000
0010
1100
0011
0000
1100
0000
1001
0110
0101
0000
,
1100
0000
0011
1100
0011
0000
1000
0001
0100
1010
1100
0000
0001
0100
0010
1100
,
0110
0000
1001
0000
0110
1100
0011
0000
0100
0000
1001
0000
1001
0000
0100
0000
,
0010
1001
0110
0000
0001
0000
0001
1000
0011
0000
1000
0100
0010
0001
0010
0100
,
1000
0100
0011
1100
0011
0000
1000
0100
1000
0000
0001
0000
0100
0010
0100
0000
,
1100
0000
0011
0000
1100
0000
0110
0000
0001
0010
1000
0100
1000
0000
0100
0010
,
0100
0000
0001
0000
1000
0001
1000
0000
0011
0000
0110
1000
0100
0010
1001
0000
,
0101
0000
0011
1100
0110
0000
0001
1000
0001
0000
0110
0000
1001
0000
0011
0000
,
1100
0000
0101
0000
1010
0000
0110
0000
1000
0010
2000
0000
3002
0000
0103
0010
,
0200
0000
2300
0000
3001
0010
0102
0000
1203
0000
0312
1000
0123
1000
0230
0001
,
0310
0000
0100
0000
1000
0000
0100
0000
0011
0000
0000
1100
0000
0000
0110
0001
0010
0101
0000
0000
1001
0000
0100
0011
0000
0001
1020
0100
1000
0001
0130
0001
,
1000
0000
0100
0010
0100
1001
0010
0000
0100
0010
1000
0101
0011
0000
1000
0100
,
1000
0011
0101
0000
0001
0000
1010
0100
1010
0000
0100
0010
1000
0101
0010
0000
,
1000
0000
0100
0000
1000
0000
0011
0000
0110
0000
1000
0000
0100
0000
0010
0000
0100
0000
0001
0010
0001
0100
0010
1000
0001
0000
1010
0000
0101
0000
1010
0000
,
0101
0000
0000
0000
0010
0000
1000
0000
0100
0000
0011
0000
1001
0000
0000
0000
0010
0000
0100
0000
0010
0000
1001
0000
1100
0000
0000
0000
0010
0000
0001
0010
,
1000
0101
0011
0000
0110
0000
0110
0000
1100
0000
1000
0001
0100
1000
0100
0000
,
0101
0000
0000
0000
1010
0000
0000
0000
0110
0000
0000
0000
1000
0000
0001
0010
0100
0000
1000
0000
0100
0000
0010
0000
0100
0000
0010
0000
1001
0000
1010
0000
,
0101
0000
1000
0001
0100
0011
1100
0000
0100
0001
0010
1100
0110
0000
0001
1000
,
0010
0101
0011
0000
1100
0000
0110
0000
0011
0000
0000
0110
0000
0000
0101
0000
,
1000
0110
0000
0010
1002
0100
0010
0100
1000
0100
0010
0100
0010
0100
1003
0100
,
1010
0000
0000
0000
0100
0000
0001
0000
1000
0000
0110
0000
1100
0000
0000
0000
0100
0000
0001
0000
0010
0000
1100
0000
0110
0000
0000
0000
0001
0000
0010
0100
,
0010
1001
0011
0000
1100
0000
0110
0000
1100
0000
0100
0010
0001
0010
0100
0000
,
1100
0000
0110
0000
0011
0000
1100
0011
0100
1010
0101
0010
1000
0100
0010
0001
,
1010
0000
0000
0000
0100
0000
1000
0001
0010
0000
0100
0010
0100
0000
0000
0000
1000
0000
0010
0000
0100
0000
0001
0000
1010
0000
0000
0000
0100
0000
0001
0000
,
0010
0000
1000
0000
0110
0000
0001
0000
1010
0000
0100
0000
0011
0000
1000
0000
0011
0100
0010
0101
1000
0010
1001
0011
1100
0000
0011
0000
1100
0000
0010
0000
,
1000
0100
0010
0000
0001
0010
0100
0000
1001
0000
0000
0000
0100
0000
0001
0000
0010
0000
0100
1000
0110
0000
0000
0000
1000
0000
0001
0000
0110
0000
1001
0000
,
0110
0000
0000
0000
0010
0000
0001
0000
0010
0000
0101
0000
1100
0000
0000
0000
0001
0000
1000
0100
0010
0000
0001
1000
0110
0000
0000
0000
1000
0010
0001
0000
,
0100
0000
1001
0000
1100
0000
0000
0000
0100
0000
1000
0000
0010
0000
0101
0000
0110
0000
0000
0000
0001
0000
1000
0000
0010
0000
0100
0000
0001
0010
0001
0010
,
0001
0010
0100
0010
0100
1000
0100
1000
0101
0000
0000
0000
0000
0000
0110
0000
0000
0000
0000
0000
1001
0000
0000
0000
0000
0000
0110
0000
0000
0000
0100
0000
,
0110
0000
0010
0000
0010
0000
0011
0000
0001
0000
0001
0000
1010
0100
0010
0100
,
0010
0000
0100
0000
0011
0000
1000
0000
0001
0000
1000
0000
0001
0000
1000
0000
0011
0000
0000
0000
0100
0000
0010
0000
1000
0000
0001
0010
0101
0000
1000
0000
,
0010
0000
0100
0000
1000
0000
0100
0001
1010
0000
0000
0000
1000
0100
0010
0001
0010
0100
1000
0100
0011
0000
1000
0000
0011
0000
1000
0000
0011
0000
1000
0000
,
0001
0000
0000
2202
0000
0000
0000
0000
,
0000
0000
0000
0000
,
3003
0300
0000
0000
;

//---------------dance-single - Copied from----------------
#NOTES:
     dance-single:
     Copied from:
     Hard:
     11:
     0.397934,0.462406,0.214823,0.057286,0.200501,389.000000,359.000000,30.000000,8.000000,0.000000,0.000000,0.397934,0.462406,0.214823,0.057286,0.200501,389.000000,359.000000,30.000000,8.000000,0.000000,0.000000:
// measure 0
0000
0000
0000
0000
,  // measure 1
0000
0000
0000
0000
,  // measure 2
0000
0000
0000
0000
,  // measure 3
0000
0000
0000
0000
,  // measure 4
0000
0000
0000
0000
,  // measure 5
0000
0000
0000
0000
,  // measure 6
0000
0000
0100
0100
0100
0100
0010
0010
,  // measure 7
0010
0010
0010
0110
0100
0100
1000
1000
,  // measure 8
1000
1100
0100
0100
0010
0010
0010
0010
,  // measure 9
0010
0010
0110
0100
0100
0100
0100
0100
,  // measure 10
0010
0010
0010
0001
0001
0001
0010
0010
,  // measure 11
0010
0000
0100
0000
0100
0000
0100
0000
0100
0000
0100
0001
0010
0100
1000
0100
,  // measure 12
0010
0001
0010
1000
0001
0000
1000
0001
1000
0000
0000
0000
0001
0100
0001
0000
,  // measure 13
0000
0000
0100
1000
0100
0000
0100
0000
0010
0000
0010
0000
0100
0000
1000
0100
,  // measure 14
1000
0000
0000
0000
0100
0010
0100
0000
0000
0000
0001
0100
0001
0000
0000
0000
,  // measure 15
1000
0000
1000
0000
0100
0000
0010
0001
0010
0000
0000
0000
0100
0010
0100
0000
,  // measure 16
0000
0000
0001
0100
0001
0000
0000
0000
1000
0000
1000
0000
0000
0000
0010
0100
,  // measure 17
0010
0000
0000
0000
0100
0010
0100
0000
0000
0000
0001
1000
0001
0000
0000
0000
,  // measure 18
0010
1000
0100
0100
0100
0010
0010
0010
,  // measure 19
1000
0001
1000
0001
0010
0010
0100
0010
,  // measure 20
0010
0001
1000
1000
0100
0001
0100
0010
,  // measure 21
0100
0100
0001
1000
1000
0001
1000
1000
,  // measure 22
0001
0100
0010
1000
0001
0001
0100
0010
,  // measure 23
0010
1000
0100
0100
0010
0100
0001
1000
,  // measure 24
0010
0100
1001
0100
0100
0110
0001
0001
,  // measure 25
1001
1000
0100
0110
0000
0000
0110
0001
,  // measure 26
0001
1001
1000
1000
1100
0100
0010
0110
,  // measure 27
0000
0000
1100
0100
0100
0110
0010
0010
,  // measure 28
0001
0010
0001
0011
0000
0100
0110
0000
,  // measure 29
1000
1001
0000
0100
0100
0010
0100
0010
,  // measure 30
0000
0000
0000
0000
0000
0000
0000
0000
0010
0000
0000
0100
0000
0000
0001
0010
0000
0100
0000
0000
0010
0000
0100
0001
0000
1000
0010
0000
0000
0100
0000
0000
,  // measure 31
0001
0000
0000
1000
0000
0000
0100
0010
,  // measure 32
0100
0010
0000
1000
0001
0000
0100
0010
,  // measure 33
0000
1000
0001
1000
0001
1000
0001
1000
,  // measure 34
1100
0100
0100
0110
0001
0010
0010
0001
,  // measure 35
0010
0002
0100
0103
1100
1000
0100
0110
,  // measure 36
0000
1001
0000
0000
0110
0000
0000
1000
0100
0010
0100
0100
0010
0100
0100
0010
,  // measure 37
0100
1000
1000
0001
1000
0001
0001
0100
,  // measure 38
0010
0000
1100
0000
1000
0000
0100
0000
1100
0000
0000
1100
0000
0000
0110
0000
,  // measure 39
0000
0110
0000
0000
2001
0000
0000
0000
0000
0000
0100
0000
0100
0000
0100
0000
,  // measure 40
3100
0010
0100
0010
0010
0100
0001
1000
,  // measure 41
0010
0200
0010
0310
0000
1000
0001
0100
,  // measure 42
0000
0010
0000
0000
2000
0000
0000
0000
0000
0000
0000
0000
0000
0000
0000
3000
,  // measure 43
0010
0001
0100
0002
1000
1003
0100
0010
,  // measure 44
0100
0000
0000
0000
0000
0000
0000
0000
0000
0000
0000
0000
0000
0000
0000
0000
0000
0000
0000
0000
0000
0000
0000
0000
0020
0000
0000
0000
0000
0000
0000
0000
0000
0000
0000
0000
0000
0000
0000
0000
0000
0000
0000
0000
0000
0000
0000
0000
1000
0000
0000
0000
0000
0000
0000
0000
0000
0000
0000
0000
0000
0030
0000
0000
0000
0000
0000
0000
0000
0000
0000
0000
0010
0000
0000
0000
0000
0000
0000
0000
0000
0000
0000
0000
0001
0000
0000
0000
0000
0000
0000
0000
0000
0000
0000
0000
0001
0000
0000
0000
0000
0000
0100
0000
0000
0000
0000
0000
0100
0000
0000
0000
0000
0000
0010
0000
0000
0000
0000
0000
0100
0000
0000
0000
0000
0000
0010
0000
0000
0000
0000
0000
1000
0000
0000
0000
0000
0000
0000
0000
0000
0000
0000
0000
0000
0000
0000
0000
0000
0000
0000
0000
0000
0000
0000
0000
0000
0000
0000
0000
0000
0000
0000
0000
0000
0000
0000
0000
0000
0000
0000
0000
0000
0000
0000
0000
0000
0000
0000
0000
0000
0000
0000
0000
0000
0000
0000
0000
0000
0000
0000
0000
,  // measure 45
0000
0000
0000
0000
1001
0000
0100
0010
0100
0000
0000
0000
1000
0001
1000
0000
,  // measure 46
0000
0000
0100
1000
0100
0000
0000
0000
0100
0000
0100
0000
0000
0000
0010
0100
,  // measure 47
0010
0000
0000
0000
0100
0010
0100
0000
0000
0000
0001
1000
0001
0000
0000
0000
,  // measure 48
0010
0000
0100
0000
1000
0000
0000
0100
0000
0000
0010
0000
0000
0100
0000
0001
,  // measure 49
1000
0010
0010
0100
0100
0100
0001
0001
,  // measure 50
0001
0010
0010
0010
1000
1000
1000
0001
,  // measure 51
0001
0000
0001
0000
0100
0010
1000
0001
0100
0010
1000
0001
0100
0010
1000
0001
,  // measure 52
0000
0000
0000
0220
0000
0000
0000
0000
,  // measure 53
0000
0000
0000
0000
0000
0000
0000
0000
0000
0000
0000
0000
0000
0330
0000
0000
;

//---------------dance-single - Copied from Copied f----------------
#NOTES:
     dance-single:
     Copied from Copied f:
     Medium:
     8:
     0.217892,0.289339,0.221984,0.128894,0.010741,213.000000,182.000000,31.000000,18.000000,0.000000,0.000000,0.217892,0.289339,0.221984,0.128894,0.010741,213.000000,182.000000,31.000000,18.000000,0.000000,0.000000:
0000
0000
0000
0000
,
0000
0000
0000
0000
,
0000
0000
0000
0000
,
0000
0000
0000
0000
,
0000
0000
0000
0000
,
0000
0000
0000
0000
,
0000
0000
1100
0000
0000
0110
0000
0000
,
0001
0001
1000
0001
0000
0000
1100
0000
,
0000
0110
0000
0000
0001
0001
1000
0001
,
0000
0000
1100
0000
0000
0110
0000
0000
,
0001
0001
1000
0001
0000
0000
1100
0000
,
0000
0110
0000
0000
0001
0001
0100
0001
,
0000
0000
2100
0000
0000
3100
0000
0000
,
0120
0000
0000
0130
0000
0000
1002
0000
,
0000
1003
0000
0000
2001
0000
0000
3001
,
0000
0000
0120
0000
0000
0130
0000
0000
,
2100
0000
0000
3100
0000
0000
0120
0000
,
0000
0130
0000
0000
1002
0000
0000
1003
,
0000
0000
1100
0000
0000
0110
0000
0000
,
0001
0001
1000
0001
0000
0000
0011
0000
,
0000
0110
0000
1000
1000
0100
1000
1000
,
0000
0000
1100
0000
0000
0110
0000
0000
,
0001
0001
1000
0001
0000
0000
1001
0000
,
0100
0100
0000
0010
0010
0000
0000
0000
,
0000
0000
1001
0000
0000
0110
0000
0000
,
1000
1000
0001
1000
0000
0000
1100
0000
,
0000
0011
0000
0000
0100
0010
0010
0100
,
0000
0000
0000
0000
0000
0101
0001
0001
,
1000
1000
0100
0100
0000
0010
0010
0000
,
0100
0010
0000
1000
1000
0001
1000
1000
,
0000
0000
0000
0000
,
1000
0000
0000
0100
0000
0100
1000
1000
,
0100
0010
0000
0000
0000
1000
1000
0100
,
0000
0001
0100
0000
0000
0000
0000
0000
,
0000
1000
1000
0100
0010
0010
0100
0001
,
1000
0002
1000
1003
0000
0100
0010
0100
,
0000
0100
0020
0000
0000
0130
0000
0000
,
0000
1000
1000
0001
0001
0100
0100
0010
,
0010
1000
0000
0100
1000
0000
0000
1000
,
0000
0000
0210
0000
0000
0010
0000
0000
,
0310
1000
1000
0001
0001
0100
0010
0100
,
0010
0200
0000
0000
0300
1000
1000
0001
,
0000
0000
0002
0000
0000
0100
0003
0000
,
1000
1000
1000
2000
0000
0000
3100
0100
,
0100
0200
0000
0000
0000
0000
0300
0000
,
0000
0000
0000
1000
0000
0000
0100
0000
,
0000
0010
0000
0000
0001
0001
0000
0100
,
0000
0000
1000
0000
0000
0100
0000
0000
,
1000
0000
1000
0000
0100
0000
0000
0010
0000
0000
0100
0000
0000
0010
0000
1000
,
1000
0000
0000
0100
0000
0000
0010
0000
,
0000
0001
0000
0000
2001
0000
0000
0001
,
0000
0000
0000
0000
0001
0000
0000
0000
0000
0000
0001
0000
0000
0000
0000
3000
,
0000
0000
0000
0220
0000
0000
0000
0000
,
0000
0000
0000
0000
0000
0000
0000
0330
;

//---------------dance-single - Copied from Copied f----------------
#NOTES:
     dance-single:
     Copied from Copied f:
     Easy:
     5:
     0.128894,0.192912,0.021482,0.121733,0.000000,126.000000,123.000000,3.000000,17.000000,0.000000,0.000000,0.128894,0.192912,0.021482,0.121733,0.000000,126.000000,123.000000,3.000000,17.000000,0.000000,0.000000:
0000
0000
0000
0000
,
0000
0000
0000
0000
,
0000
0000
0000
0000
,
0000
0000
0000
0000
,
0000
0000
0000
0000
,
0000
0000
0000
0000
,
0000
0000
1000
0000
0000
1000
0000
0000
,
1000
0000
0000
0001
,
0000
0001
0000
0000
0001
0000
0000
0000
,
0000
0000
0100
0000
0000
0100
0000
0000
,
0100
0000
0000
1000
,
0000
1000
0000
0000
1000
0000
0000
0000
,
0000
0000
0002
0000
0000
1003
0000
0000
,
2000
0000
0000
3001
0000
0000
0002
0000
,
0000
1003
0000
0000
2000
0000
0000
3001
,
0000
0000
0002
0000
0000
1003
0000
0000
,
0020
0000
0000
0130
0000
0000
0002
0000
,
0000
1003
0000
0000
2000
0000
0000
3001
,
0000
0000
1000
0000
0000
1000
0000
0000
,
0100
0100
0100
0100
0000
0000
0010
0000
,
0000
0010
0000
0000
0001
0001
0001
0001
,
0000
0000
1000
0000
0000
1000
0000
0000
,
0100
0100
0100
0100
0000
0000
0001
0000
,
0000
1000
0000
0000
0002
0000
0000
1003
,
0000
0000
1000
0000
0000
1000
0000
0000
,
0100
0100
0100
0100
0000
0000
0001
0000
,
0000
0001
0000
0000
1000
1000
1000
1000
,
0000
0000
0100
0000
0000
0100
0000
0000
,
0100
0000
0000
0100
0000
0000
0001
0000
,
0000
0001
0000
0000
1000
0000
0000
1000
,
0000
1001
0000
0000
,
1000
0000
0000
1000
0000
0000
0001
0000
,
0000
0001
0000
0000
0100
0000
0000
0100
,
0000
0002
0000
0000
,
1003
0000
0000
1000
0000
0000
0100
0000
,
0000
0100
0000
0000
0010
0000
0000
0010
,
0000
0000
0002
0000
0000
1003
0000
0000
,
1000
0000
0000
0100
0000
0000
1000
0000
,
0000
0010
0000
0000
0001
0000
0000
0001
,
0000
0002
0000
0000
,
1003
0000
0000
1000
0000
0000
0100
0000
,
0000
0100
0000
0000
0010
0000
0000
0010
,
0000
0000
0002
0000
0000
0000
0000
0003
,
1000
0000
0000
2000
0000
0000
3001
0000
,
0000
0002
0000
0000
1003
0000
0000
0000
,
0000
0000
1000
0000
0000
1000
0000
0000
,
0001
0000
0000
0001
0000
0000
0100
0000
,
0000
0100
0000
0000
0010
0000
0000
0010
,
0000
0001
0000
0000
,
1001
0000
0000
1000
0000
0000
1000
0000
,
0000
1000
0000
0000
1000
0000
0000
1000
,
0000
0000
1000
0000
0000
1000
0000
0000
,
0000
0000
0000
2002
0000
0000
0000
0000
,
0000
0000
0000
0000
0000
0000
0000
0000
0000
0000
0000
0000
0000
0000
0000
0000
0000
0000
0000
0000
0000
0000
0000
0000
0000
0000
0000
0000
0000
0000
0000
0000
0000
0000
0000
0000
0000
0000
0000
0000
0000
0000
0000
0000
0000
0000
0000
0000
0000
0000
0000
0000
0000
0000
0000
0000
0000
0000
0000
0000
0000
0000
0000
0000
0000
0000
0000
0000
0000
0000
0000
0000
0000
0000
0000
0000
0000
0000
0000
0000
0000
0000
0000
0000
0000
0000
0000
0000
0000
0000
0000
0000
0000
0000
0000
0000
0000
0000
0000
0000
0000
0000
0000
0000
0000
0000
0000
0000
0000
0000
0000
0000
0000
0000
0000
0000
0000
0000
0000
0000
0000
0000
0000
0000
0000
0000
0000
0000
0000
0000
0000
0000
0000
0000
0000
0000
0000
0000
0000
0000
0000
0000
0000
0000
0000
0000
0000
0000
0000
0000
0000
0000
0000
0000
0000
0000
0000
0000
0000
0000
0000
0000
0000
0000
0000
0000
0000
0000
0000
3003
0000
0000
0000
0000
0000
0000
0000
0000
0000
0000
0000
0000
0000
0000
0000
0000
0000
0000
0000
0000
0000
0000
;

//---------------dance-single - Copied from Copied f----------------
#NOTES:
     dance-single:
     Copied from Copied f:
     Beginner:
     3:
     0.114572,0.115747,0.000000,0.071608,0.000000,112.000000,112.000000,0.000000,10.000000,0.000000,0.000000,0.114572,0.115747,0.000000,0.071608,0.000000,112.000000,112.000000,0.000000,10.000000,0.000000,0.000000:
0000
0000
0000
0000
,
0000
0000
0000
0000
,
0000
0000
0000
0000
,
0000
0000
0000
0000
,
0000
0000
0000
0000
,
0000
0000
0000
0000
,
0000
0000
1000
0000
0000
1000
0000
0000
,
0001
0000
0000
1000
,
0000
1000
0000
0000
0001
0000
0000
0000
,
0000
0000
1000
0000
0000
1000
0000
0000
,
0001
0000
0000
0001
,
0000
0001
0000
0000
1000
0000
0000
0000
,
0000
0000
1000
0000
0000
0001
0000
0000
,
1000
0000
0000
0001
0000
0000
1000
0000
,
0000
0001
0000
0000
1000
0000
0000
0001
,
0000
0000
0100
0000
0000
0010
0000
0000
,
0100
0000
0000
0010
0000
0000
0001
0000
,
0000
1000
0000
0000
0001
0000
0000
1000
,
0000
0000
0001
0000
0000
0001
0000
0000
,
0100
0000
0000
0100
0000
0000
0010
0000
,
0000
0010
0000
0000
0001
0000
0000
0001
,
0000
0000
1000
0000
0000
1000
0000
0000
,
0001
0000
0000
0001
0000
0000
0100
0000
,
0000
0100
0000
0000
0020
0000
0000
0100
,
0030
0000
0001
0000
0000
0001
0000
0000
,
1000
0000
0000
1000
0000
0000
0001
0000
,
0000
0001
0000
0000
1000
0000
0000
1000
,
0000
0000
0100
0000
0000
0100
0000
0000
,
0001
0000
0000
0001
0000
0000
1000
0000
,
0000
0001
0000
0000
1000
0000
0000
1000
,
0000
0001
0000
0000
,
1000
0000
0000
1000
0000
0000
0001
0000
,
0000
0001
0000
0000
1000
0000
0000
1000
,
0000
0002
0000
0000
,
1003
0000
0000
1000
0000
0000
0001
0000
,
0000
1000
0000
0000
1000
0000
0000
0001
,
0000
0000
2000
0000
0000
3001
0000
0000
,
0001
0000
0000
1000
0000
0000
0001
0000
,
0000
0100
0000
0000
0010
0000
0000
0010
,
0000
0020
0000
0000
,
0130
0000
0000
1000
0000
0000
0001
0000
,
0000
0001
0000
0000
0001
0000
0000
1000
,
0000
0002
0000
0003
,
1000
0000
0000
1000
0000
0000
0001
0000
,
0000
0001
0000
0000
0000
0000
0000
0000
,
0000
0000
2000
0000
0000
3001
0000
0000
,
0002
0000
0000
1003
0000
0000
2000
0000
,
0000
3001
0000
0000
0200
0000
0000
0310
,
0000
0001
0000
0000
,
0001
0000
0000
0001
0000
0000
0001
0000
,
0000
0001
0000
0000
1000
0000
0000
1000
,
0000
0000
1000
0000
0000
0001
0000
0000
,
0000
0000
0000
0002
0000
0000
0000
0000
,
0000
0000
0000
0000
0000
0000
0000
0000
0000
0000
0000
0000
0000
0000
0000
0000
0000
0000
0000
0000
0000
0000
0000
0000
0000
0000
0000
0000
0000
0000
0000
0000
0000
0000
0000
0000
0000
0000
0000
0000
0000
0000
0000
0000
0000
0000
0000
0000
0000
0000
0000
0000
0000
0000
0000
0000
0000
0000
0000
0000
0000
0000
0000
0000
0000
0000
0000
0000
0000
0000
0000
0000
0000
0000
0000
0000
0000
0000
0000
0000
0000
0000
0000
0000
0000
0000
0000
0000
0000
0000
0000
0000
0000
0000
0000
0000
0000
0000
0000
0000
0000
0000
0000
0000
0000
0000
0000
0000
0000
0000
0000
0000
0000
0000
0000
0000
0000
0000
0000
0000
0000
0000
0000
0000
0000
0000
0000
0000
0000
0000
0000
0000
0000
0000
0000
0000
0000
0000
0000
0000
0000
0000
0000
0000
0000
0000
0000
0000
0000
0000
0000
0000
0000
0000
0000
0000
0000
0000
0000
0000
0000
0000
0000
0000
0000
0000
0000
0000
0000
0003
0000
0000
0000
0000
0000
0000
0000
0000
0000
0000
0000
0000
0000
0000
0000
0000
0000
0000
0000
0000
0000
0000
;
