#VERSION:0.83;
#TITLE:Falling In Love;
#SUBTITLE:;
#ARTIST:2NE1;
#TITLETRANSLIT:;
#SUBTITLETRANSLIT:;
#ARTISTTRANSLIT:;
#GENRE:;
#ORIGIN:;
#CREDIT:;
#BANNER:AV.avi;
#BACKGROUND:FIL-bg.png;
#PREVIEWVID:;
#JACKET:;
#CDIMAGE:;
#DISCIMAGE:;
#LYRICSPATH:;
#CDTITLE:;
#MUSIC:2NE1 - Falling In Love.mp3;
#OFFSET:-0.240000;
#SAMPLESTART:71.360001;
#SAMPLELENGTH:20.000000;
#SELECTABLE:YES;
#BPMS:0.000=176.000,
273.000=88.000,
305.000=176.000;
#STOPS:;
#DELAYS:;
#WARPS:;
#TIMESIGNATURES:0.000=4=4;
#TICKCOUNTS:0.000=4;
#COMBOS:0.000=1;
#SPEEDS:0.000=1.000=0.000=0;
#SCROLLS:0.000=1.000;
#FAKES:;
#LABELS:0.000=Song Start;
#BGCHANGES:0.000=FIL.avi=1.200=1=1=1=StretchRewind==CrossFade==,
2.500=FIL.avi=1.000=0=0=1=====,
99999=-nosongbg-=1.000=0=0=0 // don't automatically add -songbackground-
;
#KEYSOUNDS:;
#ATTACKS:
;

//---------------dance-single - ----------------
#NOTEDATA:;
#CHARTNAME:;
#STEPSTYPE:dance-single;
#DESCRIPTION:;
#CHARTSTYLE:;
#DIFFICULTY:Challenge;
#METER:15;
#RADARVALUES:0.643140,0.801581,0.387410,0.113551,0.177007,674.000000,616.000000,58.000000,17.000000,0.000000,0.000000,0.000000,0.000000,0.000000,0.643140,0.801581,0.387410,0.113551,0.177007,674.000000,616.000000,58.000000,17.000000,0.000000,0.000000,0.000000,0.000000,0.000000;
#CREDIT:;
#NOTES:
0000
0000
0000
0000
,
0000
0000
0000
0000
,
0000
1001
0000
1001
,
0000
0011
0000
0000
,
0000
0000
0100
0000
1000
0100
1010
0000
,
1000
0010
0100
0110
,
1000
0000
0010
0000
0010
0100
0011
0000
,
0010
0100
1002
0103
,
0101
0000
0010
0000
0010
0100
1001
0000
,
0001
1000
0001
0110
,
0010
0000
0001
0000
0001
0010
0110
0000
,
1000
0100
2010
3001
,
1001
0000
0001
0010
0001
0010
0011
0000
,
1000
0100
1000
0100
1000
0100
1100
0100
,
0100
0100
1000
0001
1000
0001
1001
0000
,
1001
0000
0001
1000
0001
1000
1001
0001
,
0001
0001
1001
0100
0010
0001
0110
0000
,
0001
0010
0100
1000
0010
0100
1001
1000
,
1000
1000
1001
0000
0000
0100
1100
0000
,
0110
0000
0000
0000
0000
0000
0101
0000
0000
1000
0001
0100
,
0010
0102
0000
0103
,
0010
0001
0100
0000
0010
0000
0001
0000
,
0010
0100
1000
0100
,
1000
0100
0010
0100
,
0001
2010
0001
0010
,
0001
0000
3010
0000
0001
0100
0010
0000
,
0100
1000
0100
0010
,
0100
0010
0010
0100
,
0010
0012
0010
0100
,
0010
0000
1003
0000
0010
0100
0001
0000
,
0010
0100
1000
0100
,
0010
1000
0100
0010
,
1000
0210
0001
0010
,
0001
0000
0310
0000
0100
0010
0001
0000
,
0000
0000
1001
0000
0000
0010
0110
0000
,
1100
0000
1001
0101
,
0000
0000
0001
0000
0001
0010
0100
0000
,
1000
0000
0100
0000
1000
0010
1000
0000
,
0100
0000
0001
0000
0001
0010
0100
0000
,
0010
1000
0102
0100
,
0103
0000
0001
0000
0001
0010
0100
0000
,
1000
0000
0100
0000
0001
0010
0001
0000
,
0010
0000
0100
0000
1000
0100
1000
0000
,
1000
0100
2010
0010
,
3010
0000
0001
0000
0001
0010
0100
0000
,
1000
0000
0100
0000
0010
0001
0100
0000
,
0010
0000
1000
0000
0100
0010
0100
0000
,
0001
0100
0102
0100
,
0100
0000
0103
0000
0001
0010
0001
0000
,
1000
0100
1000
0110
,
1000
0000
0001
0010
0001
0010
0100
1000
,
0001
0000
0010
0000
0100
0000
1000
0100
1000
0000
0100
0000
1001
0000
0000
0000
,
0101
0000
0000
0000
0001
0000
0100
0000
0010
0000
0100
0000
0100
0010
0100
0000
,
0010
0001
0010
0100
1000
0001
0010
0100
,
0001
0000
0100
0010
0100
0000
0001
0000
0100
0000
0001
0000
0010
0000
0100
0000
,
1000
0000
0010
0001
0010
0000
0010
0000
0100
0000
1000
0000
0001
0000
0100
0000
,
0010
0000
0001
0000
0010
0000
0100
0000
0010
0000
0001
0000
0001
0010
0001
0000
,
0010
0100
0010
0100
0001
0010
0100
1000
,
0100
0000
1000
0001
1000
0000
1000
0000
0010
0000
0100
0000
1000
0000
0001
0000
,
1000
0000
0001
1000
0001
0000
0010
0000
1000
0000
0010
0000
0100
0000
0100
0000
,
0100
0000
0100
0000
0001
0000
1000
0000
0001
0000
0100
0000
0100
0010
0100
0000
,
0100
0010
0100
0001
0010
0001
0100
0010
,
1000
0000
0001
0010
0100
0000
0010
0000
0001
0000
0010
0000
0001
0000
0100
0000
,
1000
0000
0001
0010
0100
0000
0010
0000
0100
0000
0010
0000
0010
0000
0010
0000
,
0010
0000
0010
0000
0001
0000
0010
0000
0001
0000
0010
0000
0001
0010
0001
0000
,
1000
0010
0100
1000
0001
0010
0100
1000
,
0001
0000
0010
0001
0010
0000
0000
0000
0000
0000
0101
0000
0011
0000
0000
0000
,
0110
0000
0000
0000
0000
0000
0001
0000
0000
0001
0010
0100
,
1000
0000
0000
0000
0000
0000
0000
0000
0000
0000
0000
0000
0001
0000
0000
0000
0100
0000
0000
0000
0000
0010
0000
0000
0100
0000
0000
0000
0000
0000
0001
0000
0000
0000
0000
0000
2002
0000
0000
0000
0000
0000
0003
0000
0000
0000
0000
0000
,
3001
0000
0001
0000
0010
0000
0100
0000
1000
0000
0100
0000
0010
0000
0001
0000
0010
0000
0000
0000
0100
0000
0000
0000
0001
0000
0000
0010
0000
0000
0000
0000
,
0100
0000
0000
0000
0010
0000
0000
0000
0000
0000
0000
0000
0001
0000
0000
0000
0010
0000
0000
0000
0000
0100
0000
0000
1000
0000
0000
0000
0000
0000
1001
0000
0000
0000
0000
0000
2010
0000
0000
0000
0000
0000
0000
0000
0000
0000
0000
0000
,
3001
0000
0000
0000
0000
0000
0000
0000
0000
0000
0000
0000
0000
0000
0000
0000
0010
0000
0000
0000
0000
0000
0000
0000
0000
0000
0000
0000
0000
0000
0000
0000
0000
0000
0000
0000
0001
0000
0000
0000
0000
0000
0000
0000
0000
0000
0000
0000
1000
0000
0000
0000
0000
0000
0000
0000
0000
0000
0000
0000
0000
0000
0000
0000
0010
0000
0000
0000
0000
0000
0000
0000
0000
0000
0000
0000
0000
0000
0000
0000
0000
0000
0000
0000
1000
0000
0000
0000
0000
0000
0000
0000
0000
0000
0000
0000
0100
0000
0000
0000
0000
0000
0000
0000
0000
0000
0000
0000
0000
0000
0000
0000
0000
0000
0000
0000
0000
0000
0000
0000
0010
0000
0000
0000
0000
0000
0000
0000
0000
0000
0000
0000
0000
0000
0000
0000
0000
0000
0000
0000
0000
0000
0000
0000
1000
0000
0000
0000
0000
0000
0000
0000
0000
0000
0000
0000
0000
0000
0000
0000
0000
0000
0110
0000
0000
0000
0000
0000
0000
0000
0000
0000
0000
0000
0000
0000
0000
0000
0000
0000
0000
0000
0000
0000
0000
0000
0000
0000
0000
0000
0000
0000
,
0001
0000
0000
0000
0000
0000
0000
0000
0000
0000
0000
0000
0000
0000
0000
0000
0000
0000
0110
0000
0000
0000
0000
0000
0000
0000
0000
0000
0000
0000
0000
0000
0000
0000
0000
0000
0000
0000
0000
0000
0000
0000
0000
0000
0000
0000
0000
0000
0001
0000
0000
0000
0000
0000
0000
0000
0000
0000
0000
0000
0000
0000
0000
0000
0010
0000
0000
0000
0000
0000
0000
0000
0000
0000
0000
0000
0000
0000
0000
0000
0100
0000
0000
0000
0000
0000
0000
0000
0000
0000
0000
0000
0000
0000
0000
0000
1000
0000
0000
0000
0000
0000
0000
0000
0000
0000
0000
0000
0000
0000
0000
0000
0000
0000
0000
0000
0000
0000
0000
0000
0100
0000
0000
0000
0000
0000
0000
0000
0000
0000
0000
0000
0000
0000
0000
0000
0000
0000
0000
0000
0000
0000
0000
0000
2001
0000
0000
0000
0000
0000
0000
0000
0000
0000
0000
0000
0000
0000
0000
0000
0000
0000
0000
0000
0000
0000
0000
0000
0000
0000
0000
0000
0000
0000
0000
0000
0000
0000
0000
0000
3000
0000
0000
0000
0000
0000
0000
0000
0000
0000
0000
0000
,
0001
0000
0000
0001
0000
0000
0010
0000
0000
0100
0000
0000
1000
0000
0000
0100
0000
0000
0000
0000
0000
0001
0000
0000
0100
0000
0000
0000
0000
0000
0010
0000
0000
0000
0000
0000
1000
0000
0000
0000
0001
0000
0000
0000
0000
0000
0000
0000
,
0001
0100
0000
0102
0000
0000
0103
0000
0000
2010
0000
0000
,
3010
0000
0010
0100
1000
0100
0000
0100
,
2000
0000
0000
0000
0000
3000
0000
0000
0001
0000
0000
0000
0100
0000
0000
0000
0010
0000
0000
0000
0100
0000
0000
0000
0100
0000
0010
0000
0100
0000
0000
0000
,
0010
0001
0010
0100
1000
0001
0010
0100
,
0001
0000
0100
0010
0100
0000
0001
0000
0100
0000
0001
0000
0010
0000
0100
0000
,
1000
0000
0010
0001
0010
0000
0010
0000
0100
0000
1000
0000
0001
0000
0100
0000
,
0010
0000
0001
0000
0010
0000
0100
0000
0010
0000
0001
0000
0001
0010
0001
0000
,
0010
0100
0010
0100
0001
0010
0100
1000
,
0100
0000
1000
0001
1000
0000
1000
0000
0010
0000
0100
0000
1000
0000
0001
0000
,
1000
0000
0001
1000
0001
0000
0010
0000
1000
0000
0010
0000
0100
0000
0100
0000
,
0100
0000
0100
0000
0001
0000
1000
0000
0001
0000
0100
0000
0100
0010
0100
0000
,
0100
0010
0100
0001
0010
0001
0100
0010
,
1000
0000
0001
0010
0100
0000
0010
0000
0001
0000
0010
0000
0001
0000
0010
0000
,
0100
0000
0001
0010
0100
0000
0010
0000
0100
0000
0010
0000
0010
0000
0010
0000
,
0010
0000
0010
0000
0001
0000
0010
0000
0001
0000
0010
0000
0001
0010
0001
0000
,
1000
0010
0100
1000
0001
0010
0100
1000
,
0001
0000
0010
0001
0010
0000
0000
0000
0000
0000
0101
0000
0011
0000
0000
0000
,
0110
0000
0000
0000
0000
0000
0001
0000
0000
0001
0010
0100
,
1000
0000
0001
1000
0001
1000
0001
0000
,
0010
0100
0010
0100
0010
0100
0100
0100
,
0100
0100
0010
1000
0010
1000
1010
0000
,
1010
0000
0001
0100
0001
0100
0101
0000
,
0101
0000
0001
0100
0001
0100
0001
0000
,
0010
1000
0001
0100
0010
1000
1000
1000
,
1000
1000
0010
0000
0000
0010
0100
0000
,
0010
0000
0010
0020
,
0000
0030
0000
0000
0000
0000
0000
0000
0000
0000
0000
0000
0000
0000
0000
0000
0000
0000
0000
0000
0000
0000
0000
0000
0000
0000
0000
0000
0000
0000
0000
0000
0000
0000
0000
0000
0000
0000
0000
0000
0000
0000
0000
0000
0000
0000
0000
0000
0000
0000
0000
0000
0000
0000
0000
0000
0000
0000
0000
0000
0000
0000
0000
0000
0000
0000
0000
0000
0000
0000
0000
0000
0000
0000
0000
0000
0000
0000
0000
0000
0000
0000
0000
0000
0000
0000
0000
0000
0000
0000
0000
0000
0000
0000
0000
0000
0000
0000
0000
0000
0000
0000
0000
0000
0000
0000
0000
0000
0000
0000
0000
0000
0000
0000
0000
0000
0000
0000
0000
0000
0000
0000
0000
0000
0000
0000
0000
0000
0000
0000
0000
0000
0000
0000
0000
0000
0000
0000
0000
0000
0000
0000
0000
0000
0000
0000
0000
0000
0000
0000
0000
0000
0000
0000
0000
0000
0000
0000
0000
0000
0000
0000
0000
0000
0000
0000
0000
0000
0000
0000
0000
0000
0000
0000
0000
0000
0000
0000
0000
0000
0000
0000
0000
0000
0000
0000
0000
0000
0000
0000
0000
0000
;

//---------------dance-single - Copied from----------------
#NOTEDATA:;
#CHARTNAME:Copied from;
#STEPSTYPE:dance-single;
#DESCRIPTION:Copied from;
#CHARTSTYLE:;
#DIFFICULTY:Hard;
#METER:9;
#RADARVALUES:0.465656,0.534387,0.060115,0.333975,0.000000,488.000000,479.000000,9.000000,50.000000,0.000000,0.000000,0.000000,0.000000,0.000000,0.465656,0.534387,0.060115,0.333975,0.000000,488.000000,479.000000,9.000000,50.000000,0.000000,0.000000,0.000000,0.000000,0.000000;
#CREDIT:Copied from;
#NOTES:
// measure 0
0000
0000
0000
0000
,  // measure 1
0000
0000
0000
0000
,  // measure 2
0000
1000
0000
1000
,  // measure 3
0000
1000
0000
0000
,  // measure 4
0000
0000
0001
0000
0001
1000
0001
0000
,  // measure 5
0010
0002
0013
0011
,  // measure 6
0001
0000
1000
0000
1000
0001
1000
0000
,  // measure 7
0010
0100
0002
0013
,  // measure 8
1000
0000
0010
0000
0010
0100
0010
0000
,  // measure 9
1000
0001
0020
0031
,  // measure 10
1000
0000
0010
0000
0100
0010
0100
0000
,  // measure 11
0001
1000
0020
1000
,  // measure 12
0130
0000
0001
1000
0001
1000
0001
0000
,  // measure 13
1000
0001
1000
0001
1000
0001
2000
0000
,  // measure 14
3010
0000
0010
0100
0010
0100
0010
0000
,  // measure 15
0010
0000
0100
0010
0100
0010
0100
0000
,  // measure 16
0100
0000
0001
1000
0100
1000
0001
0000
,  // measure 17
0010
0100
0001
1000
0100
0010
0002
0000
,  // measure 18
0013
0000
0010
0000
0000
0010
1000
0000
,  // measure 19
0010
0000
1001
1002
,  // measure 20
1003
0010
0010
0100
,  // measure 21
0001
0100
0010
0010
,  // measure 22
1000
0100
0010
0001
,  // measure 23
1000
0010
0100
0100
,  // measure 24
0001
2000
0010
0001
,  // measure 25
0100
3010
0001
1000
,  // measure 26
0010
1000
0001
0010
,  // measure 27
0100
1000
0001
0100
,  // measure 28
0010
2000
0010
0100
,  // measure 29
0010
3001
0010
0100
,  // measure 30
0001
0000
0100
0000
0100
0010
0000
0010
,  // measure 31
1000
0010
1000
0000
0010
0000
1000
0000
,  // measure 32
0001
0200
0010
0001
,  // measure 33
0010
0301
0010
1000
,  // measure 34
0001
0000
1000
0000
0000
1000
0001
0000
,  // measure 35
1000
0000
0001
1000
,  // measure 36
0010
0000
0100
1000
0100
1000
0100
1000
,  // measure 37
0100
0000
0000
0010
0100
0010
0100
0010
,  // measure 38
0100
0000
0000
0001
1000
0001
1000
0001
,  // measure 39
1000
0000
0000
0010
0000
0010
1000
0010
,  // measure 40
1000
0000
0000
1000
0100
0010
0001
1000
,  // measure 41
0010
0100
0001
1000
0100
0010
0001
0010
,  // measure 42
0100
0010
0000
0001
1000
0010
1000
0010
,  // measure 43
1000
0001
1000
0100
1000
0010
1000
0001
,  // measure 44
1000
0000
0000
0010
0100
0010
0100
0000
,  // measure 45
0110
0000
0000
0001
0010
0001
0010
0000
,  // measure 46
0011
0000
0000
0100
1000
0001
0100
0010
,  // measure 47
1000
0001
0010
0100
0010
0001
0010
0000
,  // measure 48
0011
0000
0000
0010
0000
0010
1000
0010
,  // measure 49
1000
0000
0001
1000
0100
1000
0001
0000
,  // measure 50
0010
1000
0001
1000
0100
1000
0001
1000
,  // measure 51
0010
0100
0001
1000
0100
0010
0001
0000
,  // measure 52
0001
0000
0001
0010
0001
0020
0000
0000
,  // measure 53
0031
0010
0001
0020
0000
0000
0031
1000
,  // measure 54
0010
1000
0001
0000
0001
1000
0000
1000
,  // measure 55
0000
0010
0000
0010
0000
0010
0200
0000
,  // measure 56
0000
0000
0310
0100
0010
0200
0000
0000
,  // measure 57
0310
0100
0010
0200
0000
0000
0310
0000
,  // measure 58
0010
0000
1000
0000
1000
0001
0000
0001
,  // measure 59
0000
1000
0000
0001
0000
1000
0002
0000
,  // measure 60
0013
0000
0001
0010
0001
0020
0000
0000
,  // measure 61
0031
0010
0001
0020
0000
0000
0031
0010
,  // measure 62
0001
0010
0001
0000
0010
1000
0000
1000
,  // measure 63
0000
0010
0000
0010
0000
0010
0200
0000
,  // measure 64
0000
0000
0310
0100
0010
0200
0000
0000
,  // measure 65
0310
0100
0010
0200
0000
0000
0310
0000
,  // measure 66
1000
0000
0010
0000
0000
0010
1000
0000
,  // measure 67
0010
0000
0001
2000
,  // measure 68
0000
3000
0001
0001
0001
0000
2000
0000
,  // measure 69
3020
0000
0130
0100
0100
0000
0020
0000
,  // measure 70
1030
0000
0001
0001
0001
0000
2000
0000
,  // measure 71
3002
0000
0013
0010
0010
0000
0200
0000
,  // measure 72
0310
0000
1000
1000
1000
0000
0002
0000
,  // measure 73
1003
0000
0010
0010
0010
0000
0200
0000
,  // measure 74
0310
0000
1000
1000
1000
0000
0002
0000
,  // measure 75
1003
0220
0000
0000
,  // measure 76
0330
0000
1000
0001
1000
0002
0000
0000
,  // measure 77
1003
0001
1000
0002
0000
0000
1003
0001
,  // measure 78
1000
0001
1000
0000
0010
0100
0000
0100
,  // measure 79
0000
0010
0000
0010
0000
0010
0200
0000
,  // measure 80
0000
0300
0100
0010
0100
0020
0000
0030
,  // measure 81
0100
0010
0100
0020
0000
0030
1000
0000
,  // measure 82
1000
0000
0001
0000
0001
1000
0000
1000
,  // measure 83
0000
0010
0000
0100
0000
0010
0200
0000
,  // measure 84
0000
0000
0310
0100
0010
0200
0000
0000
,  // measure 85
0310
0100
0010
0200
0000
0000
0310
1000
,  // measure 86
0010
1000
0010
0000
0001
1000
0000
1000
,  // measure 87
0000
0100
0000
0100
0000
0100
2000
0000
,  // measure 88
0000
3000
0100
1000
0100
2000
0000
3000
,  // measure 89
0100
1000
0100
2000
0000
0000
3010
0000
,  // measure 90
0010
0000
0100
0000
0000
0100
0010
0000
,  // measure 91
0100
0000
0001
0002
,  // measure 92
0000
0000
0013
1000
0010
1000
0010
0000
,  // measure 93
1000
0010
1000
0010
1000
0010
2000
0000
,  // measure 94
3010
0000
0010
0100
0010
0100
0010
0000
,  // measure 95
0010
0000
0001
1000
0001
1000
0001
0000
,  // measure 96
0001
0000
1000
0100
1000
0100
2000
0000
,  // measure 97
3100
1000
0100
1000
0100
1000
0200
0000
,  // measure 98
0300
0000
1000
0000
0000
1000
0010
0000
,  // measure 99
1000
0000
1001
2002
,  // measure 100
0000
3003
0000
0000
0000
0000
0000
0000
0000
0000
0000
0000
0000
0000
0000
0000
0000
0000
0000
0000
0000
0000
0000
0000
0000
0000
0000
0000
0000
0000
0000
0000
0000
0000
0000
0000
0000
0000
0000
0000
0000
0000
0000
0000
0000
0000
0000
0000
0000
0000
0000
0000
0000
0000
0000
0000
0000
0000
0000
0000
0000
0000
0000
0000
0000
0000
0000
0000
0000
0000
0000
0000
0000
0000
0000
0000
0000
0000
0000
0000
0000
0000
0000
0000
0000
0000
0000
0000
0000
0000
0000
0000
0000
0000
0000
0000
0000
0000
0000
0000
0000
0000
0000
0000
0000
0000
0000
0000
0000
0000
0000
0000
0000
0000
0000
0000
0000
0000
0000
0000
0000
0000
0000
0000
0000
0000
0000
0000
0000
0000
0000
0000
0000
0000
0000
0000
0000
0000
0000
0000
0000
0000
0000
0000
0000
0000
0000
0000
0000
0000
0000
0000
0000
0000
0000
0000
0000
0000
0000
0000
0000
0000
0000
0000
0000
0000
0000
0000
0000
0000
0000
0000
0000
0000
0000
0000
0000
0000
0000
0000
0000
0000
0000
0000
0000
0000
0000
0000
0000
0000
0000
0000
;

//---------------dance-single - Copied from Copied f----------------
#NOTEDATA:;
#CHARTNAME:Copied from Copied f;
#STEPSTYPE:dance-single;
#DESCRIPTION:Copied from Copied f;
#CHARTSTYLE:;
#DIFFICULTY:Medium;
#METER:5;
#RADARVALUES:0.276722,0.299826,0.000000,0.053436,0.000000,290.000000,290.000000,0.000000,8.000000,0.000000,0.000000,0.000000,0.000000,0.000000,0.276722,0.299826,0.000000,0.053436,0.000000,290.000000,290.000000,0.000000,8.000000,0.000000,0.000000,0.000000,0.000000,0.000000;
#CREDIT:Copied from Copied f;
#NOTES:
0000
0000
0000
0000
,
0000
0000
0000
0000
,
0000
1000
0000
1000
,
0000
1000
0000
0000
,
0000
0010
0010
1000
,
0010
1000
0010
0100
,
0000
0001
0001
1000
,
0001
1000
0010
0100
,
0000
1000
1000
0001
,
1000
0001
0100
0010
,
0000
0001
0001
1000
,
0001
1000
0010
0100
,
0000
1000
1000
0010
,
0000
0010
0010
0100
,
0000
0001
0001
1000
,
1000
0001
0001
1000
,
0000
0010
0100
0010
,
0010
1000
1000
0010
,
0000
0000
0001
0000
0000
0001
0000
0000
,
0001
0000
1000
1000
,
0000
0020
0000
0130
,
0000
2000
0000
3001
,
0000
0010
0100
0010
,
0000
1000
0010
1000
,
0000
0002
0000
0013
,
0000
2000
0000
3001
,
0000
0010
0100
0010
,
0000
1000
0010
1000
,
0000
0020
0000
0130
,
0000
2000
0000
3001
,
0000
0010
0100
0010
,
0000
1000
0001
1000
,
0000
0002
0000
0013
,
0000
2000
0000
3010
,
0000
0000
0010
0000
0000
0010
0000
0000
,
0010
0000
0010
0100
,
0000
1000
0001
1000
,
0000
0001
1000
0001
,
0000
0010
1000
0010
,
0000
0100
0010
0100
,
0000
0010
1000
0010
,
1000
0001
1000
0010
,
1000
0001
1000
0001
,
1000
0100
1000
0001
,
0000
0010
0100
0010
,
0000
0001
1000
0001
,
0000
0010
1000
0010
,
0000
0001
0010
0001
,
0000
0010
1000
0010
,
0000
0100
1000
0100
,
0000
1000
0010
1000
,
0001
0010
0100
1000
,
0000
0010
0010
1000
,
0010
1000
0010
0001
,
1000
0001
0001
1000
,
1000
0010
0010
0010
,
0000
0100
0010
0100
,
0010
1000
0001
1000
,
0001
0010
0100
0010
,
0001
1000
0010
1000
,
0000
0010
1000
0010
,
1000
0001
1000
0100
,
1000
0010
1000
0001
,
1000
0100
0100
0100
,
0000
0010
1000
0001
,
1000
0010
0100
0001
,
1000
0010
0000
0010
,
0000
0010
0000
0010
,
0000
1000
0000
0010
,
1000
1000
0000
0010
,
0000
0001
0000
0010
,
0001
1000
0000
0100
,
0000
0010
0000
1000
,
0100
0001
0000
0010
,
0000
1000
0000
0010
,
0000
0010
0000
0000
,
0000
0010
0000
0010
,
0000
0010
0000
0010
,
0000
1000
0010
1000
,
0010
1000
1000
1000
,
0000
0100
0000
0100
,
0000
0100
0000
0100
,
0000
0010
1000
0010
,
1000
0001
1000
0010
,
0000
0001
0000
0001
,
0000
0001
0000
0001
,
0000
1000
0010
1000
,
0001
1000
0100
1000
,
0000
0010
0000
0010
,
0000
0010
0000
0010
,
0000
1000
0001
1000
,
0000
0010
0100
0010
,
0000
1000
0001
1000
,
0010
1000
0001
1000
,
0000
0010
0100
0010
,
0000
0010
0100
0010
,
0000
1000
0001
1000
,
0010
1000
0001
1000
,
0000
0010
0000
0010
,
0000
0010
1000
0010
;

//---------------dance-single - Copied from Copied f----------------
#NOTEDATA:;
#CHARTNAME:Copied from Copied f;
#STEPSTYPE:dance-single;
#DESCRIPTION:Copied from Copied f;
#CHARTSTYLE:;
#DIFFICULTY:Easy;
#METER:4;
#RADARVALUES:0.191797,0.299826,0.000000,0.013359,0.000000,201.000000,201.000000,0.000000,2.000000,0.000000,0.000000,0.000000,0.000000,0.000000,0.191797,0.299826,0.000000,0.013359,0.000000,201.000000,201.000000,0.000000,2.000000,0.000000,0.000000,0.000000,0.000000,0.000000;
#CREDIT:Copied from Copied f;
#NOTES:
0000
0000
0000
0000
,
0000
0000
0000
0000
,
0000
1000
0000
1000
,
0000
1000
0000
0000
,
0000
0100
0000
1000
,
0000
0001
0000
0000
,
0000
1000
0000
1000
,
0000
0010
0000
0000
,
0000
0001
0000
0100
,
0000
1000
0000
0000
,
0000
0001
0000
0010
,
0000
1000
0000
0000
,
0000
0100
0000
1000
,
0000
0001
0000
1000
,
0000
0010
0000
0100
,
0000
0001
0000
1000
,
0000
0100
0000
1000
,
0000
0010
0000
0001
,
0000
0100
0000
0000
,
0010
0000
0000
1000
,
0000
0001
0000
0001
,
0000
0001
0000
0000
,
0000
1000
0000
1000
,
0000
1000
0000
0000
,
0000
0010
0000
0010
,
0000
0010
0000
0000
,
0000
0001
0000
1000
,
0000
0001
0000
0000
,
0000
0002
0000
0000
,
0003
0000
0000
0000
,
0000
1000
0000
0001
,
0000
1000
0000
0000
,
0000
0020
0000
0000
,
0030
0000
0000
0000
,
0000
1000
0000
0000
,
0001
0000
0000
0000
,
0000
1000
0000
1000
,
0000
1000
0000
0000
,
0000
0010
0000
0100
,
0000
0010
0000
0000
,
0000
1000
0000
0001
,
0000
1000
0000
0000
,
0000
0100
0000
1000
,
0000
0100
0000
0000
,
0000
0010
0000
0001
,
0000
1000
0000
0000
,
0000
0100
0000
1000
,
0000
0010
0000
0000
,
0000
1000
0000
0001
,
0000
1000
0000
0000
,
0000
0100
0000
1000
,
0000
0001
0000
1000
,
0000
0010
1000
0001
,
0000
0100
0010
1000
,
0000
0001
0100
0001
,
0000
1000
1000
1000
,
0000
0100
0000
0010
,
0000
0100
0000
0010
,
0000
0001
0001
0001
,
0000
0010
0010
0010
,
0000
1000
0000
0100
,
0000
1000
0000
0100
,
0000
0010
0000
0001
,
0000
1000
1000
1000
,
0000
0100
0000
1000
,
0000
0010
0000
1000
,
0000
0001
0001
0000
,
1000
0000
0100
1000
,
0000
0000
0001
0001
0001
0000
0000
0000
,
1000
0000
0100
0100
0100
0000
0000
0000
,
0000
0000
0010
0010
0010
0000
0000
0000
,
0001
0000
1000
1000
1000
0000
0000
0000
,
0000
0000
0100
0100
0100
0000
0000
0000
,
0010
0000
0001
0001
0001
0000
0000
0000
,
0000
0000
1000
1000
1000
0000
0000
0000
,
0100
0000
0010
0010
0010
0000
0000
0000
,
0000
1000
0001
1000
,
0000
0010
0100
0010
,
0000
1000
1000
0100
,
0100
0010
0010
0001
,
0000
0001
0001
1000
,
0000
1000
1000
0001
,
0000
0100
0000
0010
,
0000
1000
1000
0001
,
0000
0100
0100
0010
,
0000
1000
1000
0001
,
0000
0100
0100
1000
,
0000
0010
0010
0001
,
0000
0100
0000
1000
,
0000
0100
0100
0010
,
0000
0001
0000
0000
,
1000
0000
0000
0001
,
0000
1000
0000
1000
,
0000
0001
0000
0001
,
0000
0100
0000
0010
,
0000
0100
0000
0010
,
0000
1000
0000
0001
,
0000
1000
0000
0001
,
0000
1000
0000
0000
,
1000
0000
0000
0010
;

//---------------dance-single - Copied from Copied f----------------
#NOTEDATA:;
#CHARTNAME:Copied from Copied f;
#STEPSTYPE:dance-single;
#DESCRIPTION:Copied from Copied f;
#CHARTSTYLE:;
#DIFFICULTY:Beginner;
#METER:2;
#RADARVALUES:0.145040,0.266512,0.000000,0.000000,0.000000,152.000000,152.000000,0.000000,0.000000,0.000000,0.000000,0.000000,0.000000,0.000000,0.145040,0.266512,0.000000,0.000000,0.000000,152.000000,152.000000,0.000000,0.000000,0.000000,0.000000,0.000000,0.000000,0.000000;
#CREDIT:Copied from Copied f;
#NOTES:
0000
0000
0000
0000
,
0000
0000
0000
0000
,
0000
1000
0000
1000
,
0000
1000
0000
0000
,
0000
0100
0000
0000
,
0000
1000
0000
0000
,
0000
0001
0000
0000
,
0000
1000
0000
0000
,
0000
0010
0000
0000
,
0000
0001
0000
0000
,
0000
1000
0000
0000
,
0000
0010
0000
0000
,
0000
0100
0000
0000
,
0000
0010
0000
0000
,
0000
1000
0000
0000
,
0000
0001
0000
0000
,
0000
0010
0000
0000
,
0000
1000
0000
0000
,
0000
0100
0000
0000
,
0000
0000
0000
0000
,
0000
1000
0000
0000
,
0000
1000
0000
0000
,
0000
1000
0000
0000
,
0000
1000
0000
0000
,
0000
1000
0000
0000
,
0000
0001
0000
0000
,
0000
0010
0000
0000
,
0000
0100
0000
0000
,
0000
1000
0000
0000
,
0000
0100
0000
0000
,
0000
0001
0000
0000
,
0000
1000
0000
0000
,
0000
0100
0000
0000
,
0000
0010
0000
0000
,
0000
0001
0000
0000
,
0001
0000
0000
0000
,
0000
0001
0000
1000
,
0000
0001
0000
0000
,
0000
0001
0000
0100
,
0000
0010
0000
0000
,
0000
1000
0000
0100
,
0000
1000
0000
0000
,
0000
0010
0000
0001
,
0000
0010
0000
0000
,
0000
0100
0000
1000
,
0000
0100
0000
0000
,
0000
1000
0000
0001
,
0000
1000
0000
0000
,
0000
0010
0000
0001
,
0000
0010
0000
0000
,
0000
1000
0000
1000
,
0000
1000
0000
0000
,
0000
0100
0000
0000
,
0000
1000
0000
0000
,
0000
0001
0000
0000
,
0000
1000
1000
1000
,
0000
0100
0000
0000
,
0000
0010
0000
0000
,
0000
0001
0000
0000
,
0000
0010
0010
0010
,
0000
1000
0000
0000
,
0000
0100
0000
0000
,
0000
0010
0000
0000
,
0000
0001
0001
0001
,
0000
1000
0000
0000
,
0000
0100
0000
0000
,
0000
0010
0000
0000
,
0001
0000
0000
0000
,
0000
0000
1000
1000
1000
0000
0000
0000
,
0001
0000
0010
0010
0010
0000
0000
0000
,
0000
0000
1000
1000
1000
0000
0000
0000
,
0100
0000
0010
0010
0010
0000
0000
0000
,
0000
0000
0100
0100
0100
0000
0000
0000
,
0001
0000
1000
1000
1000
0000
0000
0000
,
0000
0000
1000
1000
1000
0000
0000
0000
,
0000
0000
0010
0010
0010
0000
0000
0000
,
0000
1000
0000
0001
,
0000
1000
0000
0010
,
0000
0100
0000
0010
,
0000
1000
1000
1000
,
0000
0001
0000
1000
,
0000
0001
0000
1000
,
0000
0010
0000
0100
,
0000
0010
0010
0010
,
0000
0001
0000
1000
,
0000
0001
0000
1000
,
0000
0001
0000
1000
,
0000
0100
0100
0100
,
0000
1000
0000
0010
,
0000
1000
0000
0010
,
0000
0100
0000
0000
,
0100
0000
0000
0000
,
0000
1000
0000
1000
,
0000
1000
0000
0000
,
0000
0010
0000
0001
,
0000
0010
0000
0000
,
0000
0100
0000
1000
,
0000
0100
0000
0000
,
0000
1000
0000
0000
,
0000
0000
1000
1000
;
