#TITLE:Every Morning;
#SUBTITLE:;
#ARTIST:ND Lee;
#TITLETRANSLIT:Every Morning;
#SUBTITLETRANSLIT:;
#ARTISTTRANSLIT:;
#GENRE:;
#CREDIT:;
#BANNER:AV.avi;
#BACKGROUND:every morning.png;
#LYRICSPATH:;
#CDTITLE:;
#MUSIC:every morning.mp3;
#OFFSET:-0.840000;
#SAMPLESTART:58.939999;
#SAMPLELENGTH:15.000000;
#SELECTABLE:YES;
#BPMS:0.000000=150.000000
,144.000000=75.000000
,146.000000=150.000000
;
#STOPS:
;
#BGCHANGES:0.000=Every Morning.avi=2.000=1=1=1=StretchRewind==CrossFade==,
8.500=Every Morning.avi=1.000=0=0=1=====,
99999=-nosongbg-=1.000=0=0=0 // don't automatically add -songbackground-
;
#KEYSOUNDS:;
#ATTACKS:;

//---------------dance-single - ----------------
#NOTES:
     dance-single:
     :
     Easy:
     3:
     0.238313,0.303477,0.059578,0.089368,0.000000,224.000000,216.000000,8.000000,12.000000,0.000000,0.000000,0.238313,0.303477,0.059578,0.089368,0.000000,224.000000,216.000000,8.000000,12.000000,0.000000,0.000000:
0000
0000
0000
0000
,
0000
0000
0000
0000
,
0000
0000
0000
0000
,
0000
0000
0000
0000
,
1000
0001
0000
0001
,
0000
1000
0000
1000
,
0000
0010
0000
0010
,
0000
1000
0000
1000
,
0000
0001
0000
0001
,
0000
0100
0000
0100
,
0000
0010
0000
0010
,
0000
1000
0100
0010
,
0001
1000
0000
0000
,
0000
1000
0000
0000
,
0000
0001
0000
0000
,
0000
0001
0000
0000
,
0000
1000
0000
0000
,
0000
1000
0000
0000
,
0000
0001
0000
0001
,
1000
0100
0010
0001
,
1000
0100
0000
0100
,
0000
0010
0000
0010
,
0000
0001
0000
0001
,
0000
1000
0000
1000
,
0000
0001
0000
0001
,
0000
0010
0000
0010
,
0000
0100
0000
0100
,
1000
0100
0010
0001
,
1000
0100
1000
0100
,
1000
0100
0000
1000
,
1000
0010
0100
0001
,
2000
0000
0001
0000
,
3001
0010
0001
0010
,
0001
0010
0000
0001
,
0001
0100
0010
1000
,
0001
0001
0001
0001
,
1001
0000
0001
0001
,
1000
0100
0000
1000
,
1000
1000
0001
0010
,
0001
0010
0001
0000
,
0010
0100
1000
0001
,
1000
0001
1000
0000
,
0010
0100
0010
0000
,
1000
0100
1000
0001
,
0010
0100
1000
1000
,
0001
0010
0001
0000
,
0001
0001
1000
0100
,
1000
0100
1000
0000
,
0100
0010
0001
1000
,
0001
1000
0001
0010
,
0100
0010
0100
1000
,
0100
0000
1000
1000
,
1000
1000
2002
0000
,
0000
0000
3003
0000
,
1001
0000
0220
0000
,
0000
0330
0001
1000
,
0001
0010
0001
0000
,
1000
0100
0010
0001
,
1000
0001
0010
0000
,
0001
0010
0100
1000
,
0100
1000
0010
1000
,
0100
0010
0001
0000
,
0100
0000
0001
0000
,
0010
0100
1000
0001
,
1000
0100
1000
0000
,
0100
0010
0001
1000
,
0001
0010
0001
0000
,
0010
0100
1000
0000
,
0010
0000
0100
0001
,
0010
0001
0010
0000
,
0100
0000
1000
0100
,
0010
0001
2002
0000
,
0000
0000
3003
0000
,
1001
0000
0220
0000
,
0000
0330
1000
0100
,
1000
0100
1000
0010
,
0100
0001
0001
0010
,
0001
0010
0001
0100
,
0010
1000
0002
0000
,
0000
0000
0000
0000
0000
1003
0000
0010
,
0000
0100
0000
2002
0000
0000
0000
0000
,
0000
0000
3003
0000
;

//---------------dance-single - ----------------
#NOTES:
     dance-single:
     :
     Hard:
     10:
     0.511735,0.545421,0.245761,0.245761,0.018618,481.000000,448.000000,33.000000,33.000000,0.000000,0.000000,0.511735,0.545421,0.245761,0.245761,0.018618,481.000000,448.000000,33.000000,33.000000,0.000000,0.000000:
// measure 0
0000
0000
0000
0000
,  // measure 1
0000
0000
0000
0000
,  // measure 2
0000
0000
0000
0000
,  // measure 3
0000
0000
0000
0000
,  // measure 4
1010
0000
0010
1000
0001
1000
0010
0000
,  // measure 5
0100
0000
0001
0001
0000
2000
3000
2000
,  // measure 6
3010
0000
0100
0100
0010
0100
0001
0000
,  // measure 7
1000
0000
0001
0001
0000
0020
0030
0020
,  // measure 8
1030
0000
0100
0100
1000
0001
1000
0000
,  // measure 9
0010
0000
0100
0100
0000
0002
0003
0002
,  // measure 10
1003
0000
0100
0100
1000
0001
1000
0000
,  // measure 11
0010
0100
0001
0100
0010
0100
0001
0100
,  // measure 12
0010
1000
0001
1000
0010
1000
0001
1000
,  // measure 13
0100
0010
0001
0010
0100
0010
0001
0010
,  // measure 14
0100
1000
0001
1000
0100
1000
0001
1000
,  // measure 15
0010
0100
0001
0100
1000
0100
0001
0100
,  // measure 16
0010
1000
0001
1000
0100
1000
0001
1000
,  // measure 17
0100
0010
0001
0010
0100
0010
0001
0010
,  // measure 18
0100
1000
0001
1000
0100
1000
0001
1000
,  // measure 19
0000
0010
0100
0010
0100
0010
0100
0001
,  // measure 20
1000
0000
1000
0100
0000
0100
0010
0001
,  // measure 21
0010
0000
0100
1000
0000
1000
0001
1000
,  // measure 22
0010
0000
0010
0100
0000
0100
0001
1000
,  // measure 23
0100
0000
0100
0010
0000
0010
0001
1000
,  // measure 24
0001
0000
0100
0010
0000
0010
1000
0001
,  // measure 25
1000
0000
0100
0010
0000
0010
0001
1000
,  // measure 26
0001
0000
0010
0100
0000
0100
0001
1000
,  // measure 27
0000
0010
0100
0001
0100
0010
0100
0001
,  // measure 28
0010
0100
0100
0100
0000
0010
0010
0010
,  // measure 29
0000
0001
0001
0001
0000
1000
0100
1000
,  // measure 30
0001
0010
0001
0000
0001
1000
0001
1000
,  // measure 31
0010
0000
0010
0100
0000
0100
0010
0000
,  // measure 32
0000
0001
1000
0001
0000
1000
0001
1000
,  // measure 33
0000
0001
1000
0001
0000
0010
0100
0010
,  // measure 34
0000
0001
1000
0100
1000
0001
1000
0020
,  // measure 35
0000
1000
0100
1000
0100
1000
0100
0030
,  // measure 36
1001
0000
0000
0000
1100
0000
0010
0010
,  // measure 37
0100
0010
0100
0000
0001
0000
1000
1000
,  // measure 38
0000
0002
0003
0002
0103
0000
0010
0010
,  // measure 39
0100
0010
0100
0000
0001
0000
1000
1000
,  // measure 40
0000
0200
0300
0200
1300
0000
0010
0010
,  // measure 41
1000
0010
1000
0000
0001
0000
0010
0010
,  // measure 42
0000
0200
0300
0200
1300
0000
0001
0001
,  // measure 43
1000
0010
1000
0000
0001
1000
0001
1000
,  // measure 44
0001
1000
0001
1000
0010
0000
0100
0100
,  // measure 45
0001
0100
0001
0000
1000
0000
0010
0010
,  // measure 46
0000
0002
0003
0002
1003
0000
0100
0100
,  // measure 47
0010
0100
0010
0000
0001
0000
1000
1000
,  // measure 48
0000
0002
0003
0002
1003
0000
0100
0100
,  // measure 49
1000
0100
1000
0000
0001
0000
0010
0010
,  // measure 50
0000
0002
0003
0002
1003
0000
0100
0100
,  // measure 51
1000
0001
1000
0000
0010
0100
0001
0100
,  // measure 52
0010
0100
0001
0000
1001
0000
0000
0010
,  // measure 53
0100
0100
1001
0000
,  // measure 54
1100
0000
0000
0000
0000
0000
0000
0000
0110
0000
0000
0110
0000
0000
0110
0000
,  // measure 55
0000
0110
0000
0000
0110
0000
0000
0000
1001
0000
0000
0000
0100
0000
0100
0000
,  // measure 56
1000
0100
1000
0000
0010
0000
0001
0001
,  // measure 57
0000
2000
3000
2000
3010
0000
0100
0100
,  // measure 58
0001
0100
0001
0000
1000
0000
0010
0010
,  // measure 59
0000
2000
3000
2000
3100
0000
1000
1000
,  // measure 60
0100
1000
0001
0000
0100
0000
0010
0010
,  // measure 61
0000
0002
0003
0002
0013
0000
0100
0100
,  // measure 62
1000
0001
1000
0000
0010
1000
0001
1000
,  // measure 63
0100
1000
0001
0000
0110
0000
0001
0001
,  // measure 64
1000
0001
1000
0000
0100
0000
0010
0010
,  // measure 65
0000
0200
0300
0200
1300
0000
0001
0001
,  // measure 66
1000
0001
1000
0000
0010
0000
1000
1000
,  // measure 67
0000
0200
0300
0200
1300
0000
0001
0001
,  // measure 68
0010
0100
0010
0000
0001
0000
1000
1000
,  // measure 69
0000
0002
0003
0002
1003
0000
0010
0010
,  // measure 70
1000
0001
1000
0000
0100
0100
1000
0010
,  // measure 71
1000
0001
1000
0000
0110
0000
0000
0000
,  // measure 72
0110
0000
0000
0110
0000
0000
0000
0000
1001
0000
0000
0000
0000
0000
0000
0000
,  // measure 73
1001
0000
0000
0000
0000
0000
0000
1100
0000
0000
1100
0000
0000
0000
0000
0000
,  // measure 74
1100
0000
0110
1001
,  // measure 75
0010
1000
0001
1000
0000
0010
0100
0001
,  // measure 76
0100
0010
0100
0001
0000
0000
0100
0000
,  // measure 77
0001
1000
0100
1000
0000
0001
0100
0010
,  // measure 78
0100
0001
0100
0000
1001
0000
1001
0000
,  // measure 79
0110
0000
0000
0110
0000
0000
0000
0000
0000
0000
1100
0000
0000
0000
1100
0000
,  // measure 80
0000
1100
0000
2002
0000
0000
0000
0000
,  // measure 81
3003
0000
0110
1001
0000
0000
0000
0000
;

//---------------dance-single - ----------------
#NOTES:
     dance-single:
     :
     Medium:
     6:
     0.448965,0.484819,0.402154,0.126604,0.003724,422.000000,368.000000,54.000000,17.000000,0.000000,0.000000,0.448965,0.484819,0.402154,0.126604,0.003724,422.000000,368.000000,54.000000,17.000000,0.000000,0.000000:
0000
0000
0000
0000
,
0000
0000
0000
0000
,
0000
0000
0000
0000
,
0000
0000
0000
0000
,
0001
1001
1000
1001
,
0001
0010
0001
0010
0100
1000
0100
1000
,
0001
1001
1000
1001
,
0001
0010
0001
0010
0100
1000
0100
1000
,
0001
1001
0001
1001
,
1000
0100
1000
0100
0010
0001
0010
0001
,
1000
1001
0001
1001
,
1000
0100
1000
0100
0010
0001
0010
0000
,
1001
0010
0100
1000
,
0020
1000
1030
0001
,
1000
0000
0100
0000
0010
0000
0001
1000
,
0001
0200
0001
0301
,
1001
0001
1000
1000
,
0020
0100
0130
0001
,
1000
0000
0001
0010
0001
0000
1000
0001
,
0000
1000
0010
0000
0010
0000
0010
0000
,
2001
0001
3001
0010
,
0100
1000
0001
0010
,
0002
1000
1003
0100
,
0010
0001
1000
0100
,
2001
0001
3001
0010
,
0200
0010
0310
1000
,
0002
1000
1003
0100
,
0020
0100
0100
0130
,
0001
1000
0100
1000
0000
0100
1000
0100
,
0000
1000
0100
1000
0000
0001
0010
0000
,
0100
0000
0010
0000
0001
1000
0001
0000
,
0020
0100
0130
1001
,
1000
0001
0010
0001
0000
0010
0001
0010
,
0000
0001
0010
0001
0000
1000
0100
0000
,
0010
0000
0100
0000
1000
0001
1000
0000
,
0020
0100
0100
0130
,
1001
0000
1001
1001
,
0001
0000
0010
0000
0100
0000
1000
0001
,
1000
0001
1001
1001
,
1000
0000
0100
0000
0010
0000
0001
1000
,
0001
1000
0120
0100
,
0100
0000
0130
0000
1001
0000
0001
0010
,
0001
0000
1000
0000
0010
0000
0100
0010
,
0000
1000
0000
0001
0000
0100
0010
0100
,
0010
0100
0010
0000
1001
0000
1001
0000
,
0100
0000
0010
0000
0001
0000
1000
0100
,
1000
0001
1001
1001
,
0010
0000
0100
0000
1000
0000
0001
0010
,
0001
1000
1001
0001
,
0100
0010
0000
0100
0000
0010
0100
0000
,
0001
0000
1000
0010
0000
0100
0000
0001
,
0000
1000
0000
0010
0000
0100
0010
0100
,
0010
0100
0010
0000
1001
0000
0000
0000
,
0110
0000
1001
0000
,
1001
0000
0000
0000
0110
0000
0000
0001
,
0010
0100
1000
0001
2000
0000
3001
0000
,
0010
0000
0100
1000
0100
0000
1000
0001
,
1000
0001
0002
1003
,
0100
0000
0010
0001
0010
0000
0001
1000
,
0001
1000
0120
0100
,
0100
0000
0130
0000
1001
0000
1000
0010
,
1000
0000
0001
0000
0100
0010
0000
1000
,
0000
0001
0000
0100
0000
0010
0100
0010
,
0100
0010
0100
0000
1001
0000
1001
0000
,
0001
0010
0001
0000
1000
0000
0010
1000
,
0001
0001
1001
1001
,
1000
0100
1000
0000
0001
0000
0100
0001
,
1000
1000
1001
0011
,
0100
0000
1000
0010
1000
0000
0001
1000
,
0010
0010
1001
1100
,
0010
0000
0001
0010
0001
0000
0100
0010
,
0100
0010
0100
0000
1001
0000
0000
0000
,
0110
0000
1001
0000
,
1001
0000
0000
0000
0110
0000
0000
1000
,
0100
0010
0001
1000
0001
0000
1001
0000
,
1000
0000
1001
0000
0001
0010
0001
0010
,
0100
1000
0100
1000
0001
0000
1001
0000
,
1000
0000
1001
0000
1000
0100
1000
0100
,
0010
0001
0010
0001
1000
0000
1001
0000
,
0010
0000
0000
0010
0000
0000
0000
0000
0000
0000
0110
0000
0000
0000
0110
0000
,
0000
1001
0000
2002
0000
0000
0000
0000
,
3003
0000
0001
1000
0000
0000
0000
0000
;

//---------------dance-single - ----------------
#NOTES:
     dance-single:
     :
     Beginner:
     1:
     0.055323,0.121018,0.052131,0.000000,0.000000,52.000000,45.000000,7.000000,0.000000,0.000000,0.000000,0.055323,0.121018,0.052131,0.000000,0.000000,52.000000,45.000000,7.000000,0.000000,0.000000,0.000000:
0000
0000
0000
0000
,
0000
0000
0000
0000
,
0000
0000
0000
0000
,
0000
0000
0000
0000
,
0001
0000
0000
0000
,
0000
0000
0000
0000
,
1000
0000
0000
0000
,
0000
0000
0000
0000
,
0001
0000
0000
0000
,
0000
0000
0000
0000
,
1000
0000
0000
0000
,
0000
0000
0000
0000
,
0001
0000
0000
0000
,
0000
0000
0000
0000
,
0010
0000
0000
0000
,
0000
0000
0000
0000
,
0001
0000
0000
0000
,
0000
0000
0000
0000
,
1000
0000
0000
0000
,
0100
0000
0000
0000
,
1000
0000
0000
0000
,
0000
0000
0000
0000
,
1000
0000
0000
0000
,
0000
0000
0000
0000
,
0001
0000
0000
0000
,
0000
0000
0000
0000
,
0001
0000
0000
0000
,
1000
0000
0000
0000
,
1001
0000
0000
0000
,
0000
0000
0000
0000
,
1000
0000
0000
0000
,
0001
0000
0000
0000
,
1001
0000
0000
0000
,
0000
0000
0000
0000
,
0001
0000
0000
0000
,
1000
0000
0000
0000
,
1001
0000
0010
0000
,
0000
0000
0000
0000
,
0000
0000
0010
0000
,
0000
0000
0000
0000
,
0000
0000
0100
0000
,
0000
0000
0000
0000
,
0000
0000
0100
0000
,
0000
0000
0000
0000
,
0000
0000
0010
0000
,
0000
0000
0000
0000
,
0000
0000
0010
0000
,
0000
0000
0000
0000
,
0000
0000
0100
0000
,
0000
0000
0000
0000
,
0000
0000
0100
0000
,
0000
0000
0000
0000
,
0000
0000
0010
0000
,
0000
0000
0000
0000
,
0000
0000
1001
0000
,
0000
0000
1000
0000
,
0000
0000
0000
0000
,
0000
0000
0001
0000
,
0000
0000
0000
0000
,
0000
0000
1000
0000
,
0000
0000
0000
0000
,
0000
0000
0001
0000
,
0000
0000
0000
0000
,
0000
0000
1000
0000
,
0000
0000
0000
0000
,
0000
0000
0010
0000
,
0000
0000
0000
0000
,
0000
0000
0100
0000
,
0000
0000
0000
0000
,
0000
0000
0010
0000
,
0000
0000
0000
0000
,
0000
0000
0110
0000
,
0000
0000
0000
0000
,
0000
0000
1001
0000
,
0000
0000
0001
0000
,
0000
0000
0000
0000
,
0000
0000
1000
0000
,
0000
0000
0000
0000
,
0000
0000
0001
0000
,
0000
0000
0000
0000
,
0000
0000
0000
0000
,
0000
1001
0000
0000
;

//---------------dance-single - Copied from----------------
#NOTES:
     dance-single:
     Copied from:
     Challenge:
     14:
     0.825585,0.848433,1.630957,0.327681,0.115433,776.000000,557.000000,219.000000,44.000000,0.000000,23.000000,0.825585,0.848433,1.630957,0.327681,0.115433,776.000000,557.000000,219.000000,44.000000,0.000000,23.000000:
0000
0000
0000
0000
,
0000
0000
0000
0000
,
0000
0000
0000
0000
,
0000
0000
0000
0000
,
0100
0000
1100
1001
0100
0002
1103
0010
,
0001
0100
1100
0110
0100
2000
3011
0200
,
0301
0000
1001
1001
0010
0002
1013
0100
,
0000
0100
0110
1010
0100
2000
3011
0002
,
1013
0000
1001
1001
0100
0002
1103
0010
,
0000
1000
0101
1001
0100
2000
3101
0020
,
0130
0000
1010
1100
0001
0100
1010
0001
,
1000
0000
0100
0000
0010
0000
0100
0000
0010
0000
0100
0000
1000
0001
1000
0001
,
1000
0100
1100
0011
1000
1100
0011
0100
,
1001
0010
1010
0101
1000
0101
1010
1000
,
1001
0010
1001
1100
0010
1100
0011
0100
,
1001
0100
1001
0110
0010
1100
0011
0100
,
1010
0001
1010
0101
1000
0101
1010
0100
,
1010
0001
1100
1001
0010
0101
0110
1000
,
1100
0100
1010
0110
0001
0101
1010
0010
,
1001
0000
0100
0000
0010
0000
0100
0000
0010
0000
0100
0000
1000
0001
1000
0001
,
1000
0100
1000
0011
0100
1100
0011
0100
,
1001
0010
1000
0101
1000
0101
1010
0100
,
1001
0010
0001
1100
0010
1100
0011
0100
,
1001
0100
0001
0110
0001
1100
0011
0100
,
1010
0001
1000
0101
1000
0101
1010
0100
,
1010
0001
0100
1001
0010
0101
0110
1000
,
1100
0001
1000
0110
0001
0101
1010
0100
,
1001
0000
0100
0000
0010
0000
0100
0000
0010
0000
0100
0000
0001
1000
0001
1000
,
0001
1100
0110
0011
0000
0011
0110
1100
,
0000
1100
0110
0011
0000
0100
0010
0100
,
1001
0100
0010
1001
0010
1100
1000
0100
,
1001
0000
0100
1010
0000
1001
0010
0000
,
0001
0011
0110
1100
0000
1100
0110
0011
,
0010
0011
0110
1100
0000
1000
0100
0010
,
0000
1000
0001
0010
0100
0001
0100
0020
,
0000
0000
0100
0000
1000
0000
0100
0000
1000
0000
0100
0000
0100
1000
0100
1000
,
0001
0030
0000
0100
0010
0100
0010
0100
1001
0000
0000
0000
0100
0000
0100
0000
,
1100
1100
0010
0000
1001
0000
1000
1000
,
0000
0102
0003
2000
3101
0000
0100
0100
,
0011
0011
0100
0000
1001
0000
0100
0100
,
0010
1200
0301
0020
1130
1000
0010
0010
,
0011
0012
0103
0010
1001
1000
0100
0100
,
1000
0012
0103
0002
1103
1000
0100
0100
,
1100
1100
0010
0000
0101
0010
1000
0100
,
0010
0000
1001
0000
0100
1000
0100
0010
1001
0000
0000
0000
0100
0000
0100
0000
,
1100
1100
0010
0000
1001
0000
1000
1000
,
0000
0102
0003
2000
3101
0000
0100
0100
,
0011
0011
0100
0000
1001
0000
0100
0100
,
0010
1200
0301
0020
1130
1000
0010
0010
,
0011
0012
0103
0010
1001
1000
0100
0100
,
1000
0012
0103
0002
1103
1000
0100
0100
,
1100
1100
0010
0000
0101
0010
1000
0100
,
0010
0000
1001
0000
0100
1000
0100
0010
0001
0000
0000
0000
0000
0000
0100
0000
,
0110
0000
0000
0110
0001
0000
0000
0000
1001
0000
0000
0000
0000
0000
0000
0000
,
1001
0000
0000
0000
0000
0000
1000
0100
0010
0000
0000
1100
0000
0000
1010
0000
,
0000
1001
0000
0000
1001
0000
0000
0100
1001
0000
0000
0000
0100
0000
0100
0000
,
1100
1100
0010
0000
1001
0000
1000
1000
,
0000
0102
0003
2000
3101
0000
0100
0100
,
0011
0011
0100
0000
1001
0000
0100
0100
,
0010
1200
0301
0020
1130
1000
0010
0010
,
0011
0012
0103
0010
1001
1000
0100
0100
,
1000
0012
0103
0002
1103
1000
0100
0100
,
1100
1100
0010
0000
0101
0010
1000
0100
,
0010
0000
1001
0000
0100
1000
0100
0010
1001
0000
0000
0000
0100
0000
0100
0000
,
1100
1100
0010
0000
1001
0000
1000
1000
,
0000
0102
0003
2000
3101
0000
0100
0100
,
0011
0011
0100
0000
1001
0000
0100
0100
,
0010
1200
0301
0020
1130
1000
0010
0010
,
0011
0012
0103
0010
1001
1000
0100
0100
,
1000
0012
0103
0002
1103
1000
0100
0100
,
1100
1100
0010
0000
0101
0010
1000
0100
,
0010
0000
1001
0000
0100
1000
0100
0010
0001
0000
0000
0000
0000
0000
0100
0000
,
0110
0000
0000
0110
0001
0000
0000
0000
1001
0000
0000
0000
0000
0000
0000
0000
,
1001
0000
0000
0000
0000
0000
0000
1000
1100
0000
0000
0011
0000
0000
1000
0000
,
0100
0010
0001
1000
0100
0000
1100
1001
,
0100
0002
1103
0010
0001
0100
1100
0110
,
0100
2000
3011
0200
0301
0000
1001
1001
,
0010
0002
1013
0100
1000
0100
0010
0100
,
1000
0000
0100
0000
0010
0100
0010
0100
0010
0000
0000
0000
1001
0000
0000
0000
,
1100
0000
0000
0110
0000
0000
0000
0000
0001
0000
1100
0000
0000
0000
0110
0000
,
0000
0011
0000
2002
0000
0000
0000
0000
,
0000
0000
3103
0100
0010
0000
0010
0000
0000
0000
0000
0000
0000
0000
0000
0000
;
