#TITLE:EGG;
#SUBTITLE:;
#ARTIST:Nauts;
#TITLETRANSLIT:;
#SUBTITLETRANSLIT:;
#ARTISTTRANSLIT:;
#GENRE:;
#CREDIT:;
#BANNER:AV.avi;
#BACKGROUND:egg.png;
#LYRICSPATH:;
#CDTITLE:;
#MUSIC:egg.mp3;
#OFFSET:2.160000;
#SAMPLESTART:46.779999;
#SAMPLELENGTH:16.000000;
#LASTBEATHINT:3.402667;
#SELECTABLE:YES;
#BPMS:0.000000=176.000000
,336.000000=88.000000
,338.000000=44.000000
;
#STOPS:
;
#BGCHANGES:0.000=Egg.avi=0.400=0=0=1=====,
4.000=Egg.avi=1.000=0=0=1=====,
99999=-nosongbg-=1.000=0=0=0 // don't automatically add -songbackground-
;
#KEYSOUNDS:;
#ATTACKS:;

//---------------dance-single - ----------------
#NOTES:
     dance-single:
     :
     Easy:
     5:
     0.217837,0.316988,0.000000,0.215469,0.008287,184.000000,184.000000,0.000000,26.000000,0.000000,0.000000,0.217837,0.316988,0.000000,0.215469,0.008287,184.000000,184.000000,0.000000,26.000000,0.000000,0.000000:
0000
0000
0000
0000
,
0000
0000
0000
0000
,
0010
0000
0000
0010
0000
0010
0000
0000
,
0100
0000
0000
0100
0000
0100
0000
0200
,
0000
0000
0000
0300
,
1000
1000
1000
0000
,
0100
0000
0000
0100
0000
0100
0000
0000
,
0010
0000
0000
0010
0000
0000
0010
0000
,
1000
0000
0000
1000
0000
0000
1000
0000
,
0000
0001
0000
0000
0001
0000
0001
0000
,
0020
0000
0000
0000
,
0030
0000
0000
0000
,
1000
0000
0000
1000
0000
0000
0000
1000
,
0000
0000
1000
1000
,
0001
0000
0000
0001
0000
0000
0000
0001
,
0000
0000
0001
0001
,
0100
0000
0000
0100
0000
0000
0000
0100
,
0000
0000
0000
0100
0000
0000
0000
0000
,
0010
0000
0000
0010
0000
0010
0000
0010
,
0000
0000
0010
0000
,
0001
0000
0000
0001
0000
0000
0000
0001
,
0000
0000
0001
0001
,
1000
0000
0000
1000
0000
0000
0000
1000
,
0000
0000
1000
1000
,
0010
0000
0000
0010
0000
0000
0000
0010
,
0000
0000
0000
0010
0000
0000
0000
0000
,
0100
0000
0000
0100
0000
0100
0000
0100
,
0000
0000
0100
0000
,
0000
1000
0000
1000
,
0000
0001
0200
0001
,
0300
0100
0000
0100
,
0000
0010
0002
0010
,
0103
1000
0000
1000
,
0000
0010
0002
0010
,
0003
0000
0001
0000
0000
0000
0001
0100
,
0000
0100
0000
0100
0100
0000
0000
0000
,
0010
0010
0010
0010
,
1000
1000
1000
1000
,
0002
0000
0000
0000
,
0203
0000
0000
0000
,
0301
0001
0001
0001
,
1000
1000
1000
1000
,
0200
0000
0000
0000
,
0000
0000
0000
0000
,
0301
0001
1000
1000
,
0100
0100
0010
0010
,
2000
0000
0000
0000
,
3002
0000
0000
0000
,
0013
0010
0100
0100
,
0001
0001
1000
1000
,
0002
0000
0000
0000
,
0000
0000
0000
0000
,
0103
0100
0001
0001
,
1000
1000
0010
0010
,
2000
0000
3002
0000
,
0103
0100
0100
0000
,
0100
0000
0000
0100
0000
0000
0100
0000
,
0001
0000
0000
0001
0000
0000
0001
0000
,
0020
0000
0000
0000
,
0000
0000
0000
0000
,
0230
0000
0000
1300
,
1000
0000
0010
0010
0000
0010
0000
0002
,
0000
0000
0000
0000
,
0000
0000
0000
0000
0000
2003
0000
0000
,
3100
0000
0100
0200
0000
0000
0000
0000
,
0000
0000
0000
0000
0300
0002
0000
0000
,
2003
0000
0000
0000
,
0000
0000
0000
3000
,
0002
0000
0000
0003
,
0200
0000
0000
0300
,
0020
0000
0000
0000
,
0000
0000
0000
0030
,
0000
1000
0000
1000
,
0000
0001
0000
0001
,
0200
0000
0000
0000
,
0000
0000
0000
0000
,
1300
1000
0001
0001
,
0010
0010
0100
0100
,
0000
0001
0000
0001
,
0000
1000
0000
1000
,
0200
0000
0000
0000
,
0000
0000
0000
0300
,
0020
0000
0000
0000
,
1030
0000
0000
0000
,
0010
0000
0000
0000
0000
0000
0010
0000
0000
0000
0000
0000
0100
0000
0000
0000
0000
0100
0000
0000
1000
0000
0000
0000
1000
0000
0000
0000
0000
0000
0000
0000
,
0001
0000
0000
0000
;

//---------------dance-single - Copied from----------------
#NOTES:
     dance-single:
     Copied from:
     Medium:
     6:
     0.344514,0.598755,0.033149,0.223756,0.008287,291.000000,287.000000,4.000000,27.000000,0.000000,0.000000,0.344514,0.598755,0.033149,0.223756,0.008287,291.000000,287.000000,4.000000,27.000000,0.000000,0.000000:
0000
0000
0000
0000
,
0000
0000
0000
0000
,
0100
0000
0001
0100
0000
0200
0000
0300
,
0010
0000
1000
0010
0000
0010
0000
0020
,
0000
0000
0000
0030
,
0001
1000
0000
0100
0000
0010
0000
0000
,
0010
0000
1000
0010
0000
0020
0000
0030
,
0100
0000
0001
0100
0000
0000
0100
0000
,
0001
0000
1000
0001
0000
1000
0001
0000
,
0200
1300
0000
0100
1000
0000
1100
0000
,
0200
0000
0000
0000
,
0310
1000
0000
0001
0000
0100
0000
0000
,
0001
0000
0000
0001
0000
0000
0000
0001
,
0000
0000
0001
0001
,
1000
0000
0000
1000
0000
0000
0000
1000
,
0000
0000
1000
1000
,
0010
0000
0000
0010
0000
0000
0000
0010
,
0000
0000
0000
0010
0000
0000
0000
0000
,
0100
0000
0000
0100
0000
0100
0000
0100
,
0000
0000
0100
0000
,
1000
0000
0000
1000
0000
0000
0000
1000
,
0000
0000
1000
1000
,
0001
0000
0000
0001
0000
0000
0000
0001
,
0000
0000
0001
0001
,
0100
0000
0000
0100
0000
0000
0000
0100
,
0000
0000
0000
0100
0000
0000
0000
0000
,
0010
0000
0000
0010
0000
0010
0000
0010
,
0000
0000
0010
0000
,
1000
0000
0001
0100
0000
0000
0001
0100
,
0100
0000
1000
0100
0120
0000
1000
0030
,
0001
0000
0010
0001
0000
0000
0010
0001
,
0001
0000
0100
0001
2001
0000
0100
0000
,
3010
0000
0001
0010
0000
0000
0001
0010
,
0010
0000
0100
0010
0012
0000
0100
0000
,
1003
0000
0010
1000
0000
0000
0010
1000
,
0000
0001
0000
0100
0100
0000
0000
1000
,
0100
0100
0100
0100
,
0001
0001
0001
0001
,
2000
0000
0000
0000
3001
0100
0000
1000
,
0000
0010
0000
0002
0000
0000
0000
0003
,
1000
1000
1000
1000
,
0010
0010
0010
0010
,
0020
0000
0000
2030
0000
0000
3002
0000
,
0000
0203
0000
0000
0302
0000
0000
0000
,
1003
1000
0001
0001
,
0010
0010
0100
0100
,
0002
0000
0000
0000
0000
0000
0000
0103
,
0000
0001
1000
0020
0000
0000
0000
0030
,
0100
0100
0010
0010
,
1000
1000
0001
0001
,
0010
1000
0001
0010
1000
0001
0010
1000
,
0001
0010
1000
0001
0010
1000
0001
0100
,
0010
0010
1000
1000
,
0001
0001
0100
0100
,
0001
0000
1000
0010
0000
0100
0000
0000
,
0010
1000
0000
0001
0000
0100
0000
0000
,
0010
0000
0000
0010
0000
0010
0000
0000
,
1000
0000
0000
1000
0000
1000
0000
0000
,
0200
0000
0000
0000
,
0000
0000
0000
0000
,
0320
0000
0000
0031
,
0001
0000
0100
0100
0000
0100
0000
2000
,
0000
0000
0000
0000
0001
0100
0000
0100
,
0000
0100
0000
0200
3000
0001
1300
0001
,
0010
0000
0010
0020
0000
0000
0000
0000
,
0000
0000
0000
0000
0030
1000
0100
1000
,
0001
0100
1000
0010
0100
1000
0000
0001
,
0000
0100
0000
1000
0000
0020
0000
0000
,
1030
0001
0100
0000
0100
0000
0001
1000
,
0000
0010
0000
0001
0000
1000
0010
1000
,
0200
0000
0000
0000
0000
0000
0000
0301
,
0000
1000
0000
0020
0000
0000
0030
0000
,
0001
0001
1000
1000
,
0100
0100
0010
0010
,
0020
0000
0000
0000
,
0000
0000
0000
0000
,
0031
0001
1000
1000
,
0100
0100
0010
0010
,
0100
0000
1000
0001
0000
0001
0000
0000
,
1000
0010
0000
0001
0000
0100
0000
1000
,
0010
0000
0000
0010
0000
0010
0000
0000
,
1000
0000
0000
1000
0000
1000
0000
0000
,
0200
0000
0000
0000
,
0301
0000
0000
0000
,
0100
0000
0000
0000
0000
0000
0100
0000
0000
0000
0000
0000
0010
0000
0000
0000
0000
0010
0000
0000
0001
0000
0000
0000
0001
0000
0000
0000
0000
0000
0000
0000
,
1000
0000
0000
0000
;

//---------------dance-single - ----------------
#NOTES:
     dance-single:
     :
     Challenge:
     16:
     0.884370,1.023659,1.458560,0.662982,0.323204,747.000000,568.000000,176.000000,80.000000,0.000000,33.000000,0.884370,1.023659,1.458560,0.662982,0.323204,747.000000,568.000000,176.000000,80.000000,0.000000,33.000000:
0000
0000
0000
0000
,
0000
0000
0000
0000
,
1001
0000
0101
0010
0000
0100
1001
1000
,
1001
0000
0000
0000
0110
0000
0010
1000
0001
0000
0100
0000
1001
0000
2000
0000
,
3100
0000
1001
0010
1000
0010
1001
0100
,
1000
0000
0010
0000
0101
0000
0001
0010
1000
0000
0100
0000
1010
0000
0200
0000
,
0312
0000
0013
0100
0000
1001
0110
0000
,
1001
0000
0000
0000
1001
0000
0100
1000
0001
0000
0010
0000
0100
0000
0020
0000
,
1130
0000
0010
0101
0000
0010
1001
0000
,
0100
0010
0100
0000
0000
0000
0001
0000
0101
0000
2000
0000
3101
0000
0002
0000
,
2023
0000
0000
0000
0000
0000
0000
0000
0000
0000
0000
0000
3030
0000
0100
0010
,
2000
0000
0000
3002
0000
0223
0000
0330
,
1001
1100
0110
1001
,
0011
0000
0110
0000
1001
0200
1301
0000
,
0111
1100
0101
1010
,
0101
0000
1010
0000
1100
0020
1031
0000
,
1011
1100
1001
0110
,
0101
0000
1010
0000
0110
0002
1103
0000
,
0110
0101
1010
1100
,
1010
0000
0000
0000
0101
0000
0000
0000
1010
0000
0100
0001
1100
0000
0200
0000
,
1310
0101
1010
0110
,
0101
0000
1010
0000
0101
0002
1103
0000
,
1110
1100
1010
0101
,
1010
0000
0101
0000
0110
0002
1103
0000
,
1010
0101
1010
1001
,
0101
0000
1010
0000
0101
0020
1031
0000
,
0110
0101
1100
1010
,
0101
0000
0000
0000
1100
0000
1000
0001
1000
0001
1000
0001
2000
0000
0000
0000
,
3002
0000
0000
1103
0000
0110
0000
0101
,
0100
0000
0000
0000
0100
0000
0010
0001
0100
0000
1000
0000
0100
0000
0002
0000
,
0113
0000
0000
1001
0000
0110
0000
0101
,
0100
0000
0000
0000
1001
0000
1000
0100
0010
0000
0100
0000
0010
0000
1000
0000
,
0010
0000
0100
0110
0000
1100
0000
0110
,
0010
0000
1001
0001
1000
0010
0100
0002
,
1003
0000
0000
1001
0100
1001
0010
1100
,
0000
0000
0210
0000
0301
0000
1020
0000
2030
0000
3000
0000
0000
0000
0001
1000
,
0001
0000
0010
0000
1000
0000
0100
0001
0010
0000
0100
0000
1001
0000
0200
0000
,
0301
0000
0010
0000
1001
0000
0001
0100
1000
0000
0010
0000
1001
0000
0001
0000
,
2000
0000
0101
0000
0010
0110
0000
0101
,
0000
0000
0011
0000
0000
0000
3120
0000
0000
0000
1000
0000
0100
0000
0031
0100
,
1000
0100
0001
0120
1001
0000
1100
0002
,
0103
0000
0000
0000
1130
0000
0010
0100
1001
0000
0100
0000
0001
0000
0100
0000
,
1001
0000
0100
0000
0001
0000
1100
0000
0001
0000
0110
0000
1001
0000
0001
0010
,
0100
0000
1001
0000
0010
0000
0100
0000
1001
0000
0000
0100
0001
0000
0001
0100
,
0001
0000
0010
0000
1000
0000
0100
0001
0010
0000
1000
0000
0100
0000
0002
0000
,
0013
0000
0100
0000
0001
0000
1000
0100
0010
0000
0100
0000
0001
0000
1000
0000
,
0102
0000
0000
0000
1000
0000
0010
0100
1000
0000
0000
0000
0000
0000
2200
0000
,
3300
0000
2000
0000
3023
0000
0230
0000
0000
0000
0300
0000
0020
0000
1000
0100
,
1032
0000
0000
1013
0000
0110
0000
0020
,
0131
0000
1000
0010
0000
0100
1100
0000
,
1001
0000
0100
0000
0010
0000
1001
0000
0010
0000
0100
0000
1001
0000
1000
0100
,
0010
0000
0100
0000
0010
0000
0001
0000
1001
0000
0000
0010
1000
0000
1000
0001
,
1100
0000
1100
0000
1010
0000
1001
0002
,
1103
0000
0000
0000
0010
0000
0100
1000
0010
0000
0100
0000
0010
0000
2000
0000
,
0000
0000
3100
0002
0000
0103
0000
2000
,
3100
0000
0020
0000
0000
0000
0230
0000
0000
0000
2300
0000
3001
0000
0100
0010
,
1100
0000
0000
0000
1000
0000
0110
0000
0000
0000
0101
0000
1000
0100
0010
0100
,
1001
0000
1000
0000
1001
0000
2001
0000
3000
0000
0101
1000
0010
0000
1001
0000
,
1000
0110
0110
0001
1100
0110
0010
0101
,
0101
0000
0010
1000
0001
0000
0010
0001
1000
0000
0100
1000
0001
0010
0100
0001
,
1000
0000
0100
0000
0010
0000
0100
0001
1000
0000
0100
0000
0010
0000
0002
0000
,
0103
0000
0010
0000
1000
0000
0001
0010
0100
0000
1000
0000
0100
0000
0010
0001
,
0100
0000
1000
0000
0100
0000
0001
0010
1100
0000
1001
0000
0100
0000
1002
0000
,
0013
0000
0110
0000
1000
0000
0120
0001
1000
0000
0100
0000
1030
0000
0001
1000
,
0010
0000
0100
0000
1000
0000
0100
0001
0010
0000
0100
0000
1000
0000
0200
0000
,
0301
0000
0010
0000
0100
0000
0001
0010
1000
0000
0100
0000
0010
0000
0100
0000
,
0101
0000
0010
0000
1000
0000
1001
0000
0100
0000
1100
0000
1001
0000
0100
0010
,
0100
0000
1001
0000
0000
0000
0100
0000
1001
0000
0000
0010
0100
0010
0100
0010
,
0100
0000
0001
0000
1000
0000
0100
0001
0010
0000
0100
0000
1000
0000
0200
0000
,
0301
0000
0010
0000
0100
0000
0001
0100
1000
0000
0010
0000
0100
0000
0001
0000
,
0200
0000
0000
0000
0000
0000
0310
0001
1000
0000
0001
0000
0000
0000
2200
0000
,
3300
0000
0202
0000
0303
0000
0220
0000
0000
0000
0330
0000
0011
0000
0100
1000
,
0102
0000
0023
0230
0000
0000
0000
0302
,
2013
0000
0000
0000
3100
0000
0001
0000
0000
0000
1001
0000
0000
0000
0010
0001
,
1100
0000
0000
0010
0100
0000
1100
0000
0000
0001
0010
0000
1100
0000
0000
0100
,
0001
0010
1100
0000
0000
0000
0100
0000
0010
0000
1000
0010
0100
0000
0010
0001
,
0010
0000
1000
0000
0001
0000
0010
1000
0100
0000
0010
0000
0001
0000
0020
0000
,
0130
0000
0001
0000
1000
0000
0100
0010
1000
0000
0100
0000
0010
0000
0200
0000
,
0000
0000
0000
0000
0302
0000
2003
0000
3000
0000
0120
0000
0030
0000
0100
0001
,
0010
0000
0000
0010
1000
0000
0000
0000
0010
0100
1000
0100
0010
0001
1000
0100
,
0020
0000
0030
0000
0001
0000
0101
0000
0000
0000
0010
0000
1001
0000
0001
0100
,
0010
0001
1000
0100
1000
0100
1000
0001
0010
0100
1000
0100
0010
0100
2000
0000
,
0000
0100
0000
0100
,
3002
0000
0000
0000
0000
0000
0000
0000
0003
0000
0100
0001
0100
0000
0110
0000
,
2000
0000
0000
0000
0000
0000
3200
0000
0000
0000
0000
0000
0320
0000
0000
0000
0000
0002
0030
0000
0203
0000
0000
0000
0020
0000
0000
0000
0000
0000
0000
0000
,
0000
0000
0000
0330
0000
0000
0000
0000
0000
0000
0000
0000
0000
0000
0000
0000
;

//---------------dance-single - Copied from----------------
#NOTES:
     dance-single:
     Copied from:
     Hard:
     13:
     0.613258,0.777139,0.588396,0.207182,0.053867,518.000000,447.000000,71.000000,25.000000,0.000000,0.000000,0.613258,0.777139,0.588396,0.207182,0.053867,518.000000,447.000000,71.000000,25.000000,0.000000,0.000000:
// measure 0
0000
0000
0000
0000
,  // measure 1
0000
0000
0000
0000
,  // measure 2
1010
0000
0001
1000
0000
1000
0010
1000
,  // measure 3
0001
0000
0100
0010
0001
0010
0100
2000
,  // measure 4
0001
0000
0010
0000
0001
0000
0100
3000
,  // measure 5
0010
0100
0001
0100
0010
0000
1001
0000
,  // measure 6
1000
0100
1000
0001
1000
0000
0110
0000
,  // measure 7
0001
0010
0100
0010
0001
0000
1001
0000
,  // measure 8
0010
0000
0010
1000
0000
1000
0010
0000
,  // measure 9
0010
0100
0000
0100
0001
0100
0001
0100
,  // measure 10
0002
0000
0000
0000
0000
0000
0000
0003
,  // measure 11
1010
0000
0000
0000
0000
0000
0000
0110
0000
0000
0110
0000
0000
0000
0000
0000
,  // measure 12
1010
0000
0010
1000
0001
1000
0010
1000
,  // measure 13
0002
0000
0100
0000
1000
0000
0010
0003
,  // measure 14
1100
0000
0010
1000
0001
1000
0100
1000
,  // measure 15
0002
0000
0010
0000
1000
0000
0100
0003
,  // measure 16
0110
0000
0001
0010
0100
0010
0001
0010
,  // measure 17
0100
0000
1000
0010
1000
0001
1000
0010
,  // measure 18
1000
0000
0100
0010
0001
0010
0100
1000
,  // measure 19
0001
1000
0010
1010
,  // measure 20
0001
0000
0100
0000
0010
0100
0001
0100
,  // measure 21
0020
0000
1000
0000
0100
0000
0001
0030
,  // measure 22
1000
0000
0001
1000
0100
1000
0001
1000
,  // measure 23
0002
0000
0010
0000
1000
0000
0100
0003
,  // measure 24
0010
0000
1000
0000
0100
1000
0001
1000
,  // measure 25
0010
0100
0001
0010
,  // measure 26
0100
1000
0010
0001
,  // measure 27
1001
0000
0000
0000
0000
0000
0100
1000
0001
1000
0010
1000
0002
0000
0000
0000
,  // measure 28
0013
0000
0000
0110
0000
0110
0000
0120
,  // measure 29
0000
1000
0100
1030
,  // measure 30
1001
0000
0000
1001
0000
1001
0000
2001
,  // measure 31
0000
0010
0100
3010
,  // measure 32
0101
0000
0010
0100
0000
0001
0000
2000
,  // measure 33
0000
0000
3100
0000
0010
0100
0001
0200
,  // measure 34
0000
0000
0301
0000
0010
1000
0001
1000
,  // measure 35
0000
0100
0000
0100
1000
0000
0000
0000
,  // measure 36
1010
1001
0110
0011
,  // measure 37
1100
1001
0110
0011
,  // measure 38
2100
0000
0001
0000
0010
0001
0000
0100
,  // measure 39
0000
0010
0000
3001
0000
0100
0010
0100
,  // measure 40
0010
0000
1000
0002
0010
0000
1000
0000
,  // measure 41
0100
0000
0010
0000
1003
0010
1000
0001
,  // measure 42
1010
0010
0100
0011
0100
1000
1001
0010
,  // measure 43
0100
0011
0100
1000
1001
0000
1001
0000
,  // measure 44
1001
0000
0010
0000
0001
0000
0010
0100
,  // measure 45
0000
0010
0000
0001
0100
1000
0001
1000
,  // measure 46
0020
0000
0100
0000
0000
0000
0130
0001
,  // measure 47
0000
0001
0100
0002
0000
0000
0100
0000
,  // measure 48
1003
0000
0010
0100
0000
0100
0010
1000
,  // measure 49
0001
0000
0100
0010
0000
0010
0001
0000
,  // measure 50
1010
0010
0100
0011
0100
1000
1001
0010
,  // measure 51
0100
0011
0100
1000
1001
0000
1010
0000
,  // measure 52
1001
0000
0010
0100
0001
0100
0010
0100
,  // measure 53
0001
0000
1000
0100
1000
0001
1000
0010
,  // measure 54
0200
0001
0010
0301
,  // measure 55
0100
1000
0001
1000
0010
1000
0001
0000
,  // measure 56
0011
0000
0000
1100
0000
0110
0000
0000
,  // measure 57
1001
0000
0000
0110
0000
0011
0000
0000
,  // measure 58
0100
1000
0001
1000
0010
1000
0001
0010
,  // measure 59
0100
0010
0001
1000
0010
0100
0001
1000
,  // measure 60
0002
1000
0010
1003
,  // measure 61
0100
0000
0010
0001
0000
1000
0000
0020
,  // measure 62
0000
0000
0100
0000
1030
0001
0000
0100
,  // measure 63
0000
0010
0000
2000
0000
0100
0001
0010
,  // measure 64
3001
0000
0100
0020
0000
0000
1000
0000
,  // measure 65
0100
0000
0001
0000
1030
0001
1000
0010
,  // measure 66
0011
0100
1000
1001
0010
0100
0011
0100
,  // measure 67
1000
1001
0010
0100
0011
0000
1100
0000
,  // measure 68
1001
0010
0100
0001
0100
0010
1000
0100
,  // measure 69
1000
0001
1000
0100
1000
0001
1000
0010
,  // measure 70
0200
0000
0001
0000
1000
0000
0001
0300
,  // measure 71
0020
1000
0100
0031
,  // measure 72
1001
0000
0100
1000
0001
1000
0100
1000
,  // measure 73
0001
0000
0010
0100
0001
0010
0100
0000
,  // measure 74
1001
0000
0000
0110
0000
0000
0110
0000
,  // measure 75
0000
0011
0000
0000
1100
0000
1001
0000
,  // measure 76
0110
0000
0001
1000
0100
1000
0001
1000
,  // measure 77
1010
0000
0100
0010
0001
0010
0100
0010
,  // measure 78
0101
0000
1000
0010
1000
0001
1000
0100
,  // measure 79
1000
0001
0100
0010
1000
0001
0010
0100
,  // measure 80
1001
0000
0000
0110
0000
0011
0000
0000
,  // measure 81
0100
0001
0100
0010
0100
0001
0100
0010
0100
0001
0100
0010
0100
0001
0200
0000
,  // measure 82
0000
1000
0000
1300
,  // measure 83
0110
0000
0000
0000
,  // measure 84
1020
0000
0000
0000
0000
0000
0001
0000
0000
0000
0000
0000
1000
0000
0000
0000
0000
0100
0000
0000
0000
0000
0000
0000
2030
0000
0000
0000
0000
0000
0000
0000
,  // measure 85
0000
3000
0000
0000
;

//---------------dance-single - Copied from----------------
#NOTES:
     dance-single:
     Copied from:
     Beginner:
     3:
     0.137332,0.211325,0.016575,0.132596,0.000000,116.000000,114.000000,2.000000,16.000000,0.000000,0.000000,0.137332,0.211325,0.016575,0.132596,0.000000,116.000000,114.000000,2.000000,16.000000,0.000000,0.000000:
0000
0000
0000
0000
,
0000
0000
0000
0000
,
1000
0000
0000
0000
,
1000
0000
0000
0000
,
0001
0000
0100
0000
,
1000
0000
0000
0000
,
0010
0000
0000
0000
,
0010
0000
0000
0000
,
1000
0000
1000
0000
,
1000
0000
1000
0000
,
2002
0000
0000
0000
,
3003
0000
0000
0000
,
0001
0000
0001
0000
,
0001
0000
0000
0000
,
1000
0000
1000
0000
,
1000
0000
0000
0000
,
0100
0000
0100
0000
,
0100
0000
0000
0000
,
0010
0000
0010
0000
,
0010
0000
0000
0000
,
1000
0000
0001
0000
,
1000
0000
0000
0000
,
0100
0000
0100
0000
,
0010
0000
0000
0000
,
0001
0000
0001
0000
,
0001
0000
0000
0000
,
0100
0000
0010
0000
,
0100
0000
0000
0000
,
1000
0000
1000
0000
,
1000
0000
0000
0000
,
0001
0000
0100
0000
,
0001
0000
0000
0000
,
1000
0000
1000
0000
,
1000
0000
0000
0000
,
0001
0000
0001
0000
,
0002
0000
0000
0000
0000
0003
0000
0000
,
1000
0000
1000
0000
,
0100
0000
0100
0000
,
0002
0000
0000
0000
,
0000
0003
0000
0000
,
1000
0000
1000
0000
,
0001
0000
0001
0000
,
0100
0000
0000
0100
0000
0000
0100
0000
,
0000
0100
0000
0000
0100
0000
0000
0000
,
0001
0000
0001
0000
,
1000
0000
1000
0000
,
0002
0000
0000
0000
,
0000
0000
0000
0003
0000
0000
0000
0000
,
1000
0000
0100
0000
,
1000
0000
0010
0000
,
0001
0000
0001
0000
,
0001
0000
0001
0000
,
0001
0000
1000
0000
,
0001
0000
1000
0000
,
0010
0000
0100
0000
,
0001
0000
1000
0000
,
0002
0000
0000
0000
,
0000
0000
0003
0000
,
1000
0000
0000
0000
,
1000
0000
0000
0000
,
2000
0000
0000
0000
0000
0000
0000
3000
,
0200
0000
0000
0300
,
0002
0000
0000
0003
,
2000
0000
0000
3000
,
0200
0000
0000
0300
,
0020
0000
0000
0030
,
1000
0000
0000
0000
,
1000
0000
0000
0000
,
1000
0000
0000
0000
,
0001
0000
0000
0000
,
0001
0000
0000
0000
,
0001
0000
0000
0000
,
1000
0000
0000
0000
,
0001
0000
0000
0000
,
0100
0000
0000
0000
,
0110
0000
0000
0000
,
0100
0000
0100
0000
,
1000
0000
0000
0000
,
1000
0000
1000
0000
,
0001
0000
0000
0000
,
0200
0000
0000
0000
,
0002
0000
0000
0000
0003
0300
0000
0000
,
2000
0000
0000
0000
,
3000
0000
0000
0000
,
1000
0000
1000
2000
,
3000
0000
0000
0000
;
