#VERSION:0.83;
#TITLE:Dear Future Husband;
#SUBTITLE:;
#ARTIST:Meghan Trainor;
#TITLETRANSLIT:;
#SUBTITLETRANSLIT:;
#ARTISTTRANSLIT:;
#GENRE:;
#ORIGIN:;
#CREDIT:;
#BANNER:AV.avi;
#BACKGROUND:DearFutureHusband-bg.png;
#PREVIEWVID:;
#JACKET:;
#CDIMAGE:;
#DISCIMAGE:;
#LYRICSPATH:;
#CDTITLE:;
#MUSIC:meghan trainor - dear future husband.mp3;
#OFFSET:0.020000;
#SAMPLESTART:84.919998;
#SAMPLELENGTH:12.000000;
#SELECTABLE:YES;
#BPMS:0.000=158.970,
160.333=79.485,
176.333=158.970,
272.333=79.485;
#STOPS:;
#DELAYS:;
#WARPS:;
#TIMESIGNATURES:0.000=4=4;
#TICKCOUNTS:0.000=4;
#COMBOS:0.000=1;
#SPEEDS:0.000=1.000=0.000=0;
#SCROLLS:0.000=1.000;
#FAKES:;
#LABELS:0.000=Song Start;
#BGCHANGES:0.000=MV.avi=1.000=1=0=1===CrossFade==,
99999=-nosongbg-=1.000=0=0=0 // don't automatically add -songbackground-
;
#KEYSOUNDS:;
#ATTACKS:
;

//---------------dance-single - ----------------
#NOTEDATA:;
#CHARTNAME:;
#STEPSTYPE:dance-single;
#DESCRIPTION:;
#CHARTSTYLE:;
#DIFFICULTY:Challenge;
#METER:12;
#RADARVALUES:0.574019,0.800729,0.515145,0.000000,1.064634,468.000000,408.000000,60.000000,0.000000,0.000000,0.000000,0.000000,0.000000,0.000000,0.574019,0.800729,0.515145,0.000000,1.064634,468.000000,408.000000,60.000000,0.000000,0.000000,0.000000,0.000000,0.000000,0.000000;
#CREDIT:;
#NOTES:
// measure 0
0000
0000
0000
1100
0000
0000
1000
0010
0000
0100
0010
0000
,  // measure 1
0000
0100
0000
0001
0000
0000
0001
1000
0000
1000
0001
0000
,  // measure 2
0000
0100
0000
1000
0100
0000
0010
0100
0000
1000
0100
0000
,  // measure 3
0010
0100
0000
1000
0100
0000
0010
0100
0000
1000
0100
0000
,  // measure 4
0000
1000
0000
0010
0100
0000
0001
1000
0000
0010
0100
0000
,  // measure 5
0000
0010
0000
1000
0100
0000
0010
0100
0000
1000
0010
0000
,  // measure 6
0000
0100
0000
0000
0100
0000
0100
0010
0000
0000
0010
0000
,  // measure 7
0000
0010
0000
0000
0010
0000
1000
0100
0010
0001
1000
0000
,  // measure 8
0100
1000
0000
0100
0010
0000
0001
0010
0000
0001
0010
0000
,  // measure 9
0000
0100
0000
1000
0100
0000
1000
0100
0000
0100
1000
0000
,  // measure 10
0000
0010
0000
0100
0001
0000
0010
0001
0000
0100
0001
0000
,  // measure 11
0010
0001
0000
0100
0001
0000
0010
0001
0000
0100
0001
0000
,  // measure 12
0000
0010
0000
1000
0001
0000
1000
0010
0000
0100
0010
0000
,  // measure 13
0000
0001
0000
1000
0001
0000
1000
0010
0000
1000
0001
0000
,  // measure 14
0000
0100
0000
0010
0100
0000
0010
0100
0000
0000
1000
0000
,  // measure 15
0000
1000
0000
0010
1000
0000
0010
1000
0000
0000
0001
0000
,  // measure 16
0001
0100
0000
0000
1000
0000
0000
0100
0000
0000
0010
0000
,  // measure 17
0001
0000
0000
0100
0000
0000
0100
0001
0000
0001
1000
0000
,  // measure 18
1000
0001
0000
0000
0001
0000
0000
1010
0000
0000
1001
0000
,  // measure 19
0000
1010
0000
1000
0000
0000
1000
0100
0000
0100
0010
0000
,  // measure 20
0010
0001
0000
0000
1001
0000
0000
1010
0000
0000
0110
0000
,  // measure 21
0100
0000
0000
1000
0010
0000
0100
0001
0000
0100
0000
0000
,  // measure 22
1010
0000
0000
0000
1001
0000
1010
0000
0000
0000
0110
0000
,  // measure 23
1010
0000
0000
1001
0000
0000
1010
0000
0000
1000
0100
0010
,  // measure 24
0100
1000
0000
0000
0110
0000
0000
0110
0000
0000
0001
0000
,  // measure 25
1000
0000
0000
1000
0000
0000
0001
0000
0000
0100
0010
0000
,  // measure 26
0100
0010
0000
0000
1001
0000
0000
1010
0000
0000
0100
0000
,  // measure 27
0010
0100
1000
1000
,  // measure 28
0001
1000
0000
0000
1100
0000
0000
0011
0000
0000
1100
0000
,  // measure 29
0001
0000
0000
0100
0000
0000
1010
0000
0000
0000
1001
0000
,  // measure 30
1010
0000
0000
0000
0100
0000
0010
0000
0000
0100
0000
0000
,  // measure 31
0001
0000
0000
1000
0000
0000
0010
0000
0000
0100
1000
0100
,  // measure 32
1000
0001
0000
0000
0110
0000
0000
0101
0000
0000
0110
0000
,  // measure 33
0101
0000
0000
0110
0000
0000
1000
0000
0000
1000
0010
0000
,  // measure 34
1000
0010
0000
0000
0100
0000
0000
0010
0000
0000
0100
0000
,  // measure 35
0001
1000
0001
1000
,  // measure 36
0010
0100
0000
0000
1000
0000
0000
0100
0000
0000
1000
0000
,  // measure 37
0010
0000
0000
0100
0000
0000
0001
0000
0000
0000
1000
0000
,  // measure 38
1000
0010
0000
0000
0110
0000
0000
0110
0000
0000
0110
0000
,  // measure 39
0000
0101
0000
0000
0101
0000
0000
0110
0000
0101
0000
0010
,  // measure 40
0100
0000
1000
0000
0000
1000
0000
0100
0010
0000
1000
0001
0000
0100
0010
0000
1000
0001
0000
0100
0010
0000
0000
1010
,  // measure 41
0000
0000
0000
0000
0000
0100
0000
0010
0100
0000
0100
0001
0000
0010
0100
0000
1000
0010
0000
0100
0000
0000
0000
1000
,  // measure 42
0000
0000
0010
0000
1000
0100
0000
0010
0001
0000
1000
0010
0000
0000
0100
0000
0010
1000
0000
0001
0100
0000
0010
1000
,  // measure 43
0000
0000
0001
0000
0000
0001
0000
1000
0001
0000
0000
0001
0000
0000
0001
0000
0000
0001
0000
1000
0001
0000
0001
1000
,  // measure 44
0000
1001
0000
0000
0010
0000
0000
0100
0000
0000
0010
0000
,  // measure 45
1000
0000
0000
1000
0000
0000
0100
0010
0000
0001
1000
0000
,  // measure 46
0010
0100
0000
0000
0001
0000
0000
0001
0000
0000
1000
0000
,  // measure 47
0000
0010
0000
1000
0000
0000
1000
0100
0000
0100
0010
0000
,  // measure 48
0010
0001
0000
0000
1000
0000
0000
1000
0000
0000
1000
0000
,  // measure 49
0010
0000
0000
0010
0100
0000
0001
1000
0000
0100
0000
0000
,  // measure 50
0010
0000
0000
0000
0001
0000
0001
0000
0000
0000
0010
0000
,  // measure 51
0000
0010
1000
0001
0100
0010
1000
0001
0100
0001
0010
0001
,  // measure 52
0100
0010
0000
0000
0110
0000
0000
0110
0000
0000
1000
0000
,  // measure 53
0001
0000
0000
0001
0000
0000
1000
0000
0000
0010
0100
0000
,  // measure 54
0010
0100
0000
0000
1001
0000
0000
0101
0000
0000
0010
0000
,  // measure 55
0100
0010
0001
0001
,  // measure 56
1000
0001
0000
0000
0011
0000
0000
1100
0000
0000
0011
0000
,  // measure 57
1000
0000
0000
0010
0000
0000
0101
0000
0000
0000
1001
0000
,  // measure 58
0101
0000
0000
0000
0010
0000
0100
0000
0000
0010
0000
0000
,  // measure 59
1000
0000
0000
0001
0000
0000
0100
0000
0000
0010
0001
0010
,  // measure 60
0001
1000
0000
0000
0110
0000
0000
1010
0000
0000
0110
0000
,  // measure 61
1010
0000
0000
0110
0000
0000
0001
0000
0000
0001
0100
0000
,  // measure 62
0001
0100
0000
0000
0010
0000
0000
0100
0000
0000
0010
0000
,  // measure 63
1000
0001
1000
0001
,  // measure 64
0100
0010
0000
0000
0001
0000
0000
0010
0000
0000
0000
0000
,  // measure 65
0100
0000
0000
0010
0000
0000
1000
0000
0000
0000
0001
0000
,  // measure 66
0001
0100
0000
0000
0110
0000
0000
0110
0000
0000
0110
0000
,  // measure 67
0000
1010
0000
0000
1010
0000
0000
0110
0000
0001
1000
0100
,  // measure 68
0010
0000
0001
0000
0000
0010
0000
0000
0000
0000
0000
0010
0000
0000
0000
0000
0000
1000
0000
0010
0000
0000
0000
0010
,  // measure 69
0000
1001
0000
0000
0000
0000
0000
0000
0000
0000
0000
0000
;

//---------------dance-single - Copied from----------------
#NOTEDATA:;
#CHARTNAME:Copied from;
#STEPSTYPE:dance-single;
#DESCRIPTION:Copied from;
#CHARTSTYLE:;
#DIFFICULTY:Hard;
#METER:9;
#RADARVALUES:0.450139,0.504163,0.025757,0.000000,1.098977,367.000000,364.000000,3.000000,0.000000,0.000000,0.000000,0.000000,0.000000,0.000000,0.450139,0.504163,0.025757,0.000000,1.098977,367.000000,364.000000,3.000000,0.000000,0.000000,0.000000,0.000000,0.000000,0.000000;
#CREDIT:Copied from;
#NOTES:
0000
0000
0000
0100
0000
0000
0100
1000
0000
0100
1000
0000
,
0000
0000
0000
0010
0000
0000
0010
0100
0000
0010
0100
0000
,
0000
0000
0000
1000
0100
0000
0010
0001
0000
1000
0100
0000
,
0010
0001
0000
1000
0100
0000
0010
0001
0000
1000
0100
0000
,
0000
0000
0000
1000
0100
0000
0010
0001
0000
1000
0010
0000
,
0000
0000
0000
0100
0010
0000
1000
0001
0000
0010
0100
0000
,
0000
1000
0000
0000
0001
0000
0000
0000
0000
0000
0001
0000
,
0000
0000
0000
0000
0001
0000
1000
0100
0010
0001
0010
0000
,
0100
0010
0000
0100
0010
0000
0001
0100
0000
0010
1000
0000
,
0000
0000
0000
0001
1000
0000
0010
0100
0000
0001
1000
0000
,
0000
0000
0000
1000
0100
0000
0010
0001
0000
1000
0010
0000
,
0100
0001
0000
1000
0100
0000
0010
0001
0000
1000
0010
0000
,
0000
0000
0000
0001
1000
0000
0001
0100
0000
0001
1000
0000
,
0000
0000
0000
0001
1000
0000
0010
1000
0000
0001
1000
0000
,
0000
0010
0000
0000
0100
0000
0000
0000
0000
0000
0010
0000
,
0000
0000
0000
0000
0010
0000
0100
0010
0000
0000
1001
0000
,
0001
1000
0000
0000
0010
0000
0000
1000
0000
0000
0100
0000
,
0000
0010
0000
0000
0001
0000
1000
0000
0000
1000
0010
0000
,
0000
0010
0000
0000
0001
0000
1000
0000
0000
0000
0010
0000
,
0000
0100
0000
0000
0001
0000
1000
0000
0000
0000
0100
0000
,
0000
0010
0000
0000
0001
0000
1000
0000
0000
0000
0010
0000
,
0000
0100
0000
0000
0001
0000
1000
0000
0000
0000
0010
0000
,
0000
0100
0000
0000
0001
0000
0100
0000
0000
0000
0001
0000
,
1000
0000
0000
1000
0000
0000
1000
0000
0000
1000
0100
0010
,
0001
1000
0000
0000
0010
0000
0000
0100
0000
0000
0010
0000
,
0000
0100
0000
0000
0001
0000
1000
0000
0000
1000
0001
0000
,
0001
1000
0000
0000
0010
0000
0000
0100
0000
0000
0001
0000
,
0000
0010
0000
0000
0100
0000
1000
0000
0000
1000
0100
0000
,
1000
0100
0000
0000
0010
0000
0000
0100
0000
0000
0001
0000
,
0000
1000
0000
0000
0100
0000
0010
0000
0000
0001
1000
0000
,
0001
1000
0000
0000
0010
0000
0000
0100
0000
0000
0001
0000
,
0000
1000
0000
0000
0100
0000
0000
0010
0000
0001
1000
0000
,
0001
1000
0000
0000
0010
0000
0000
0100
0000
0000
0001
0000
,
0000
1000
0000
0000
0100
0000
0010
0000
0000
0010
0100
0000
,
0010
0100
0000
0000
1000
0000
0000
0001
0000
0000
0100
0000
,
0000
0010
0000
0000
1000
0000
0010
0000
0000
0100
0010
0000
,
0100
0010
0000
0000
1000
0000
0000
0100
0000
0000
0010
0000
,
0000
0001
0000
0000
1000
0000
0001
0000
0000
0001
1000
0000
,
0001
1000
0000
0000
0010
0000
0000
0100
0000
0000
0001
0000
,
0000
1000
0000
0000
0100
0000
0000
0010
0000
0001
0000
0000
,
0100
0000
1100
0000
0000
0001
0000
0000
0000
0000
0000
0001
0000
0000
0000
0000
0000
0001
0000
0001
0000
0000
0000
1000
,
0000
0000
0000
0000
0000
0010
0000
0000
0000
0000
0000
0010
0000
0010
0000
0000
0000
0010
0000
0000
0000
0000
0000
0000
,
0000
0000
1000
0000
0000
0100
0000
0000
0010
0000
0000
0001
0000
0000
1000
0000
0000
0010
0000
0000
0100
0000
0000
0001
,
0000
0000
1000
0000
0000
0100
0000
0000
0000
0000
0000
0100
0000
0000
1000
0000
0000
0010
0000
0000
0100
0000
0000
0001
,
0000
1100
0000
0000
1000
0000
0000
0100
0000
0000
0100
0000
,
0000
0010
0000
0000
0010
0000
0000
0001
0000
0000
1000
0000
,
1000
0001
0000
0000
0010
0000
0000
0100
0000
0000
0001
0000
,
0000
1000
0000
0000
0100
0000
0000
0010
0000
0001
0010
0000
,
0001
0010
0000
0000
0100
0000
0000
1000
0000
0000
0001
0000
,
0000
0100
0000
0000
0010
0000
0000
1000
0000
0000
0100
0000
,
0000
0010
0000
0000
0001
0000
0001
0000
0000
0000
0100
0000
,
0000
1000
0100
0010
0001
1000
0010
0100
0001
1000
0100
0010
,
0001
1000
0000
0000
0010
0000
0000
0010
0000
0000
1000
0000
,
0000
0001
0000
0000
1000
0000
0001
0000
0000
0001
1000
0000
,
0001
1000
0000
0000
0010
0000
0000
0100
0000
0000
0010
0000
,
0000
1000
0000
0000
0100
0000
0010
0000
0000
0010
0001
0000
,
0010
0001
0000
0000
1000
0000
0000
0010
0000
0000
0100
0000
,
0000
0001
0000
0000
1000
0000
0100
0000
0000
1000
0100
0000
,
1000
0100
0000
0000
0010
0000
0000
0100
0000
0000
0010
0000
,
0000
1000
0000
0000
0001
0000
0000
1000
0000
0001
1000
0000
,
0001
1000
0000
0000
0010
0000
0000
0100
0000
0000
0010
0000
,
0000
1000
0000
0000
0001
0000
0010
0000
0000
0010
0100
0000
,
0100
0010
0000
0000
0001
0000
0000
1000
0000
0000
0010
0000
,
0000
1000
0000
0000
0010
0000
0100
0000
0000
0100
0010
0000
,
0100
0010
0000
0000
0001
0000
0000
1000
0000
0000
0100
0000
,
0000
1000
0000
0000
0001
0000
1000
0000
0000
0010
0100
0000
,
0010
0100
0000
0000
0001
0000
0000
1000
0000
0000
0100
0000
,
0000
1000
0000
0000
0001
0000
0010
0000
0000
0100
0010
0001
,
1000
0000
0100
0000
0000
0010
0000
0000
0000
0000
0000
0010
0000
0000
0000
0000
0000
0010
0000
0010
0000
0000
0000
0010
,
0000
0010
0000
0000
0000
0000
0000
0000
0000
0000
0000
0000
;

//---------------dance-single - Copied from Copied f----------------
#NOTEDATA:;
#CHARTNAME:Copied from Copied f;
#STEPSTYPE:dance-single;
#DESCRIPTION:Copied from Copied f;
#CHARTSTYLE:;
#DIFFICULTY:Medium;
#METER:5;
#RADARVALUES:0.295595,0.296566,0.000000,0.000000,0.970190,241.000000,241.000000,0.000000,0.000000,0.000000,0.000000,0.000000,0.000000,0.000000,0.295595,0.296566,0.000000,0.000000,0.970190,241.000000,241.000000,0.000000,0.000000,0.000000,0.000000,0.000000,0.000000,0.000000;
#CREDIT:Copied from Copied f;
#NOTES:
0000
0000
0000
0000
1000
0000
0000
0000
0000
0000
1000
0000
,
0000
0000
0000
0000
1000
0000
0000
0000
0000
0000
1000
0000
,
1000
0100
0000
0000
0001
0000
0000
0000
0000
0000
0001
0000
,
0000
0000
0000
0000
0001
0000
0000
0000
0000
0000
0001
0000
,
0001
0010
0000
0000
0100
0000
0000
0000
0000
0000
0100
0000
,
0000
0000
0000
0000
0100
0000
0000
0000
0000
0000
0100
0000
,
0100
1000
0000
0000
0010
0000
0000
0000
0000
0000
0010
0000
,
0000
0000
0000
0000
0010
0000
0000
1000
0000
0000
0100
0000
,
0000
0010
0000
0000
0001
0000
0000
0000
0000
0000
0001
0000
,
0000
0000
0000
0000
0001
0000
0000
0000
0000
0000
0001
0000
,
0001
1000
0000
0000
0010
0000
0000
0000
0000
0000
0010
0000
,
0000
0000
0000
0000
0010
0000
0000
0000
0000
0000
0010
0000
,
0010
0100
0000
0000
1000
0000
0000
0000
0000
0000
1000
0000
,
0000
0000
0000
0000
1000
0000
0000
0000
0000
1000
0000
0000
,
1000
0001
0000
0000
0100
0000
0000
0000
0000
0000
0100
0000
,
0000
0000
0000
0000
0100
0000
0000
0010
0000
0000
1000
0000
,
0000
0001
0000
0000
0001
0000
0000
1000
0000
0000
1000
0000
,
0000
0100
0000
0000
0100
0000
0000
0010
0000
0000
0000
0000
,
0000
0001
0000
0000
1000
0000
0000
0001
0000
0000
1000
0000
,
0000
0001
0000
0000
0001
0000
0000
0010
0000
0000
0000
0000
,
0000
1000
0000
0000
0100
0000
0000
1000
0000
0000
0100
0000
,
0000
0010
0000
0000
0001
0000
0000
0010
0000
0000
0001
0000
,
0000
1000
0000
0000
0100
0000
0000
0000
0000
0000
0100
0000
,
0000
0000
0000
0000
0100
0000
0000
1000
0000
0000
0100
0000
,
0000
1000
0000
0000
0010
0000
0000
0010
0000
0000
1000
0000
,
0000
1000
0000
0000
0001
0000
0000
0001
0000
0000
0000
0000
,
0000
0010
0000
0000
0010
0000
0000
0100
0000
0000
0100
0000
,
0000
0010
0000
0000
0100
0000
0000
0010
0000
0000
0000
0000
,
0000
1000
0000
0000
1000
0000
0000
0001
0000
0000
0001
0000
,
0000
0010
0000
0000
0010
0000
0000
0100
0000
0000
0000
0000
,
0000
1000
0000
0000
0100
0000
0000
1000
0000
0000
0000
0000
,
0000
0010
0000
0000
0001
0000
0000
0010
0000
0000
0000
0000
,
0000
1000
0000
0000
0010
0000
0000
1000
0000
0000
0000
0000
,
0000
0100
0000
0000
0100
0000
0000
1000
0000
0000
0000
0000
,
0000
0010
0000
0000
1000
0000
0000
0010
0000
0000
0000
0000
,
0000
0001
0000
0000
1000
0000
0000
0001
0000
0000
0000
0000
,
0000
0100
0000
0000
0100
0000
0000
1000
0000
0000
0000
0000
,
0000
0010
0000
0000
1000
0000
0000
0010
0000
0000
0000
0000
,
0000
0001
0000
0000
0100
0000
0000
0001
0000
0000
0000
0000
,
0000
1000
0000
0000
1000
0000
0000
0010
0000
0000
0000
0000
,
0000
0100
0000
0000
0100
0000
0000
0100
0000
0000
0000
0000
,
0000
1000
0000
0000
1000
0000
0000
1000
0000
0000
0000
0000
,
0000
0001
0000
0000
0001
0000
0000
0001
0000
0000
1000
0000
,
0000
0010
0000
0000
0010
0000
0000
0100
0000
0000
0100
0000
,
0000
0010
0000
0000
0000
0000
0000
0010
0000
0000
0000
0000
,
0000
1000
0000
0000
0000
0000
0000
0010
0000
0000
0000
0000
,
0000
1000
0000
0000
0001
0000
0000
1000
0000
0000
0001
0000
,
0000
1000
0000
0000
0000
0000
0000
0010
0000
0000
0000
0000
,
0000
0100
0000
0000
0010
0000
0000
0100
0000
0000
0010
0000
,
0000
1000
0000
0000
0000
0000
0000
0010
0000
0000
0000
0000
,
0000
1000
0000
0000
1000
0000
0000
0001
0000
0000
0001
0000
,
0000
0100
0000
0000
0100
0000
0000
0010
0000
0000
0100
0000
,
0000
0010
0000
0000
1000
0000
0000
1000
0000
0000
0001
0000
,
0000
0001
0000
0000
0100
0000
0000
0010
0000
0000
0010
0000
,
0010
0100
0000
0000
0001
0000
0000
0001
0000
0000
1000
0000
,
0000
0100
0000
0000
1000
0000
0000
0001
0000
0000
0001
0000
,
0001
1000
0000
0000
0010
0000
0000
1000
0000
0000
0100
0000
,
0000
0010
0000
0000
0001
0000
0000
1000
0000
0000
0010
0000
,
0010
1000
0000
0000
0001
0000
0000
0100
0000
0000
0010
0000
,
0000
0100
0000
0000
0001
0000
0000
1000
0000
0000
1000
0000
,
1000
0001
0000
0000
0010
0000
0000
0100
0000
0000
0001
0000
,
0000
1000
0000
0000
0100
0000
0000
0010
0000
0000
0001
0000
,
0001
0010
0000
0000
0100
0000
0000
1000
0000
0000
0001
0000
,
0000
0100
0000
0000
0010
0000
0000
1000
0000
0000
0001
0000
,
0001
0100
0000
0000
0010
0000
0000
1000
0000
0000
0100
0000
,
0000
0010
0000
0000
0001
0000
0000
1000
0000
0000
0010
0000
,
0010
1000
0000
0000
0100
0000
0000
1000
0000
0000
0001
0000
,
0000
1000
0000
0000
0010
0000
0000
0100
0000
0000
0010
0000
,
0010
1000
0000
0000
1000
0000
0000
1000
0000
0000
1000
0000
,
0000
1000
0000
0000
0000
0000
0000
0000
0000
0000
0000
0000
;

//---------------dance-single - Copied from Copied f----------------
#NOTEDATA:;
#CHARTNAME:Copied from Copied f;
#STEPSTYPE:dance-single;
#DESCRIPTION:Copied from Copied f;
#CHARTSTYLE:;
#DIFFICULTY:Easy;
#METER:3;
#RADARVALUES:0.209738,0.237253,0.000000,0.000000,0.734082,171.000000,171.000000,0.000000,0.000000,0.000000,0.000000,0.000000,0.000000,0.000000,0.209738,0.237253,0.000000,0.000000,0.734082,171.000000,171.000000,0.000000,0.000000,0.000000,0.000000,0.000000,0.000000,0.000000;
#CREDIT:Copied from Copied f;
#NOTES:
0000
0000
0000
0000
1000
0000
0000
0000
0000
0000
1000
0000
,
0000
0000
0000
0000
0010
0000
0000
0000
0000
0000
0010
0000
,
0000
0000
0000
0000
1000
0000
0000
0000
0000
0000
1000
0000
,
0000
0000
0000
0000
0001
0000
0000
0000
0000
0000
0001
0000
,
0000
0000
0000
0000
0100
0000
0000
0000
0000
0000
0100
0000
,
0000
0000
0000
0000
0010
0000
0000
0000
0000
0000
0010
0000
,
0000
0000
0000
0000
1000
0000
0000
0000
0000
0000
1000
0000
,
0000
0000
0000
0000
0100
0000
0000
1000
0000
0000
0000
0000
,
0000
0010
0000
0000
0000
0000
0000
0010
0000
0000
0000
0000
,
0000
0010
0000
0000
0000
0000
0000
0001
0000
0000
1000
0000
,
0000
0001
0000
0000
0000
0000
0000
0001
0000
0000
0000
0000
,
0000
0001
0000
0000
0000
0000
0000
0010
0000
0000
0100
0000
,
0000
0010
0000
0000
0000
0000
0000
0010
0000
0000
0000
0000
,
0000
1000
0000
0000
0000
0000
0000
0100
0000
0000
1000
0000
,
0000
0100
0000
0000
0000
0000
0000
0100
0000
0000
0000
0000
,
0000
0100
0000
0000
0000
0000
0000
0010
0000
0000
0000
0000
,
0000
0001
0000
0000
0000
0000
0000
0001
0000
0000
0000
0000
,
0000
0010
0000
0000
0000
0000
0000
0010
0000
0000
0000
0000
,
0000
1000
0000
0000
0100
0000
0000
1000
0000
0000
0000
0000
,
0000
0010
0000
0000
0001
0000
0000
0010
0000
0000
0000
0000
,
0000
1000
0000
0000
0000
0000
0000
0001
0000
0000
0000
0000
,
0000
1000
0000
0000
0010
0000
0000
1000
0000
0000
0000
0000
,
0000
0100
0000
0000
0000
0000
0000
0100
0000
0000
0000
0000
,
0000
0010
0000
0000
1000
0000
0000
0010
0000
0000
0000
0000
,
0000
0001
0000
0000
0000
0000
0000
0001
0000
0000
0000
0000
,
0000
1000
0000
0000
0000
0000
0000
0010
0000
0000
1000
0000
,
0000
0010
0000
0000
0000
0000
0000
0100
0000
0000
0000
0000
,
0000
0010
0000
0000
0000
0000
0000
0001
0000
0000
1000
0000
,
0000
0001
0000
0000
0000
0000
0000
0010
0000
0000
0000
0000
,
0000
1000
0000
0000
0000
0000
0000
0100
0000
0000
1000
0000
,
0000
0100
0000
0000
0000
0000
0000
0010
0000
0000
0000
0000
,
0000
0001
0000
0000
0000
0000
0000
1000
0000
0000
0001
0000
,
0000
1000
0000
0000
0000
0000
0000
0010
0000
0000
0000
0000
,
0000
0100
0000
0000
0000
0000
0000
0010
0000
0000
1000
0000
,
0000
0010
0000
0000
0000
0000
0000
0001
0000
0000
0000
0000
,
0000
1000
0000
0000
0000
0000
0000
0100
0000
0000
1000
0000
,
0000
0100
0000
0000
0000
0000
0000
0010
0000
0000
0000
0000
,
0000
1000
0000
0000
0000
0000
0000
0001
0000
0000
1000
0000
,
0000
0001
0000
0000
0000
0000
0000
0010
0000
0000
0000
0000
,
0000
0100
0000
0000
0000
0000
0000
1000
0000
0000
0100
0000
,
0000
1000
0000
0000
0100
0000
0000
0100
0000
0000
0000
0000
,
0000
0010
0000
0000
0010
0000
0000
0010
0000
0000
0000
0000
,
0000
1000
0000
0000
1000
0000
0000
0001
0000
0000
0001
0000
,
0000
0010
0000
0000
0000
0000
0000
0010
0000
0000
0000
0000
,
0000
0010
0000
0000
0000
0000
0000
1000
0000
0000
0000
0000
,
0000
0010
0000
0000
0000
0000
0000
0100
0000
0000
1000
0000
,
0000
0100
0000
0000
0000
0000
0000
0010
0000
0000
0000
0000
,
0000
0001
0000
0000
0000
0000
0000
1000
0000
0000
0001
0000
,
0000
1000
0000
0000
0000
0000
0000
0010
0000
0000
0000
0000
,
0000
0100
0000
0000
0000
0000
0000
1000
0000
0000
0001
0000
,
0000
1000
0000
0000
0000
0000
0000
0010
0000
0000
0000
0000
,
0000
1000
0000
0000
0100
0000
0000
1000
0000
0000
0100
0000
,
0000
1000
0000
0000
0000
0000
0000
0010
0000
0000
0000
0000
,
0000
1000
0000
0000
0000
0000
0000
0001
0000
0000
1000
0000
,
0000
0001
0000
0000
0000
0000
0000
0010
0000
0000
0000
0000
,
0000
1000
0000
0000
0000
0000
0000
0100
0000
0000
1000
0000
,
0000
0100
0000
0000
0000
0000
0000
0010
0000
0000
0000
0000
,
0000
0001
0000
0000
0000
0000
0000
1000
0000
0000
0010
0000
,
0000
1000
0000
0000
0000
0000
0000
0100
0000
0000
0000
0000
,
0000
1000
0000
0000
0000
0000
0000
0001
0000
0000
1000
0000
,
0000
0001
0000
0000
0000
0000
0000
0010
0000
0000
0000
0000
,
0000
1000
0000
0000
0000
0000
0000
0010
0000
0000
0100
0000
,
0000
0010
0000
0000
0000
0000
0000
1000
0000
0000
0000
0000
,
0000
0001
0000
0000
0000
0000
0000
1000
0000
0000
0010
0000
,
0000
1000
0000
0000
0000
0000
0000
0100
0000
0000
0000
0000
,
0000
1000
0000
0000
0000
0000
0000
0001
0000
0000
1000
0000
,
0000
0001
0000
0000
0000
0000
0000
0010
0000
0000
0000
0000
,
0000
1000
0000
0000
0000
0000
0000
0100
0000
0000
1000
0000
,
0000
0100
0000
0000
0000
0000
0000
0100
0000
0000
0000
0000
,
0000
0100
0000
0000
0000
0000
0000
0000
0000
0000
0000
0000
;

//---------------dance-single - Copied from Copied f----------------
#NOTEDATA:;
#CHARTNAME:Copied from Copied f;
#STEPSTYPE:dance-single;
#DESCRIPTION:Copied from Copied f;
#CHARTSTYLE:;
#DIFFICULTY:Beginner;
#METER:2;
#RADARVALUES:0.128786,0.148283,0.000000,0.000000,0.450752,105.000000,105.000000,0.000000,0.000000,0.000000,0.000000,0.000000,0.000000,0.000000,0.128786,0.148283,0.000000,0.000000,0.450752,105.000000,105.000000,0.000000,0.000000,0.000000,0.000000,0.000000,0.000000,0.000000;
#CREDIT:Copied from Copied f;
#NOTES:
0000
0000
0000
0000
1000
0000
0000
0000
0000
0000
1000
0000
,
0000
0000
0000
0000
0001
0000
0000
0000
0000
0000
0000
0000
,
0000
0000
0000
0000
1000
0000
0000
0000
0000
0000
1000
0000
,
0000
0000
0000
0000
0010
0000
0000
0000
0000
0000
0000
0000
,
0000
0000
0000
0000
1000
0000
0000
0000
0000
0000
1000
0000
,
0000
0000
0000
0000
0010
0000
0000
0000
0000
0000
0000
0000
,
0000
0000
0000
0000
0100
0000
0000
0000
0000
0000
0100
0000
,
0000
0000
0000
0000
1000
0000
0000
0000
0000
0000
0000
0000
,
0000
0000
0000
0000
0010
0000
0000
0000
0000
0000
0010
0000
,
0000
0000
0000
0000
0001
0000
0000
0000
0000
0000
0000
0000
,
0000
0000
0000
0000
1000
0000
0000
0000
0000
0000
1000
0000
,
0000
0000
0000
0000
1000
0000
0000
0000
0000
0000
0000
0000
,
0000
0000
0000
0000
0010
0000
0000
0000
0000
0000
0010
0000
,
0000
0000
0000
0000
0010
0000
0000
0000
0000
0000
0000
0000
,
0000
0000
0000
0000
0100
0000
0000
0000
0000
0000
0100
0000
,
0000
0000
0000
0000
0100
0000
0000
0000
0000
0000
0000
0000
,
0000
1000
0000
0000
0000
0000
0000
1000
0000
0000
0000
0000
,
0000
0001
0000
0000
0000
0000
0000
0000
0000
0000
0000
0000
,
0000
0010
0000
0000
0000
0000
0000
0010
0000
0000
0000
0000
,
0000
1000
0000
0000
0000
0000
0000
0000
0000
0000
0000
0000
,
0000
0001
0000
0000
0000
0000
0000
0001
0000
0000
0000
0000
,
0000
1000
0000
0000
0000
0000
0000
0000
0000
0000
0000
0000
,
0000
0010
0000
0000
0000
0000
0000
0010
0000
0000
0000
0000
,
0000
1000
0000
0000
0000
0000
0000
0000
0000
0000
0000
0000
,
0000
1000
0000
0000
0000
0000
0000
0001
0000
0000
0000
0000
,
0000
1000
0000
0000
0000
0000
0000
0000
0000
0000
0000
0000
,
0000
0010
0000
0000
0000
0000
0000
1000
0000
0000
0000
0000
,
0000
0010
0000
0000
0000
0000
0000
0000
0000
0000
0000
0000
,
0000
0100
0000
0000
0000
0000
0000
0001
0000
0000
0000
0000
,
0000
0100
0000
0000
0000
0000
0000
0000
0000
0000
0000
0000
,
0000
1000
0000
0000
0000
0000
0000
0001
0000
0000
0000
0000
,
0000
0010
0000
0000
0000
0000
0000
0000
0000
0000
0000
0000
,
0000
1000
0000
0000
0000
0000
0000
0010
0000
0000
0000
0000
,
0000
1000
0000
0000
0000
0000
0000
0000
0000
0000
0000
0000
,
0000
0001
0000
0000
0000
0000
0000
1000
0000
0000
0000
0000
,
0000
0001
0000
0000
0000
0000
0000
0000
0000
0000
0000
0000
,
0000
0010
0000
0000
0000
0000
0000
0010
0000
0000
0000
0000
,
0000
0010
0000
0000
0000
0000
0000
0000
0000
0000
0000
0000
,
0000
1000
0000
0000
0000
0000
0000
0001
0000
0000
0000
0000
,
0000
1000
0000
0000
0000
0000
0000
0000
0000
0000
0000
0000
,
0000
0010
0000
0000
0000
0000
0000
0010
0000
0000
0000
0000
,
0000
1000
0000
0000
0000
0000
0000
1000
0000
0000
0000
0000
,
0000
0001
0000
0000
0000
0000
0000
0001
0000
0000
0000
0000
,
0000
0010
0000
0000
0000
0000
0000
0000
0000
0000
0000
0000
,
0000
0010
0000
0000
0000
0000
0000
0000
0000
0000
0000
0000
,
0000
1000
0000
0000
0000
0000
0000
0000
0000
0000
0000
0000
,
0000
0010
0000
0000
0000
0000
0000
0010
0000
0000
0000
0000
,
0000
0010
0000
0000
0000
0000
0000
0000
0000
0000
0000
0000
,
0000
1000
0000
0000
0000
0000
0000
0001
0000
0000
0000
0000
,
0000
1000
0000
0000
0000
0000
0000
0000
0000
0000
0000
0000
,
0000
1000
0000
0000
0000
0000
0000
1000
0000
0000
0000
0000
,
0000
0001
0000
0000
0000
0000
0000
0000
0000
0000
0000
0000
,
0000
0010
0000
0000
0000
0000
0000
0010
0000
0000
0000
0000
,
0000
0010
0000
0000
0000
0000
0000
0000
0000
0000
0000
0000
,
0000
1000
0000
0000
0000
0000
0000
0001
0000
0000
0000
0000
,
0000
1000
0000
0000
0000
0000
0000
0000
0000
0000
0000
0000
,
0000
0001
0000
0000
0000
0000
0000
0001
0000
0000
0000
0000
,
0000
0001
0000
0000
0000
0000
0000
0000
0000
0000
0000
0000
,
0000
0010
0000
0000
0000
0000
0000
1000
0000
0000
0000
0000
,
0000
0001
0000
0000
0000
0000
0000
0000
0000
0000
0000
0000
,
0000
0010
0000
0000
0000
0000
0000
0010
0000
0000
0000
0000
,
0000
0010
0000
0000
0000
0000
0000
0000
0000
0000
0000
0000
,
0000
1000
0000
0000
0000
0000
0000
0001
0000
0000
0000
0000
,
0000
1000
0000
0000
0000
0000
0000
0000
0000
0000
0000
0000
,
0000
1000
0000
0000
0000
0000
0000
0001
0000
0000
0000
0000
,
0000
0010
0000
0000
0000
0000
0000
0000
0000
0000
0000
0000
,
0000
1000
0000
0000
0000
0000
0000
0001
0000
0000
0000
0000
,
0000
1000
0000
0000
0000
0000
0000
0000
0000
0000
0000
0000
,
0000
0010
0000
0000
0000
0000
0000
0010
0000
0000
0000
0000
,
0000
0010
0000
0000
0000
0000
0000
0000
0000
0000
0000
0000
;
