#TITLE:Cosmic Fantastic Lovesong;
#SUBTITLE:;
#ARTIST:DINY (vocals Chohee);
#TITLETRANSLIT:;
#SUBTITLETRANSLIT:;
#ARTISTTRANSLIT:;
#GENRE:;
#CREDIT:KuroNightStar;
#BANNER:AV.avi;
#BACKGROUND:Cosmic-bg.png;
#LYRICSPATH:;
#CDTITLE:;
#MUSIC:Cosmic Fantastic Lovesong.mp3;
#OFFSET:1.060000;
#SAMPLESTART:58.438000;
#SAMPLELENGTH:15.100000;
#LASTBEATHINT:0.136000;
#SELECTABLE:YES;
#BPMS:0.000000=136.000000
,195.000000=68.000000
,197.000000=136.000000
;
#STOPS:168.000000=0.420000
;
#BGCHANGES:0.000=CFL.avi=1.400=1=1=1=StretchRewind==CrossFade==,
2.000=CFL.avi=1.000=0=0=1=====,
99999=-nosongbg-=1.000=0=0=0 // don't automatically add -songbackground-
;
#KEYSOUNDS:;
#ATTACKS:;

//---------------dance-single - Challenge----------------
#NOTES:
     dance-single:
     Challenge:
     Challenge:
     17:
     0.889016,0.939557,0.680222,0.165459,1.116851,677.000000,603.000000,74.000000,18.000000,0.000000,4.000000,0.889016,0.939557,0.680222,0.165459,1.116851,677.000000,603.000000,74.000000,18.000000,0.000000,4.000000:
0000
0000
0000
0000
,
1001
0000
0000
0000
,
1001
0000
0000
0000
,
1001
0000
1001
0000
,
1001
1001
1001
1001
,
0101
1000
0100
1000
0100
1000
0100
1000
0010
0100
0010
0100
0010
0100
0010
0100
,
0001
0100
0001
0100
0001
0100
0001
1000
0100
1000
0100
1000
0100
1000
0100
0010
,
0100
1000
0100
0010
0100
1000
0100
0010
0001
0010
1000
0010
0001
0100
1000
0010
,
0002
0000
1000
0000
0100
0000
0013
0000
0100
0000
0001
0000
0010
0000
0100
0000
0010
0000
1001
0000
0100
1001
0010
0000
,
0010
0000
0010
0000
0010
0000
1000
0100
0000
0010
0100
0000
0010
0000
0100
0000
,
0100
0000
0010
0000
1000
0000
0100
0010
1000
0001
1000
0010
0100
0001
1000
0000
,
0010
0000
0010
0000
0010
0000
1000
0001
0000
1000
0100
0000
0010
0000
0100
0000
,
1000
0000
0100
0000
0010
0000
0001
1000
0000
0100
1000
0001
0010
0000
0100
0000
,
1001
0000
0100
0000
1010
0000
1000
0100
0011
1000
0001
0000
0101
0000
0010
0000
,
1001
0000
0100
0000
1010
0000
0001
0010
1100
0001
1000
0000
0011
0000
1100
0000
,
1100
0000
0000
0000
0000
0000
0000
0000
0000
0010
0000
0000
1100
0000
0000
0000
0000
0000
0000
0000
0000
0010
0000
0000
0101
0000
0000
0010
0000
0000
0100
0000
0000
0000
0000
0000
1001
0000
0000
0000
0100
0000
0000
0000
0010
0000
0000
0000
,
1100
0010
0100
0001
0100
0001
0202
0000
0000
0000
0000
0000
,
1000
0000
1000
0000
1313
1000
0101
0010
,
1001
0000
0000
0110
0000
0000
0100
0000
1010
0000
0100
0000
1001
0000
0001
0000
,
0110
0000
0000
1001
0000
0000
1000
0000
0011
0000
0100
0000
0011
0000
1000
0000
,
1100
0000
0000
1001
0000
0000
0100
0000
0110
0000
1000
0000
1100
0000
0110
0000
,
0011
1000
0101
1000
1001
0001
0110
0001
,
1001
0100
0110
0010
1001
0100
1100
0010
,
1001
0100
0110
0100
1001
1000
0110
1000
,
0101
0011
0110
1100
0110
0000
0011
0110
,
1100
0000
0010
0001
0000
0000
0100
1000
0000
0000
0001
0010
0000
0000
0100
1000
,
0000
0000
0100
0010
0000
0000
0100
1000
0000
0000
0001
0100
1001
0000
1001
0000
,
1001
0000
0100
0010
0000
0000
0100
1000
0000
0000
0010
0001
0000
0000
0100
1000
,
0000
0000
0010
0100
0000
0000
0100
1000
0000
0000
0001
0010
1001
0000
1001
0000
,
1001
0000
1000
0100
0000
0000
0100
0010
0000
0000
1000
0100
0000
0000
0010
0001
,
0000
0000
0100
1000
0000
0000
0100
0010
0000
0000
0010
0001
0000
0000
0010
0100
,
0000
0000
0001
0100
0000
0000
1000
0100
0000
0000
0010
0100
0000
0000
0001
0100
,
0000
0000
1000
0100
0000
0000
0010
0100
0000
0000
1000
0100
0000
0000
0010
0000
,
0100
1001
1001
0020
0000
0000
0000
0000
,
1030
0100
1000
0100
0010
0100
0001
1000
0010
0100
0010
0100
0010
0001
0010
0001
,
0010
0100
1000
0100
0010
0001
0010
0100
1000
0100
0010
0100
0010
0001
0010
0100
,
0010
1000
0100
0001
0010
0100
0010
1000
0100
1000
0100
0010
0001
0100
1000
0010
,
0001
0000
0000
0100
0000
0000
0000
0000
0100
0000
0000
0000
0010
0000
0000
0000
0001
0000
0000
0000
0010
0000
0000
0000
0100
0000
0000
0000
1000
0000
0000
0000
0100
0000
0000
0000
0010
0000
0000
0000
0000
0000
1100
0000
0000
0000
0000
0000
,
1100
0010
0100
0001
1000
0100
1000
0100
0010
0001
0100
0010
0100
0010
1000
0100
,
1000
0100
0010
0100
0010
0001
0010
0001
0100
0010
1000
0001
0100
0010
1000
0001
,
1000
0100
1000
0100
0010
0001
0100
1000
0010
0001
0100
1000
0100
0010
0001
0100
,
0010
1000
0001
0100
0010
1000
0100
1000
0100
0010
0001
0100
0010
1000
0100
1000
,
0001
1000
0000
0000
0100
0000
0000
0000
0010
0000
0000
0000
1000
0000
0000
0000
0001
0000
0000
0000
0100
0000
0000
0000
0010
0000
0000
0000
1000
0000
0000
0000
0001
0000
0000
0000
0100
0000
0000
0000
1000
0000
0000
0000
0100
0000
0000
0000
0010
0000
0000
0000
0001
0000
0000
0000
0010
0000
0000
0000
0100
0000
0000
0000
,
0010
1000
0100
0001
0010
0100
1000
0100
0010
0001
0010
0100
0010
0100
1000
0100
,
1000
0100
0010
0100
0010
0100
0001
0010
0001
0100
1000
0100
0020
0000
0000
0000
,
2030
0000
0000
0000
3002
0000
0000
0000
0203
0000
0321
0000
0001
1030
0100
0010
,
0001
1000
0100
0010
0001
0010
0100
0010
0100
0010
1000
0001
0100
0010
1000
0001
,
0100
0010
0001
0010
1000
0100
0001
0010
1000
0100
0010
0100
1000
0100
0001
0010
,
1000
0100
0010
0001
0100
1000
0100
0010
0001
0100
0010
1000
0002
0000
2003
0000
,
3200
0320
0030
0200
0310
0000
0010
0000
0010
0000
1000
0100
0000
0010
0100
0000
,
0010
0000
0100
0000
0100
0000
0010
0000
1000
0000
0100
0010
1000
0001
1000
0010
,
0100
0001
1000
0000
0010
0000
0010
0000
0010
0000
1000
0001
0000
1000
0100
0000
,
0010
0000
0100
0000
1000
0000
0100
0000
0010
0000
0001
1000
0000
0100
1000
0001
,
0010
0100
1000
0000
1000
0100
0010
0001
0010
0100
0010
1000
0100
0001
0010
0100
,
1000
0100
0010
0100
1000
0100
0010
0001
0100
0010
1000
0001
0100
0010
1000
0001
,
0100
0010
0100
1000
0100
0010
0100
1000
0010
0001
0100
1000
0010
0001
0100
1000
,
0010
0000
0000
0001
0000
0000
0100
0000
0000
1000
0000
0000
0010
0000
0000
0000
0001
0000
0000
0000
0100
0000
0000
0000
1000
0000
0000
0000
0100
0000
0000
0000
0010
0000
0000
0000
0100
0000
0000
0000
1000
0000
0000
0000
0001
0000
0000
0000
,
0010
0000
0100
0000
1000
0000
0220
0000
0000
0000
0000
0000
0330
0000
0000
2002
0000
0000
0000
0000
0000
0000
0000
0000
,
0000
0000
0000
0000
,
0000
0000
0000
0000
,
0000
3003
0000
0000
0000
0000
0000
0000
;

//---------------dance-single - Copied from Light----------------
#NOTES:
     dance-single:
     Copied from Light:
     Beginner:
     3:
     0.156267,0.242501,0.147075,0.156267,0.000000,119.000000,103.000000,16.000000,17.000000,0.000000,0.000000,0.156267,0.242501,0.147075,0.156267,0.000000,119.000000,103.000000,16.000000,17.000000,0.000000,0.000000:
0000
0000
0000
0000
,
2000
0000
0000
3000
,
0200
0000
0000
0300
,
0002
0000
0000
0003
,
0010
0100
0010
0100
,
2000
0000
0000
3000
,
0002
0000
0000
0003
,
2000
0000
0000
3000
,
0002
0000
0000
0003
,
0001
0000
0010
0000
,
1000
0000
0100
0000
,
0010
0000
0100
0000
,
0010
0000
1000
0000
,
1001
0000
0010
0000
,
0001
0000
0100
0000
,
0110
0000
1100
0000
,
0101
0000
0110
0000
,
2000
0000
0000
3000
,
0200
0000
0000
0300
,
2000
0000
0000
3000
,
0002
0000
0000
0000
,
0013
0000
0100
0000
,
0010
0000
1000
0000
,
0010
0000
0001
0000
,
0100
0000
0110
0000
,
1001
0000
0000
0000
,
1010
0000
0000
0000
,
0011
0000
0000
0000
,
1001
0000
0000
0000
,
0100
0000
1000
0000
,
0100
0000
0001
0000
,
0010
0000
0100
0000
,
1000
0000
0001
0000
,
2000
0000
0000
0000
,
3001
0001
0001
0000
,
0100
0100
0100
0000
,
0010
0000
1000
0000
,
0010
0010
0100
0100
,
1000
0000
0001
0000
,
0010
0000
0100
0000
,
1000
0000
0010
0000
,
0001
0000
0100
0000
,
0010
1001
0000
0100
,
0100
0100
0000
0010
,
0000
0011
0000
1000
,
0001
1000
0000
1000
,
0000
0100
0000
0010
,
0000
0001
0000
0100
,
0000
0000
0010
0000
0000
0200
0000
0000
,
0000
2300
0000
0000
,
0000
3001
0000
0000
,
0000
0002
0000
0000
,
0000
1003
0000
0000
,
0000
0100
0000
0010
,
0000
0001
0000
0100
,
0000
1010
0000
0101
,
0000
1001
0000
0110
,
0000
0000
0200
0000
0000
0020
0000
0000
,
0000
0000
0000
0000
0000
0330
0000
0000
;

//---------------dance-single - Copied from Standard----------------
#NOTES:
     dance-single:
     Copied from Standard:
     Easy:
     5:
     0.249502,0.377258,0.193036,0.257381,0.000000,190.000000,169.000000,21.000000,28.000000,0.000000,0.000000,0.249502,0.377258,0.193036,0.257381,0.000000,190.000000,169.000000,21.000000,28.000000,0.000000,0.000000:
0000
0000
0000
0000
,
0002
0000
0000
0000
,
0203
0000
0000
0000
,
2300
0000
0000
0000
,
3001
0001
0001
0001
,
1000
0100
1000
0000
,
0010
0100
0010
0000
,
1001
0000
1010
0000
,
0101
0000
0011
0000
,
2000
0001
0001
0001
,
0001
0001
0001
3001
,
0020
0100
0100
0100
,
0100
0100
0100
0130
,
1000
0100
0100
0100
,
0001
0100
0100
0100
,
1001
0010
1001
0100
,
1001
0010
1001
0100
,
0002
0000
0010
0000
,
2003
0000
0100
0000
,
3020
0000
0100
0000
,
0032
0000
0100
0000
,
1003
1000
1000
0000
,
0100
1000
0100
0000
,
0010
0010
0010
0000
,
0001
0100
0001
1001
,
0200
0000
0001
0000
,
2300
0000
0010
0000
,
3020
0000
0000
0000
,
0230
0000
0000
0000
,
0302
0000
0100
0000
,
2003
0000
0001
0000
,
3020
0000
0230
0000
,
0302
0000
2003
0000
,
3200
0000
0000
0000
,
1300
0100
0010
0001
,
1000
0100
1000
0100
0000
0000
0000
0000
,
0010
0100
0001
1000
,
1001
0110
1001
1100
,
0001
0000
0100
0000
,
0010
0010
0001
0001
,
1000
0000
0100
0000
,
0010
0000
0100
1000
,
1001
0010
0100
2000
,
0100
0100
0100
3010
,
0100
0001
0010
0002
,
0010
0000
0010
0000
0010
0003
2000
0000
,
0000
0000
0000
3020
,
0000
0001
1000
0230
,
0000
0000
0000
0000
0000
0302
0000
0000
,
0000
1003
0100
0010
,
0001
0000
1000
0000
0100
0000
0010
0100
,
0010
0001
0010
0100
,
1000
0000
0100
0000
0001
0000
0001
1000
,
0001
1001
0100
0010
,
1000
1100
0010
0100
,
0001
0101
0100
1100
,
0010
1010
0001
0011
,
1001
0000
0020
0000
0000
2000
0000
0000
,
0000
0000
0000
0000
0000
0000
0000
0000
0000
0000
0000
0000
0000
0000
0000
0000
0000
0000
0000
0000
0000
0000
0000
0000
0000
0000
0000
0000
0000
0000
0000
0000
0000
0000
0000
0000
0000
0000
0000
0000
0000
0000
0000
0000
0000
0000
0000
0000
0000
0000
0000
0000
0000
0000
0000
0000
0000
0000
0000
0000
0000
0000
0000
0000
0000
0000
0000
0000
0000
0000
0000
0000
0000
0000
0000
0000
0000
0000
0000
0000
0000
0000
0000
0000
0000
0000
0000
0000
0000
0000
0000
0000
0000
0000
0000
0000
0000
0000
0000
0000
0000
0000
0000
0000
0000
0000
0000
0000
0000
0000
0000
0000
0000
0000
0000
0000
0000
0000
0000
0000
0000
3030
0000
0000
0000
0000
0000
0000
0000
0000
0000
0000
0000
0000
0000
0000
0000
0000
0000
0000
0000
0000
0000
0000
0000
0000
0000
0000
0000
0000
0000
0000
0000
0000
0000
0000
0000
0000
0000
0000
0000
0000
0000
0000
0000
0000
0000
0000
0000
0000
0000
0000
0000
0000
0000
0000
0000
0000
0000
0000
0000
0000
0000
0000
0000
0000
0000
0000
0000
0000
0000
0000
;

//---------------dance-single - Copied from Heavy----------------
#NOTES:
     dance-single:
     Copied from Heavy:
     Medium:
     7:
     0.382132,0.405031,0.303342,0.275766,0.004596,291.000000,258.000000,33.000000,30.000000,0.000000,0.000000,0.382132,0.405031,0.303342,0.275766,0.004596,291.000000,258.000000,33.000000,30.000000,0.000000,0.000000:
0000
0000
0000
0000
,
1100
0110
1000
0010
,
1000
0100
0010
0001
0000
0000
1000
0000
,
0010
1000
0100
0010
0000
1001
0000
0010
,
1000
1100
0101
0010
,
0200
0000
0001
0000
0001
0000
0301
0001
,
2000
0100
0100
0100
,
3020
0000
0230
0000
,
0301
1000
0100
1001
,
1000
0100
1000
0000
0010
0100
0010
0000
,
0001
0100
0001
1000
0010
0100
1000
0000
,
0010
0100
0010
0000
1000
0100
0010
0000
,
0001
1000
0100
0010
0001
1000
0100
0000
,
1001
0010
1100
0001
,
0101
0100
1000
0010
,
1010
0100
0110
0001
,
0110
0000
1000
0000
0110
0000
1000
0200
,
0000
0000
0000
0000
0301
0100
0001
0020
,
0000
0000
0001
0001
0000
0230
0000
0000
,
0000
0000
0000
0000
0301
1000
0100
0020
,
0000
0000
0100
0100
0000
1000
0000
0230
,
0000
1000
1000
1000
0000
0310
0100
0020
,
0000
0000
0100
0100
0000
0100
0000
0032
,
0000
0000
0000
0000
0000
1003
0100
0020
,
0000
0000
0000
0030
,
1001
0000
1000
0100
0010
0000
0100
1000
,
0000
0010
0100
1000
0000
0100
0000
2001
,
0000
0000
0000
0000
0000
0000
3100
2000
,
0000
0000
0000
0000
,
3010
0000
0100
0000
0010
0001
0000
1100
,
0000
0010
0100
0000
0000
0100
0010
0001
,
1001
0010
1100
0001
,
0110
1010
0011
0100
,
0002
0000
2000
0000
0000
3003
0010
1000
,
1100
0000
0010
0100
1000
0000
0100
0000
,
0010
0001
0010
0200
0000
0000
0001
0000
,
1300
0010
0100
0001
0000
1100
0000
0001
,
0101
0000
1100
0000
0110
0000
1000
0200
,
0000
0001
0001
0001
0000
0310
0010
0100
,
0001
0000
0100
0000
1010
0000
0100
0010
,
0000
0002
0000
0000
0000
1003
0100
0001
,
2000
0000
0000
0000
0000
3001
0100
0100
,
0001
2000
0000
0000
0000
0000
0000
0000
0000
0000
0000
0000
0000
0000
0000
0000
0100
0000
0000
0000
0000
0000
0000
0000
0000
0000
0000
0000
0000
0000
0000
0000
0100
0000
0000
0000
0000
0000
0000
0000
0000
0000
0000
0000
0000
0000
0000
0000
3010
0000
0000
0000
0000
0000
0000
0000
0100
0000
0000
0000
0000
0000
0000
0000
,
0001
2000
0000
0000
0100
0000
3001
0100
,
0010
0200
0000
0010
0000
0010
0001
0000
,
0010
0000
0001
0000
0001
0310
0000
1000
,
0100
0020
0000
0100
0100
0100
0032
0000
,
1000
0000
0100
0000
1003
0200
0000
0000
,
0000
0000
0001
0000
0000
0000
0000
0000
0000
0300
1010
0000
0101
0000
0100
0000
,
1000
0002
0100
0000
0100
0000
0100
0000
,
0100
0000
0100
0000
0100
0000
0100
0100
,
0100
2003
0010
0010
,
0010
0000
0010
0000
0010
0000
0010
0010
,
0010
3000
0100
0010
0001
0000
0001
0100
,
0010
0000
0010
1000
0100
0000
1000
0100
,
0010
1100
0001
0101
,
0010
1010
0100
0011
,
0100
1000
0002
0000
0000
2000
0000
0000
,
0000
0000
0000
3003
;

//---------------dance-single - Copied from Challeng----------------
#NOTES:
     dance-single:
     Copied from Challeng:
     Hard:
     13:
     0.580421,0.799721,0.238997,0.266574,0.432033,442.000000,416.000000,26.000000,29.000000,0.000000,0.000000,0.580421,0.799721,0.238997,0.266574,0.432033,442.000000,416.000000,26.000000,29.000000,0.000000,0.000000:
// measure 0
0000
0000
0000
0000
,  // measure 1
1001
0000
0010
2000
0000
0000
0100
0000
,  // measure 2
3010
1000
0100
0020
0000
0000
0001
0000
,  // measure 3
0031
1000
0010
1000
0000
1100
0000
0010
,  // measure 4
0100
0010
1000
0001
1000
0100
1000
0001
0100
0010
0100
0000
,  // measure 5
1000
0100
0010
0100
0001
1000
0010
0000
,  // measure 6
0100
0001
0010
0001
0100
1000
0100
0010
,  // measure 7
0100
0010
1000
0100
0010
0001
1000
0010
0100
0001
1000
0100
0010
0001
1000
0000
,  // measure 8
0010
0100
0010
0100
0001
0100
0010
0100
0001
0100
0010
0100
,  // measure 9
1001
0000
0010
0000
0100
0000
0001
0100
0000
0001
0100
0000
0010
0000
1000
0000
,  // measure 10
0100
0000
1000
0000
0001
0000
1000
0100
0000
1000
0100
0000
0100
0000
0010
0000
,  // measure 11
1000
0000
0001
0000
0010
0000
0100
0010
0000
0100
0010
0000
0001
0000
1000
0000
,  // measure 12
0010
0000
0100
0000
0001
0000
1000
0001
0000
1000
0001
0000
0100
0000
0010
0000
,  // measure 13
0011
0000
0100
0000
1000
0000
0001
1000
0000
0001
1000
0000
0010
0000
0100
0000
,  // measure 14
0001
0000
0010
0000
0100
0000
1000
0100
0000
1000
0100
0000
0100
0000
0001
0000
,  // measure 15
0010
0000
0100
0000
1000
0000
0001
1000
0000
0001
1000
0000
0010
0000
0100
0000
,  // measure 16
0001
1000
0010
1000
0001
1000
0100
0000
0000
1001
0000
0000
,  // measure 17
0110
0001
0100
0010
1000
0100
1000
0000
,  // measure 18
1000
0010
0100
0001
1000
0100
0010
0000
,  // measure 19
1000
0010
1000
0001
0010
0100
1000
0000
,  // measure 20
0100
0001
1000
0100
0010
0002
1003
0000
,  // measure 21
2001
0100
3001
0000
0102
0010
1003
0000
,  // measure 22
2010
0001
3100
0000
0120
1000
0130
0000
,  // measure 23
2001
0100
3001
0000
0012
1000
0103
0000
,  // measure 24
0010
0100
0010
0000
2001
0000
3001
0000
,  // measure 25
0001
0000
0100
0010
0000
0000
0100
1000
0000
0000
0001
0010
0000
0000
0100
1000
,  // measure 26
0000
0000
0001
1000
0000
0000
0010
0100
0000
0000
0010
0001
0000
0000
0100
1000
,  // measure 27
0000
0000
0001
1000
0000
0000
0010
0100
0000
0000
0001
0010
0000
0000
0100
1000
,  // measure 28
0000
0000
0001
1000
0000
0000
0010
0100
0000
0000
0010
0000
1000
0000
0010
0000
,  // measure 29
1000
0000
0100
0010
0000
0000
1000
0100
0000
0000
1000
0001
0000
0000
0010
0100
,  // measure 30
0000
0000
1000
0001
0000
0000
0010
0100
0000
0000
1000
0001
0000
0000
0010
0100
,  // measure 31
0000
0000
0010
0001
0000
0000
1000
0010
0000
0000
0100
0001
0000
0000
0010
0001
,  // measure 32
0000
0000
1000
0100
0000
0000
1000
0001
0000
0000
0100
0010
0000
0000
1000
0000
,  // measure 33
0001
0000
1000
0000
0002
0000
0000
0000
0000
0000
0000
0003
0100
0000
0010
0000
,  // measure 34
2010
3010
0102
0103
,  // measure 35
1000
0010
1000
0002
0000
0000
0103
0000
,  // measure 36
1000
0010
1000
0002
0000
1003
0000
0100
,  // measure 37
1000
0010
0100
0001
1000
0100
1000
0001
1000
0100
0000
0000
,  // measure 38
1100
0001
1000
0010
0000
0001
1000
0100
,  // measure 39
2000
0000
3100
0000
0020
0000
0130
0002
,  // measure 40
0000
2003
0000
3000
0000
0100
0010
0001
,  // measure 41
2000
0000
0100
0000
3010
0100
0001
1000
,  // measure 42
0001
1000
0000
0000
0000
0000
0000
0000
0000
0000
0000
0000
0000
0000
0000
0000
0010
0000
0000
0000
0000
0000
0000
0000
0000
0000
0000
0000
0000
0000
0000
0000
0100
0000
0000
0000
0000
0000
0000
0000
0000
0000
0000
0000
0000
0000
0000
0000
1000
0000
0000
0000
0000
0000
0000
0000
0010
0000
0000
0000
0000
0000
0000
0000
,  // measure 43
1000
0002
0000
0000
0103
0000
1000
0010
,  // measure 44
1000
0200
0000
1300
0000
0100
1100
0000
,  // measure 45
1001
0000
0110
0000
0011
0000
1100
0001
,  // measure 46
1000
0001
0000
0010
0100
0001
0020
0000
,  // measure 47
0130
0000
0001
0000
1000
0020
0000
0000
,  // measure 48
0000
1030
0000
0010
0100
0010
2001
0000
,  // measure 49
0010
0000
0000
0000
3100
0000
0010
0000
0100
0000
0010
0100
0000
0010
0100
0000
,  // measure 50
0001
0000
1000
0000
0100
0000
1000
0000
0001
0000
1000
0100
0000
1000
0100
0000
,  // measure 51
0010
0000
0001
0000
1000
0000
0100
0000
1000
0000
0001
1000
0000
0001
1000
0000
,  // measure 52
0010
0000
0100
0000
0001
0000
0010
0000
0100
0000
0010
0100
0000
0010
0100
0000
,  // measure 53
1000
0000
0001
0000
1001
0000
0010
0000
0100
0000
0001
0100
0000
0001
0100
0000
,  // measure 54
0010
0000
1000
0000
0001
0000
0010
0000
0100
0000
0010
0100
0000
0010
0100
0000
,  // measure 55
1000
0000
0001
0000
1000
0000
0001
0000
0100
0000
0001
0100
0000
0001
0100
0000
,  // measure 56
0010
0000
0000
1000
0000
0000
0001
0000
0100
0000
0010
0000
0100
0000
0001
0000
0100
0000
0010
0000
0000
0000
0000
0000
,  // measure 57
1001
0000
0220
0000
0330
2002
0000
0000
,  // measure 58
0000
0000
0000
0000
,  // measure 59
0000
0000
0000
0000
,  // measure 60
3003
0000
0000
0000
;
