#VERSION:0.83;
#TITLE:Best Song Ever;
#SUBTITLE:;
#ARTIST:One Direction;
#TITLETRANSLIT:;
#SUBTITLETRANSLIT:;
#ARTISTTRANSLIT:;
#GENRE:;
#ORIGIN:;
#CREDIT:;
#BANNER:AV.avi;
#BACKGROUND:BestSongEver-bgg.png;
#PREVIEWVID:;
#JACKET:;
#CDIMAGE:;
#DISCIMAGE:;
#LYRICSPATH:;
#CDTITLE:;
#MUSIC:One Direction - Best Song Ever.mp3;
#OFFSET:-0.200000;
#SAMPLESTART:40.080002;
#SAMPLELENGTH:20.000000;
#SELECTABLE:YES;
#BPMS:0.000=118.520,
118.000=79.013,
120.000=118.520,
125.000=59.260,
149.000=118.520,
221.000=79.013,
223.000=118.520;
#STOPS:76.000=1.020;
#DELAYS:;
#WARPS:;
#TIMESIGNATURES:0.000=4=4;
#TICKCOUNTS:0.000=4;
#COMBOS:0.000=1;
#SPEEDS:0.000=1.000=0.000=0;
#SCROLLS:0.000=1.000;
#FAKES:;
#LABELS:0.000=Song Start;
#BGCHANGES:0.000=bestsongever.avi=1.200=0=0=1=====,
1.750=bestsongever.avi=1.000=0=0=1=====,
99999=-nosongbg-=1.000=0=0=0 // don't automatically add -songbackground-
;
#KEYSOUNDS:;
#ATTACKS:
;

//---------------dance-single - Copied from Copied f----------------
#NOTEDATA:;
#CHARTNAME:Copied from Copied f;
#STEPSTYPE:dance-single;
#DESCRIPTION:Copied from Copied f;
#CHARTSTYLE:;
#DIFFICULTY:Beginner;
#METER:2;
#RADARVALUES:0.140021,0.214879,0.000000,0.685420,0.030844,143.000000,143.000000,0.000000,100.000000,0.000000,0.000000,0.000000,0.000000,0.000000,0.140021,0.214879,0.000000,0.685420,0.030844,143.000000,143.000000,0.000000,100.000000,0.000000,0.000000,0.000000,0.000000,0.000000;
#CREDIT:Copied from Copied f;
#NOTES:
0000
0000
0000
0000
,
0000
0000
0000
0000
,
0000
0000
0000
0000
,
0000
0000
0000
0000
,
0200
0000
0000
0000
0300
0000
0020
0030
,
2000
0000
0000
0000
0000
0000
0000
0000
0000
0000
0000
3000
0000
0000
0000
0000
,
0002
0000
0000
0000
0003
0000
0020
0030
,
2000
0000
0000
3000
,
0010
0000
0020
0030
,
1000
0000
0000
0100
0000
0000
0000
0000
,
0010
0000
0000
0000
0002
0000
0000
0003
,
0020
0030
0000
0000
,
0200
0300
0002
0003
,
0002
0000
0003
0100
0000
0000
0000
0000
,
0200
0300
0200
0300
,
0002
0003
0001
1000
,
1000
0000
1000
0000
0200
0000
0300
0200
,
0000
0300
0000
0000
0001
0000
0001
0000
,
0100
1000
2000
3000
,
0200
0300
0010
0000
0001
0000
0000
0000
,
0020
0030
0001
0000
0200
0000
0300
0000
,
2000
0000
3000
0000
2000
3000
0000
0000
,
0002
0003
0100
0000
2000
0000
3000
0000
,
0002
0003
2000
3010
,
0001
0001
2000
3000
,
0200
0000
0300
0000
0020
0030
0020
0030
,
2000
3000
1000
0000
0200
0000
0300
0000
,
0020
0000
0000
0000
0000
0030
0000
0000
2000
0000
3000
0000
0000
0000
2000
0000
,
3000
0000
0000
0000
2000
3000
0000
2000
,
3000
0000
0000
2000
0000
0000
0000
3000
,
0100
0000
0000
0000
0200
0000
0000
0300
0000
0000
0000
0000
0100
0000
0000
0000
,
1000
0000
0000
0000
0002
0003
0000
0020
0030
0000
0200
0300
0000
0000
0000
0000
,
0100
0000
0010
0000
0020
0030
0000
0002
0003
0000
0020
0030
0000
0000
0000
0000
,
1000
0000
0001
0000
0020
0030
0000
2000
3000
0000
0000
0000
0020
0030
0000
0020
,
0030
0000
0000
0000
2000
3000
0000
0002
0003
0000
0000
0000
0020
0030
0000
0020
,
0030
0000
0000
0000
0020
0030
0000
0020
0030
0000
0000
0000
0002
0003
0000
2000
,
3000
0000
0000
0000
0020
0030
0000
0020
0030
0000
0000
0000
0100
0000
0100
0000
,
0100
0010
0020
0030
0000
0000
2000
3000
,
0100
0000
0020
0000
0030
0100
0002
0000
,
0003
0000
0020
0030
0000
0000
0020
0030
,
0100
0002
0003
0200
,
0300
0002
1003
0100
,
1000
0002
0003
0020
,
0030
0000
2000
3000
2000
3000
0002
0003
,
0001
0020
0030
2000
,
0000
3000
0000
0000
0020
0000
0030
0000
0000
0000
0020
0000
0030
0000
0000
0000
,
0100
0000
0020
0030
0000
0020
0030
0000
,
0000
0000
0002
0003
0000
2000
3000
0000
,
0000
0000
0002
0003
0000
2000
3000
0000
,
0000
0000
2000
3000
0000
0002
0003
0000
,
0000
0000
0020
0030
0000
0020
0030
0000
,
0000
0000
0002
0003
0000
0002
0003
0000
,
0000
0000
2000
3000
0000
2000
3000
0000
,
0000
0000
0002
0003
0000
0002
0003
0000
,
0000
0000
0020
0030
0000
0020
0030
0000
,
0010
0000
0000
2000
0000
0000
0000
0000
0000
0000
0000
0000
0000
0000
0000
0000
3000
0000
0010
0000
0000
0000
0000
0000
,
0020
0000
0030
0000
0000
0000
0200
0000
0300
0000
0020
0000
0000
0030
0000
0000
,
0001
0000
0000
0000
;

//---------------dance-single - Copied from Copied f----------------
#NOTEDATA:;
#CHARTNAME:Copied from Copied f;
#STEPSTYPE:dance-single;
#DESCRIPTION:Copied from Copied f;
#CHARTSTYLE:;
#DIFFICULTY:Easy;
#METER:3;
#RADARVALUES:0.169397,0.253948,0.000000,0.733399,0.037698,173.000000,173.000000,0.000000,107.000000,0.000000,0.000000,0.000000,0.000000,0.000000,0.169397,0.253948,0.000000,0.733399,0.037698,173.000000,173.000000,0.000000,107.000000,0.000000,0.000000,0.000000,0.000000,0.000000;
#CREDIT:Copied from Copied f;
#NOTES:
0000
0000
0000
0000
,
0000
0000
0000
0000
,
0000
0000
0000
0000
,
0000
0000
0000
0000
,
2000
0000
0000
0000
3000
0000
0020
0030
,
0002
0000
0000
0000
0000
0000
0000
0000
0000
0000
0000
0003
0000
0000
0000
0000
,
0200
0000
0000
0000
0300
0000
0020
0030
,
0002
0000
0000
0003
,
1000
0000
0100
0000
0020
0000
0030
0002
,
0003
0000
0000
0010
0000
0000
0000
0000
,
1000
0000
0001
0000
0200
0000
0300
0100
,
0020
0030
0000
0000
,
1000
0000
0100
0000
0200
0000
0300
0002
,
0003
0000
0000
0010
0000
0000
0000
0000
,
1000
0000
0100
0000
2000
0000
3000
0010
,
0200
0300
0001
0010
,
1000
0000
0100
0000
2000
0000
3000
2000
,
0000
3000
0001
0000
0010
0000
0001
0000
,
0100
0000
1000
0000
0002
0000
0003
0010
,
2000
3000
0010
0100
2000
3000
0200
0300
,
0020
0030
1000
0000
2000
0000
3000
0000
,
0002
0000
0003
0000
0002
0003
0020
0030
,
0200
0300
0010
0000
0002
0000
0003
0001
,
0200
0000
0300
0100
0002
0000
0103
0000
,
0010
0000
0010
1000
0002
0000
0003
0100
,
2000
0000
3000
1000
0020
0030
0020
0030
,
0002
0003
1000
0000
2000
0000
3000
0100
,
0020
0000
0000
0000
0000
0030
0000
0000
0002
0000
0003
0000
0000
0000
0002
0000
,
0003
0000
0100
0000
0002
0003
0000
0002
,
0003
0000
0010
0002
0000
0000
0000
0003
,
0010
0000
0000
0000
2000
0000
0000
3000
0000
0000
2000
0000
0000
3000
0000
0000
,
1000
0000
0000
0000
0200
0300
0000
0020
0030
0000
2000
3000
0000
2000
0000
3000
,
0010
0000
1000
0000
0020
0030
0000
0200
0300
0000
0020
0030
0000
0020
0000
0030
,
0001
0000
0010
0000
0020
0030
0000
0002
0003
0000
0000
0000
0020
0030
0000
0020
,
0030
0000
0000
0000
0002
0003
0000
0200
0300
0000
0000
0000
0020
0030
0000
0020
,
0030
0000
0000
0000
0020
0030
0000
0020
0030
0000
0000
0000
0200
0300
0000
0002
,
0003
0000
0000
0000
0020
0030
0000
0020
0030
0000
0000
0000
1000
0000
0100
0000
,
0010
0001
0020
0030
0002
0003
0002
0003
,
0010
0000
0020
0000
0030
1000
0200
0000
,
0300
0001
0020
0030
0002
0003
0020
0030
,
0001
0000
0200
0000
0300
0100
2000
0000
,
3000
1000
0200
0000
0310
0000
0001
0000
,
0001
0010
0200
0000
0300
1000
0020
0000
,
0030
0010
0002
0003
0002
0003
0200
0300
,
0010
0000
0020
0000
0030
0001
0002
0000
,
0000
0003
0000
0000
0020
0000
0030
0000
0000
0000
0020
0000
0030
0000
0000
0000
,
0010
0000
0020
0030
0000
0020
0030
0000
,
0000
0000
0200
0300
0000
0002
0003
0000
,
0000
0000
0200
0300
0000
0002
0003
0000
,
0000
0000
0002
0003
0000
0200
0300
0000
,
0000
0000
0020
0030
0000
0020
0030
0000
,
0000
0000
0200
0300
0000
0200
0300
0000
,
0000
0000
0002
0003
0000
0002
0003
0000
,
0000
0000
0200
0300
0000
0200
0300
0000
,
0000
0000
0020
0030
0000
0020
0030
0000
,
0100
0000
0000
0002
0000
0000
0000
0000
0000
0000
0000
0000
0000
0000
0000
0000
0003
0000
0010
0000
0000
0000
0000
0000
,
0020
0000
0030
0000
0000
0000
2000
0000
3000
0000
0020
0000
0000
0030
0000
0000
,
0010
0000
0000
0000
;

//---------------dance-single - Copied from Copied f----------------
#NOTEDATA:;
#CHARTNAME:Copied from Copied f;
#STEPSTYPE:dance-single;
#DESCRIPTION:Copied from Copied f;
#CHARTSTYLE:;
#DIFFICULTY:Medium;
#METER:4;
#RADARVALUES:0.219334,0.351620,0.020563,0.870483,0.130230,224.000000,221.000000,3.000000,127.000000,0.000000,0.000000,0.000000,0.000000,0.000000,0.219334,0.351620,0.020563,0.870483,0.130230,224.000000,221.000000,3.000000,127.000000,0.000000,0.000000,0.000000,0.000000,0.000000;
#CREDIT:Copied from Copied f;
#NOTES:
0000
0000
0000
0000
,
0000
0000
0000
0000
,
0000
0000
0000
0000
,
0000
0000
0000
0000
,
2000
0000
0000
0000
3000
0000
0020
0030
,
0002
0000
0000
0000
0000
0000
0000
0000
0000
0000
0000
0003
0000
0000
0000
0000
,
0200
0000
0000
0000
0300
0000
0020
0030
,
0002
0000
0000
0003
,
1000
0001
0100
0100
0020
0000
0030
0002
,
0003
0000
0000
0110
0000
0000
0000
0000
,
1000
0010
0100
0001
2000
0000
3000
0100
,
0020
0030
0000
0000
,
1000
0001
0100
0010
0200
0000
0300
0002
,
0003
0000
0000
0110
0000
0000
0000
0000
,
1000
0001
0100
0010
2000
0000
3000
0010
,
0200
0300
0001
0010
,
1000
0010
0100
0001
2000
0000
3000
2000
,
0000
3000
0001
0000
0010
0000
0001
0000
,
0100
0010
1000
0100
0002
0000
0103
0010
,
2000
3000
0010
0100
2000
3000
0200
0300
,
0020
0030
1000
0010
2000
0000
3000
0100
,
0002
0000
0003
0010
0002
0003
0020
0030
,
0200
0300
0010
1000
0002
0000
0003
0001
,
0200
0000
0300
0100
0002
0000
0003
1000
,
0010
0000
0010
1000
0002
0000
0003
0100
,
2000
0000
3000
1000
0020
0030
0020
0030
,
0002
0003
1000
0010
2000
0000
3000
0010
,
0020
0000
0000
0000
0000
0030
0000
0000
0002
0000
0003
0020
0000
0030
0002
0000
,
0003
0000
0000
0000
0100
0000
0000
0000
0002
0000
0003
0020
0000
0030
0002
0000
,
0003
0000
0010
0002
0000
0000
0000
0003
,
0010
0000
0000
0000
2000
0000
0000
3000
0000
0000
2000
0000
0000
3000
0000
0000
,
1000
0100
0010
0001
0200
0300
0000
0020
0030
0000
2000
3000
0000
2000
0000
3000
,
0010
0100
1000
0100
0020
0030
0000
0200
0300
0000
0020
0030
0000
0020
0000
0030
,
0001
0000
0100
0000
0010
0000
0100
0000
0020
0000
0030
0020
0000
0030
0002
0000
0003
0000
0000
0000
0000
0000
0000
0000
0020
0000
0030
0002
0000
0003
0020
0000
,
0030
0000
0000
0000
0000
0000
0000
0000
0002
0000
0003
0020
0000
0030
0200
0000
0300
0000
0000
0000
0000
0000
0000
0000
0020
0000
0030
0002
0000
0003
0020
0000
,
0030
0000
0000
0000
0000
0000
0000
0000
0020
0000
0030
0002
0000
0003
0020
0000
0030
0000
0000
0000
0000
0000
0000
0000
0200
0000
0300
0002
0000
0003
0002
0000
,
0003
0000
0000
0000
0000
0000
0000
0000
0020
0000
0030
0002
0000
0003
0020
0000
0030
0000
0000
0000
0000
0000
0000
0000
1000
0000
0000
0000
0100
0000
0000
0000
,
0010
1001
0020
0030
0002
0003
0002
0003
,
0010
0001
0020
0000
0030
1000
0200
0000
,
0300
0001
0020
0030
0002
0003
0020
0030
,
0001
0010
0200
0000
0300
0100
2000
0000
,
3000
1000
0200
0000
0300
0010
0001
0000
,
0001
0010
0200
0000
0300
1000
0020
0000
,
0030
0010
0002
0003
0002
0003
0200
0300
,
0010
0001
0020
0000
0030
0001
0002
0000
,
0000
0003
0000
0000
0020
0000
0030
0002
0000
0003
0020
0000
0030
0000
0000
0000
,
0010
0000
0000
0000
0020
0000
0030
0002
0000
0003
0020
0000
0030
0000
0000
0000
,
0000
0000
0000
0000
0200
0000
0300
0020
0000
0030
0002
0000
0003
0000
0000
0000
,
0000
0000
0000
0000
0200
0000
0300
0020
0000
0030
0002
0000
0003
0000
0000
0000
,
0000
0000
0000
0000
0002
0000
0003
0020
0000
0030
0200
0000
0300
0000
0000
0000
,
0000
0000
0000
0000
0020
0000
0030
0002
0000
0003
0020
0000
0030
0000
0000
0000
,
0000
0000
0000
0000
0200
0000
0300
0002
0000
0003
0200
0000
0300
0000
0000
0000
,
0000
0000
0000
0000
0002
0000
0003
0200
0000
0300
0002
0000
0003
0000
0000
0000
,
0000
0000
0000
0000
0200
0000
0300
0002
0000
0003
0200
0000
0300
0000
0000
0000
,
0000
0000
0000
0000
0020
0000
0030
0002
0000
0003
0020
0000
0030
0000
0000
0000
,
0100
0000
0000
0002
0000
0000
0000
0000
0000
0000
0000
0000
0000
0000
0000
0000
0003
0000
0010
0000
0000
0000
0000
0000
,
0020
0000
0030
0020
0030
0000
2000
0000
3000
2000
0000
0000
0000
3000
0000
0000
,
0010
0000
0000
0000
;

//---------------dance-single - Copied from----------------
#NOTEDATA:;
#CHARTNAME:Copied from;
#STEPSTYPE:dance-single;
#DESCRIPTION:Copied from;
#CHARTSTYLE:;
#DIFFICULTY:Hard;
#METER:9;
#RADARVALUES:0.368168,0.605568,0.671711,1.535340,0.202199,376.000000,278.000000,98.000000,224.000000,0.000000,0.000000,0.000000,0.000000,0.000000,0.368168,0.605568,0.671711,1.535340,0.202199,376.000000,278.000000,98.000000,224.000000,0.000000,0.000000,0.000000,0.000000,0.000000;
#CREDIT:Copied from;
#NOTES:
// measure 0
0000
0000
0000
0000
,  // measure 1
0000
0000
0000
0000
,  // measure 2
0000
0000
0000
0000
,  // measure 3
0000
0000
0000
0000
,  // measure 4
2020
0000
0000
0000
3030
0000
0220
0330
,  // measure 5
2002
0000
0000
0000
0000
0000
0000
0000
0000
0000
0000
3003
0000
0000
0000
0000
,  // measure 6
0202
0000
0000
0000
0303
0000
0220
0330
,  // measure 7
2002
0000
0000
3003
,  // measure 8
1000
0001
0100
0100
0020
0000
1030
0002
,  // measure 9
1003
0000
0000
0000
1000
0000
0000
0100
1000
0000
0010
0000
0100
0000
0000
0000
,  // measure 10
1000
0010
0100
0001
2000
0000
3001
0100
,  // measure 11
0020
0000
0000
0000
1030
0000
0000
0100
1000
0000
0100
0000
0010
0000
0000
0000
,  // measure 12
1000
0001
0100
0010
0200
0000
0310
0002
,  // measure 13
1003
0000
0000
0000
1000
0000
0000
0100
1000
0000
0100
0000
0010
0000
0000
0000
,  // measure 14
1000
0001
0100
0010
2000
0000
3001
0010
,  // measure 15
0002
0013
1001
1010
,  // measure 16
1000
0010
0100
0001
2000
0000
3001
2000
,  // measure 17
0001
3000
0001
0000
1010
0000
0101
0000
,  // measure 18
0100
0010
1000
0100
0002
0000
0103
0010
,  // measure 19
2002
3003
0010
0100
2200
3300
0220
0330
,  // measure 20
0022
0033
1000
0010
2000
0000
3001
0100
,  // measure 21
0002
0000
0103
0010
2002
3003
2020
3030
,  // measure 22
2200
3300
0010
1000
0002
0000
1003
0001
,  // measure 23
0200
0000
0310
0100
0002
0000
0103
0010
,  // measure 24
1000
0000
0010
0100
0002
0000
0103
0010
,  // measure 25
0200
0000
0301
1000
2020
3030
0220
0330
,  // measure 26
0202
0303
1000
0010
2000
0000
3001
0010
,  // measure 27
0220
0000
0000
0000
0000
0330
0000
0000
2002
0000
3003
0220
0000
0330
2002
0000
,  // measure 28
3003
0000
0000
0000
1100
0000
0000
0000
2002
0000
3003
0220
0000
0330
2002
0000
,  // measure 29
3003
0000
0110
2002
0000
0000
0000
3003
,  // measure 30
0110
0000
0000
0000
2000
0000
0000
3002
0000
0000
2003
0000
0000
3002
0000
0000
,  // measure 31
1003
0010
1000
0010
0200
0302
0003
0020
0032
0003
0200
0302
0003
2000
0000
3001
,  // measure 32
0010
0001
0100
0010
2000
3200
0300
0002
0203
0300
0020
0230
0300
0020
0000
0130
,  // measure 33
0001
0000
0100
0000
0010
0000
0100
0000
2020
0000
3030
0220
0000
0330
2002
0000
3003
0000
0000
0000
0000
0000
0000
0000
0220
0000
0330
2002
0000
3003
0220
0000
,  // measure 34
0330
0000
0000
0000
0000
0000
0000
0000
0022
0000
0033
0220
0000
0330
2200
0000
3300
0000
0000
0000
0000
0000
0000
0000
0220
0000
0330
2002
0000
3003
0220
0000
,  // measure 35
0330
0000
0000
0000
0000
0000
0000
0000
0220
0000
0330
2002
0000
3003
0220
0000
0330
0000
0000
0000
0000
0000
0000
0000
2200
0000
3300
0022
0000
0033
2002
0000
,  // measure 36
3003
0000
0000
0000
0000
0000
0000
0000
0220
0000
0330
2002
0000
3003
0220
0000
0330
0000
0000
0000
0000
0000
0000
0000
1000
0000
0100
0010
0000
0100
0001
0000
,  // measure 37
1000
0010
1000
0010
0100
0000
0001
0000
0220
0000
0000
0000
0330
0000
0000
0000
2002
0000
0000
0000
3003
0000
0000
0000
0202
0000
0000
0000
0303
0000
0000
0000
,  // measure 38
0010
0001
0020
0000
0130
1000
0200
0000
,  // measure 39
1300
0001
0220
0330
0022
0033
2020
3030
,  // measure 40
0001
0010
0200
0000
0310
0100
2000
0000
,  // measure 41
3001
0010
0200
0000
0301
1000
0010
0000
,  // measure 42
0001
0010
0200
0000
0301
1000
0020
0000
,  // measure 43
0130
0010
0022
0033
2002
3003
2200
3300
,  // measure 44
0010
0001
0020
0000
0130
0001
2002
0000
,  // measure 45
0000
3003
0000
0000
0220
0000
0330
2002
0000
3003
0220
0000
0330
0000
0000
0000
,  // measure 46
1010
0000
0000
0000
0220
0000
0330
2002
0000
3003
0220
0000
0330
0000
0000
0000
,  // measure 47
0000
0000
0000
0000
2200
0000
3300
0220
0000
0330
0202
0000
0303
0000
0000
0000
,  // measure 48
0000
0000
0000
0000
2200
0000
3300
0220
0000
0330
0202
0000
0303
0000
0000
0000
,  // measure 49
0000
0000
0000
0000
0022
0000
0033
0220
0000
0330
2200
0000
3300
0000
0000
0000
,  // measure 50
0000
0000
0000
0000
0220
0000
0330
2002
0000
3003
0220
0000
0330
0000
0000
0000
,  // measure 51
0000
0000
0000
0000
2200
0000
3300
0022
0000
0033
2200
0000
3300
0000
0000
0000
,  // measure 52
0000
0000
0000
0000
0022
0000
0033
2200
0000
3300
0022
0000
0033
0000
0000
0000
,  // measure 53
0000
0000
0000
0000
2200
0000
3300
0022
0000
0033
2200
0000
3300
0000
0000
0000
,  // measure 54
0000
0000
0000
0000
0220
0000
0330
0022
0000
0033
0220
0000
0330
0000
0000
0010
,  // measure 55
0001
0000
0000
1000
0000
0000
0200
0000
0000
0000
0000
0000
0000
0000
0000
0000
0000
0000
0000
0000
0000
0000
0000
0000
0000
0000
0000
0000
0000
0000
0000
0000
0300
0000
0000
0000
0001
0000
0000
0000
0000
0000
0000
0000
0000
0000
0000
0000
,  // measure 56
2020
0000
3030
0220
0030
0300
0202
0000
0303
2002
0000
0000
0000
3003
0000
0000
,  // measure 57
1001
0000
0000
0000
;

//---------------dance-single - ----------------
#NOTEDATA:;
#CHARTNAME:;
#STEPSTYPE:dance-single;
#DESCRIPTION:;
#CHARTSTYLE:;
#DIFFICULTY:Challenge;
#METER:14;
#RADARVALUES:0.460210,0.703241,0.610024,0.788233,0.376981,470.000000,381.000000,89.000000,115.000000,0.000000,0.000000,0.000000,0.000000,0.000000,0.460210,0.703241,0.610024,0.788233,0.376981,470.000000,381.000000,89.000000,115.000000,0.000000,0.000000,0.000000,0.000000,0.000000;
#CREDIT:;
#NOTES:
0000
0000
0000
0000
,
0000
0000
0000
0000
,
0000
0000
0000
0000
,
0000
0000
0010
0000
0100
0000
0000
1000
0001
0000
1000
0000
0000
0001
1000
0000
,
0110
0000
0000
0000
1000
0000
0000
1000
0010
0000
0100
0000
0010
0000
0000
0000
,
1000
0000
0000
0000
1000
0000
0000
0010
0100
0000
0100
0000
0010
0000
0100
0000
,
0110
0000
0000
0000
1000
0000
0000
1000
0001
0000
1000
0000
0001
0000
0000
0000
,
1000
0000
0000
0000
1000
0000
0000
0100
0010
0000
0010
0000
0100
0000
0010
0000
,
0110
0000
0100
0000
0001
0000
0000
1000
0010
0000
1000
0000
0001
0000
2010
0000
,
3001
0000
0000
0000
1001
0000
0000
0010
0100
0000
0100
0000
0001
0000
1000
0000
,
0001
0000
0000
0000
0100
0000
0000
0010
0100
0000
0100
0000
0001
0000
2010
0000
,
3001
0000
0000
0000
0110
0000
0000
1000
0001
0000
0001
0000
1000
0000
0001
0000
,
0110
0000
0000
0000
1000
0000
0000
1000
0010
0000
0100
0000
0010
0000
0210
0000
,
0301
0000
0000
0000
1000
0000
0000
1000
0100
0000
0100
0000
0010
0000
0100
0000
,
0001
0000
0000
0000
1000
0000
0000
1000
0010
0000
0010
0000
0001
0000
0210
0000
,
1300
0000
0000
0000
1000
0000
0000
0010
0100
0000
0100
0000
0001
0000
1000
0000
,
0110
0000
0000
0000
1010
0000
0000
1000
0010
0000
0100
0000
0001
0000
0100
0000
,
0010
0000
0000
0000
1001
0000
0000
0100
0010
0000
0100
0000
0010
0000
0001
0000
,
1000
0000
0000
0000
0101
0000
0000
0100
0010
0000
0010
0000
0100
0000
0001
0000
,
1010
0000
0000
0000
0000
0000
0000
0000
1001
0000
0000
0000
0100
0000
0000
1000
,
0010
0000
0010
0000
0100
0000
0000
0000
0101
0000
0000
0000
1000
0000
0000
0100
,
0010
0000
0100
0000
0001
0000
0100
0000
0010
0000
0000
0000
1000
0000
0000
1000
,
0001
0000
1000
0000
1001
0000
0000
0000
1100
0000
0000
0000
0100
0000
0000
0001
,
1000
0000
1000
0000
0001
0000
0010
0000
0001
0000
0000
0000
0100
0000
0000
0100
,
0010
0000
0100
0000
0110
0000
0000
0000
1001
0000
0000
0000
0100
0000
0000
0010
,
0100
0000
0100
0000
0010
0000
0100
0000
0001
0000
0000
0000
0010
0000
0000
0010
,
0100
0000
0100
0000
1010
0000
0000
0000
1001
0000
0000
0000
0010
0000
0000
0010
,
0100
0000
0000
0100
0001
0100
0010
0000
1001
0000
0000
0110
0000
0000
0011
0000
,
0000
0000
0000
0001
1000
0010
0100
0000
1100
0000
0000
1010
0000
0000
0101
0000
,
0000
0000
0000
0100
0010
0100
2002
0000
0000
0000
0000
0000
3003
0000
0000
0000
,
0110
0000
0000
0000
0010
0000
1000
0001
0000
0001
1000
0000
0000
0001
0000
0000
,
0100
0010
0100
0010
0200
0302
0003
0020
0032
0003
2000
3020
0000
2030
0000
3100
,
0010
0100
0001
1000
0020
0230
0300
0002
0203
0300
0020
0230
0300
2000
0000
3010
,
0100
0000
0001
0000
0010
0000
0001
0000
0220
0000
0330
0220
0000
0330
0220
0000
0330
0000
0000
0000
1000
0000
0001
0000
0220
0000
0330
0202
0000
0303
0220
0000
,
0330
0000
1000
0000
0010
0000
1000
0000
2002
0000
3003
0202
0000
0303
2002
0000
3003
0000
0000
0000
0010
0000
1000
0000
0220
0000
0330
0202
0000
0303
0220
0000
,
0330
0000
1000
0000
0001
0000
1000
0000
0220
0000
0330
2020
0000
3030
0220
0000
0330
0000
0000
0000
0000
0000
0000
0000
2200
0000
3300
0220
0000
0330
0202
0000
,
0303
0000
0000
0000
1000
0000
0001
0000
2002
0000
0000
0000
3003
0000
0000
0000
0220
0000
0000
0000
0330
0000
0000
0000
0010
0000
0100
1000
0000
1000
0010
0000
,
0100
0001
0100
0010
1000
0010
0100
0010
0101
0000
0000
0000
0000
0000
0000
0000
0100
0000
0000
0000
0000
0000
1000
0000
0010
0000
0000
0000
0010
0000
0000
0000
,
0001
0000
0000
0000
0110
0000
0000
0000
1000
0000
0000
0100
0010
0000
0010
0000
,
0001
0000
1000
0000
0100
0000
0000
0000
0100
0000
0000
1000
0001
0000
0001
0000
,
0110
0000
0000
0000
1100
0000
0000
0000
0100
0000
0000
0001
1000
0000
1000
0000
,
0010
0000
0100
0000
0001
0000
0000
0000
0100
0000
0000
0100
0010
0000
0010
0000
,
0101
0000
0000
0000
1001
0000
0000
0000
1000
0000
0000
0010
0100
0000
0100
0000
,
0001
0000
1000
0000
0100
0000
0000
0000
0010
0000
0000
0010
0100
0000
0100
0000
,
1010
0000
0000
0000
1001
0000
0000
0000
0100
0000
0000
0001
0100
0000
0010
0000
,
1000
0000
0010
0000
1002
0000
0000
0100
0000
0000
1000
0000
0000
0000
0010
0000
,
0103
0000
0010
0000
0020
0000
0030
0220
0000
0330
2002
0000
3003
0000
0000
0000
,
1000
0000
0010
0000
2002
0000
3003
0220
0000
0330
0202
0000
0303
0000
0000
0000
,
1000
0000
0010
0000
2020
0000
3030
0202
0000
0303
0220
0000
0330
0000
0000
0000
,
1000
0000
0010
0000
2020
0000
3030
0202
0000
0303
0220
0000
0330
0000
0000
0000
,
1000
0000
0100
0000
2002
0000
3003
0220
0000
0330
0101
0000
2000
0000
0000
0000
,
3010
0000
0100
0000
0202
0000
0303
2020
0000
3030
0202
0000
0303
0000
0000
0000
,
0010
0000
0100
0000
2020
0000
3030
2002
0000
3003
0220
0000
0330
0000
0000
1000
,
0100
0010
0100
0000
0202
0000
0303
0220
0000
0330
0202
0000
0303
0000
0000
1000
,
0100
0010
0100
0000
0202
0000
0303
0220
0000
0330
0202
0000
0303
0000
0000
1000
,
0010
0000
0000
0100
0000
0000
2002
0000
0000
0000
0000
0000
0000
0000
0000
0000
0000
0000
0000
0000
0000
0000
0000
0000
0000
0000
0000
0000
0000
0000
0000
0000
3003
0000
0000
0000
0110
0000
0000
0000
0000
0000
0000
0000
0000
0000
0000
0000
,
1000
0000
1000
0001
0000
0100
1000
0000
0000
0001
0000
0000
1000
0100
0010
0100
,
1001
0000
0000
0000
;
