#TITLE:Beauty and the Beast;
#SUBTITLE:;
#ARTIST:John Legend feat Ariana Grande;
#TITLETRANSLIT:;
#SUBTITLETRANSLIT:;
#ARTISTTRANSLIT:;
#GENRE:;
#CREDIT:;
#BANNER:AV.avi;
#BACKGROUND:Beauty a t b-bg.png;
#LYRICSPATH:;
#CDTITLE:;
#MUSIC:Beauty and the Beast_001.mp3;
#OFFSET:-0.180000;
#SAMPLESTART:84.014000;
#SAMPLELENGTH:24.559999;
#SELECTABLE:YES;
#DISPLAYBPM:81.000000;
#BPMS:0.000000=81.419998
,38.000000=40.709999
,39.000000=81.419998
,69.000000=40.709999
,70.000000=81.419998
,76.000000=40.709999
,77.000000=81.419998
,110.000000=58.400002
,111.000000=81.419998
,164.000000=40.709999
,165.000000=81.419998
,178.500000=74.779999
,179.000000=70.459999
,179.500000=66.839996
,179.750000=36.360001
,180.000000=21.620001
,180.750000=11.100000
;
#STOPS:
;
#BGCHANGES:0.000=batb.avi=1.000=1=1=1=StretchRewind==CrossFade==,
82.500=batb.avi=0.800=0=0=1=====,
83.500=batb.avi=1.000=0=0=1=====,
99999=-nosongbg-=1.000=0=0=0 // don't automatically add -songbackground-
;
#KEYSOUNDS:;
#ATTACKS:;

//---------------dance-single - ----------------
#NOTES:
     dance-single:
     :
     Challenge:
     9:
     0.379778,0.406660,0.914877,0.291700,0.072925,401.000000,263.000000,138.000000,44.000000,0.000000,0.000000,0.379778,0.406660,0.914877,0.291700,0.072925,401.000000,263.000000,138.000000,44.000000,0.000000,0.000000:
// measure 0
0000
0000
0000
0000
,  // measure 1
0000
0000
0000
0000
,  // measure 2
0000
0000
0000
0000
,  // measure 3
0000
0000
0000
0000
,  // measure 4
1010
0000
1001
0110
0110
0000
0102
0000
,  // measure 5
0103
0000
1001
0110
0110
0010
0110
0001
,  // measure 6
1002
0000
0100
1003
1010
0000
0210
0000
,  // measure 7
1300
0000
0101
0110
0110
0001
1010
0100
,  // measure 8
2010
0000
0000
0000
0001
3000
0011
0000
1010
0000
0100
0000
1010
0000
0100
0000
,  // measure 9
2002
0000
0000
3003
0000
0000
1001
0000
,  // measure 10
0110
1100
1100
0010
0101
0001
0102
0023
,  // measure 11
0230
2300
3200
0000
0320
0000
2030
0000
,  // measure 12
0100
0010
0010
3000
1001
0000
0100
0000
,  // measure 13
1010
0000
0020
0000
0230
0000
0000
2300
0001
0000
3020
0000
2030
0000
0000
0000
,  // measure 14
0010
0000
3001
0000
0101
0000
0000
0010
1010
0000
0000
1000
0210
0000
0000
0000
,  // measure 15
0001
1300
0101
1000
0110
0010
1010
0020
,  // measure 16
1030
0001
0101
0010
1001
0010
0110
0000
,  // measure 17
1010
0000
0000
0000
0000
0000
0000
0000
0000
0000
0000
0000
0000
0000
0000
0000
0000
0000
0000
0000
0000
0000
0000
0000
0100
0000
0000
0000
0000
0000
0000
0000
0000
0000
0000
0000
0000
0000
0000
0000
0000
0000
0000
0000
0000
0000
0000
0000
1001
0000
0000
0000
0000
0000
0000
0000
0000
0000
0000
0000
0000
0000
0000
0000
0100
0000
0000
0000
0000
0000
0000
0000
0000
0000
0000
0000
0000
0000
0010
0000
0000
0000
0000
0000
0000
0000
0000
0000
0000
0000
0000
0000
0000
0000
0000
0000
1001
0000
0000
0000
0000
0000
0000
0000
0000
0000
0000
0000
0000
0000
0000
0000
0000
0000
0000
0000
0000
0000
0000
0000
0000
0000
0000
0000
0000
0000
0000
0000
0000
0000
0000
0000
0000
0000
0000
0000
0000
0000
0000
0000
0000
0000
0000
0000
1001
0000
0000
0000
0000
0000
0000
0000
0000
0000
0000
0000
0000
0000
0000
0000
0000
0000
0000
0000
0000
0000
0000
0000
0110
0000
0000
0000
0000
0000
0000
0000
0000
0000
0000
0000
0000
0000
0000
0000
0000
0000
0000
0000
0000
0000
0000
0000
,  // measure 18
0020
2030
3200
0320
0032
0000
0000
0000
,  // measure 19
0003
0000
0110
0000
1001
0110
0110
0000
,  // measure 20
0020
0000
0000
0030
0200
0000
0000
0300
2000
0000
3010
0000
0110
0000
0002
0000
,  // measure 21
1003
0000
0110
0000
1001
0110
0110
1000
,  // measure 22
0100
0010
1001
0000
1001
0110
0110
0010
,  // measure 23
0100
0001
0110
0000
1001
0110
0110
0010
,  // measure 24
1000
0010
0101
0000
0110
1000
0100
0010
,  // measure 25
1010
0101
1010
0101
,  // measure 26
0110
0000
0000
0000
0000
0000
0000
0000
0000
0000
0000
0000
0000
0000
0000
0000
1001
0000
0000
0000
0000
0000
0000
0000
0100
0000
0010
0000
0000
1000
0000
0000
0010
0000
0000
0000
0000
0000
0000
0000
0110
0000
0000
0000
0000
0000
0000
0000
1001
0000
0000
0100
0000
0000
0010
0000
0000
0100
0000
0000
0000
0000
0000
0000
,  // measure 27
2001
0000
0000
0000
0000
0000
0000
0000
0010
0000
0000
0000
0010
0000
0000
0001
3000
0000
0000
0000
0000
0000
0000
0000
1001
0000
0000
0000
0110
0000
0000
0000
,  // measure 28
0110
0001
1100
0000
0110
0000
1001
0110
,  // measure 29
0110
0000
0000
0110
0000
0000
1001
0000
1002
0000
0000
0000
1000
0000
0100
0000
,  // measure 30
0103
0000
1010
0000
0101
0000
1001
0110
,  // measure 31
0110
0000
0100
0010
0100
0000
0001
0000
1001
0000
0000
0000
1001
0000
0110
0000
,  // measure 32
0110
0000
1010
0000
0102
0000
0103
0100
,  // measure 33
2010
0010
3020
0100
2030
0000
3001
0110
,  // measure 34
0110
1000
0010
0200
0310
0000
0101
1000
,  // measure 35
0110
0000
0110
0000
1000
0001
1000
0000
0110
0000
0000
0100
0101
0000
0001
0000
,  // measure 36
0101
0000
0110
0000
1010
0000
0110
1001
,  // measure 37
1001
0000
0000
1010
0000
0000
0110
0000
0110
0000
0000
0000
0101
0000
1010
0000
,  // measure 38
1010
0000
0110
0000
1100
0000
1001
0110
,  // measure 39
0110
0020
1030
0002
0103
0000
1010
0010
,  // measure 40
0101
0100
0110
1000
1010
0000
0100
2010
,  // measure 41
3010
0000
0000
0000
0000
0000
0000
0000
0000
0000
0000
0000
0000
0000
0000
0000
0001
0000
0000
0000
0000
0000
0000
0000
0000
0000
0000
0000
0000
0000
0100
0000
0000
0000
0000
0000
0000
0000
0000
0000
0000
0000
0000
0000
0000
0000
0000
0000
0110
0000
0000
0000
0000
0000
0000
0000
0000
0000
0000
0000
0000
0000
0000
0000
0000
0000
0000
0000
0000
0000
0000
0000
0000
0000
0000
0000
0000
0000
0000
0000
0000
0000
0000
0000
0000
0000
0000
0000
0000
0000
0000
0000
0000
0000
0000
0000
1000
0000
0000
0000
0000
0000
0000
0000
0000
0000
0000
0000
0000
0000
0000
0000
0000
0000
0000
0000
0000
0000
0000
0000
0110
0000
0000
0000
0000
0000
0000
0000
0000
0000
0000
0000
0000
0000
0000
0000
0000
0000
0000
0000
0000
0000
0000
0000
0110
0000
0000
0000
0000
0000
0000
0000
0000
0000
0000
0000
0000
0000
0000
0000
0000
0000
0000
0000
0000
0000
0000
0000
0001
0000
0000
0000
0000
0000
0000
0000
0000
0000
0000
0000
0000
0000
0000
0000
0000
0000
0000
0000
0000
0000
0000
0000
,  // measure 42
0010
0100
1100
0000
0110
1001
1001
0010
,  // measure 43
0101
0000
0010
0000
0110
0000
0000
0000
1001
0000
0110
0000
0110
0000
0000
0010
,  // measure 44
0110
0000
0000
0000
0220
0000
0000
0000
0000
0000
0330
0000
0000
1000
0000
0001
,  // measure 45
0100
0020
0000
0030
2002
0000
0000
3003
0000
0000
0000
0000
0000
0000
0000
0000
;

//---------------dance-single - Copied from----------------
#NOTES:
     dance-single:
     Copied from:
     Hard:
     6:
     0.226351,0.225922,0.046407,0.278441,0.009944,239.000000,232.000000,7.000000,42.000000,0.000000,1.000000,0.226351,0.225922,0.046407,0.278441,0.009944,239.000000,232.000000,7.000000,42.000000,0.000000,1.000000:
0000
0000
0000
0000
,
0000
0000
0000
0000
,
0000
0000
0000
0000
,
0000
0000
0000
0000
,
0100
0000
1000
0100
2000
0000
3010
0000
,
0001
0000
0010
0100
0020
0000
0031
0000
,
1000
0000
0010
0100
0002
0000
1003
0000
,
0100
0000
0010
0001
2000
0000
3010
0000
,
0100
0000
0001
1000
0200
0000
0310
0000
,
1002
0013
0110
1100
,
0100
0010
0001
0000
1000
0000
2000
3200
,
0320
0032
0023
0000
0230
0000
2300
0000
,
3010
0100
0100
0000
0001
0000
1000
0000
,
0100
0000
0010
0000
0010
0000
0000
0001
0000
0000
1000
0000
0200
0000
0000
0000
,
0310
0100
0100
1000
0001
0100
0020
0000
,
1030
0001
0010
0100
1000
0001
0200
0000
,
0310
0001
1000
0100
0010
0100
2000
0000
,
3100
0010
0100
0000
0110
0000
0001
1000
,
2000
3200
0320
0032
0203
0000
0000
0000
,
0300
0000
2001
0000
0100
0010
0010
0000
,
0002
0000
0000
0000
0203
0000
0000
3000
0310
0000
0100
0000
0100
0000
0001
0000
,
0010
0100
1000
0000
0100
1000
1000
0010
,
0100
0000
0001
0000
1000
0001
0001
1000
,
0010
0001
0200
0000
0310
0001
1000
0010
,
0001
0100
0010
0000
0001
1000
0010
0100
,
0002
0010
1000
0100
,
0010
0003
0100
1000
0100
0010
0001
1000
,
0020
0000
0000
0000
0000
0000
0000
0000
0000
0000
0000
0000
0000
0000
0000
0000
0000
0000
0000
0000
0000
0000
0000
0000
0000
0000
0000
0000
0000
0000
0000
0000
0000
0000
0000
0000
0000
0000
0000
0000
0000
0000
0000
0000
0000
0000
0000
0000
0000
0000
0000
0000
0000
0000
0000
0000
0000
0000
0000
0000
0000
0000
0000
0000
0000
0000
0000
0000
0000
0000
0000
0000
0000
0000
0000
0000
0000
0000
0000
0000
0000
0000
0000
0000
0000
0000
0000
0000
0000
0000
0000
0000
0000
0000
0000
0000
0000
0030
0000
0000
0000
0000
0000
0000
0000
0000
0000
0000
0000
0000
0000
0000
0000
0000
0000
0000
0000
0000
0000
0000
0000
0000
0000
0000
0000
0000
0000
0000
0000
0000
0000
0000
0000
0000
0000
0000
0000
0000
0000
0000
0000
0000
0000
0000
0000
0000
0000
0000
0000
0000
0000
0000
0000
0000
0000
0000
0000
0000
0000
0000
0000
0000
0000
0000
0000
0000
0000
0000
0000
0000
0000
0000
0000
0000
0000
0000
0000
0000
0000
0000
0000
0000
0000
0000
0000
0000
0000
0000
0000
0000
0000
0000
,
1000
0100
0010
0001
2000
0000
0010
0000
,
0001
0000
3100
0000
0010
0000
0100
0001
,
1000
0100
0010
0001
2000
0000
0010
0000
,
0100
0000
3001
0000
0010
0000
1000
0100
,
0010
0001
1000
0100
0020
0000
0031
0000
,
0100
1000
0010
0100
0002
0000
1003
0000
,
0100
0010
0001
1000
0002
0000
1000
0000
,
0100
0000
0013
0000
0100
1000
0010
1000
,
0002
0000
0103
0000
0010
1000
0100
0010
,
0001
0000
0000
1000
0000
0000
0001
0000
1000
0000
0000
0000
0010
0000
0100
0000
,
0001
0010
0100
1000
0020
0000
1030
0001
,
0010
0100
1000
0100
2000
0000
3100
0010
,
0100
0001
1000
0100
2000
0000
3100
0000
,
0110
0000
1001
0000
0100
0000
0010
0100
,
1000
0001
0200
0000
0310
0000
0001
1000
,
0100
1000
0002
0000
0103
0000
0010
0001
,
1000
0000
0100
0000
0020
0000
0000
0000
0000
0000
0030
0000
0000
0200
0000
0000
,
0000
0000
0000
0300
2000
0000
0000
3000
0000
0000
0000
0000
0000
0000
0000
0000
;

//---------------dance-single - Copied from Copied f----------------
#NOTES:
     dance-single:
     Copied from Copied f:
     Medium:
     4:
     0.166686,0.195799,0.019889,0.066295,0.003315,176.000000,173.000000,3.000000,10.000000,0.000000,0.000000,0.166686,0.195799,0.019889,0.066295,0.003315,176.000000,173.000000,3.000000,10.000000,0.000000,0.000000:
0000
0000
0000
0000
,
0000
0000
0000
0000
,
0000
0000
0000
0000
,
0000
0000
0000
0000
,
1000
0000
0010
0100
0100
0000
0010
0000
,
0000
0000
0010
0001
0001
0000
0100
0000
,
0000
0000
1000
0100
0100
0000
1000
0000
,
0000
0000
0010
0100
0100
0000
0010
0000
,
0000
0000
0001
1000
1000
0000
0001
0000
,
0100
0000
0000
1000
,
0100
0010
0010
0000
0100
0000
0001
0000
,
1000
0000
1000
0001
,
0100
0001
0001
0000
1000
0000
0000
0000
,
0010
0100
0100
0000
0010
0000
0000
0000
,
0001
1000
1000
0000
0001
0000
0000
0000
,
0100
0010
0010
0000
0100
0000
0001
0000
,
0000
0001
0001
0000
1000
0000
0100
0000
,
1000
0000
0010
0000
1000
0000
0100
0010
,
0010
0100
0010
0100
0002
0000
0000
0003
,
0000
0000
1000
0000
0100
0010
0010
0000
,
0200
2300
3200
0310
,
0000
0100
0010
0100
,
0001
0100
0010
1000
,
0010
0100
0010
0100
,
0001
1000
0001
0100
,
0010
1000
1000
1000
,
1000
0000
1001
0000
0000
1001
0000
0000
,
2002
0000
3003
0000
,
1000
0100
1000
0010
,
0100
0001
0100
0010
,
1000
0000
0010
0000
0100
0000
0001
0100
,
0100
0000
0001
0000
1000
0000
0100
1000
,
1000
0000
0010
0000
0100
0000
0001
0100
,
0100
0000
0010
0000
0100
0000
1000
0100
,
0100
0010
0001
0001
,
0001
0001
1000
1000
,
1000
0100
0010
0000
0001
0000
0010
0000
,
0001
0010
0100
0000
1000
0000
0100
0000
,
1000
0100
0010
0000
0001
0000
0010
0100
,
0100
0010
0100
0000
1000
0000
0100
1000
,
1000
0000
0010
0000
1000
0000
0001
0100
,
0200
0310
1000
0100
,
1000
0000
0001
0000
0100
0010
0010
0000
,
0100
0000
1000
0000
0100
1000
1000
0000
,
0000
0000
0000
0000
2000
0000
0000
0000
0000
0000
3000
0000
0000
2000
0000
0000
,
0000
0000
0000
3000
0200
0000
0000
0300
0000
0000
0000
0000
0000
0000
0000
0000
;

//---------------dance-single - Copied from Copied f----------------
#NOTES:
     dance-single:
     Copied from Copied f:
     Easy:
     2:
     0.142062,0.165676,0.006630,0.059666,0.013259,150.000000,149.000000,1.000000,9.000000,0.000000,0.000000,0.142062,0.165676,0.006630,0.059666,0.013259,150.000000,149.000000,1.000000,9.000000,0.000000,0.000000:
0000
0000
0000
0000
,
0000
0000
0000
0000
,
0000
0000
0000
0000
,
0000
0000
0000
0000
,
1000
0010
0100
0010
,
0000
0010
0001
0100
,
0000
1000
0100
1000
,
0000
0010
0100
0010
,
0000
0001
1000
0001
,
0100
0000
0000
1000
,
0100
0010
0100
0001
,
1000
0000
1000
0001
,
0100
0001
1000
0000
,
0010
0100
0010
0000
,
0001
1000
0001
0000
,
0100
0010
0100
0001
,
0000
0001
1000
0100
,
1000
0000
0000
0000
0000
0000
0000
0000
0000
0000
0000
0000
0000
0000
0000
0000
0000
0000
0000
0000
0000
0000
0000
0000
0000
0000
0000
0000
0000
0000
0000
0000
0000
0000
0000
0000
0000
0000
0000
0000
0000
0000
0000
0000
0000
0000
0000
0000
0010
0000
0000
0000
0000
0000
0000
0000
0000
0000
0000
0000
0000
0000
0000
0000
0100
0000
0000
0000
0000
0000
0000
0000
0000
0000
0000
0000
0000
0000
0010
0000
0000
0000
0000
0000
0000
0000
0000
0000
0000
0000
0000
0000
0000
0000
0000
0000
1000
0000
0000
0000
0000
0000
0000
0000
0000
0000
0000
0000
0000
0000
0000
0000
0000
0000
0000
0000
0000
0000
0000
0000
0000
0000
0000
0000
0000
0000
0000
0000
0000
0000
0000
0000
0000
0000
0000
0000
0000
0000
0000
0000
0000
0000
0000
0000
0100
0000
0000
0000
0000
0000
0000
0000
0000
0000
0000
0000
0000
0000
0000
0000
0000
0000
0000
0000
0000
0000
0000
0000
0000
0000
0000
0000
0000
0000
0000
0000
0000
0000
0000
0000
0000
0000
0000
0000
0000
0000
0000
0000
0000
0000
0000
0000
,
0010
0000
0010
0000
0002
0000
0000
0003
,
0000
1000
0100
0010
,
0200
2300
3200
0310
,
0000
0100
0010
0100
,
0001
0100
0010
1000
,
0010
0100
0010
0100
,
0001
1000
0001
0100
,
0010
1000
1000
1000
,
1000
0000
1000
0000
0000
1000
0000
0000
,
2002
0000
3003
0000
,
1000
0100
1000
0010
,
0100
0001
0100
0010
,
1000
0010
0100
0001
,
0100
0001
1000
0100
,
1000
0010
0100
0001
,
0100
0010
0100
1000
,
0100
0010
0001
0001
,
0001
0001
1000
1000
,
1000
0010
0001
0010
,
0001
0100
1000
0100
,
1000
0010
0001
0010
,
0100
0100
1000
0100
,
1000
0010
1000
0001
,
0200
0310
1000
0100
,
1000
0001
0100
0010
,
0100
1000
0100
1000
,
0000
0000
0000
0000
2000
0000
0000
0000
0000
0000
3000
0000
0000
1000
0000
0001
,
0100
0000
0000
0000
2000
0000
0000
3000
0000
0000
0000
0000
0000
0000
0000
0000
;

//---------------dance-single - Copied from Copied f----------------
#NOTES:
     dance-single:
     Copied from Copied f:
     Beginner:
     1:
     0.077660,0.090245,0.006630,0.019889,0.000000,82.000000,81.000000,1.000000,3.000000,0.000000,0.000000,0.077660,0.090245,0.006630,0.019889,0.000000,82.000000,81.000000,1.000000,3.000000,0.000000,0.000000:
0000
0000
0000
0000
,
0000
0000
0000
0000
,
0000
0000
0000
0000
,
0000
0000
0000
0000
,
1000
0000
1000
0000
,
0001
0000
0100
0000
,
1000
0000
0001
0000
,
1000
0000
0010
0000
,
0100
0000
0001
0000
,
1000
0000
0000
1000
,
0000
1000
0000
1000
,
1000
1000
0000
0001
,
0000
0001
0000
1000
,
0000
1000
0000
1000
,
0000
0100
0000
0001
,
0000
1000
0000
0100
,
0000
1000
0000
0100
,
0000
1000
0000
0000
,
1000
0000
0001
0000
,
0000
0001
0000
1000
,
0000
0001
0000
1000
,
0000
0001
0000
1000
,
0000
0001
0000
1000
,
0000
1000
0000
0100
,
0000
0001
0000
0001
,
0000
1000
0000
0000
,
0000
1000
0000
0000
,
2002
0000
3003
0000
,
1000
0000
0001
0000
,
0001
0000
1000
0000
,
0001
0000
1000
0000
,
0100
0000
1000
0000
,
0001
0000
1000
0000
,
0001
0000
1000
0000
,
0001
0000
1000
0000
,
1000
0000
0001
0000
,
0001
0000
1000
0000
,
1000
0000
0100
0000
,
1000
0000
0001
0000
,
0001
0000
1000
0000
,
1000
0000
0001
0000
,
1000
1000
0000
1000
,
0000
0001
0000
1000
,
0000
0001
0000
1000
,
0000
0100
0000
1000
,
0000
0000
2000
3000
0000
0000
0000
0000
;
