#TITLE:Beautiful Day;
#SUBTITLE:DJ MAX RESPECT;
#ARTIST:ND Lee;
#TITLETRANSLIT:;
#SUBTITLETRANSLIT:;
#ARTISTTRANSLIT:;
#GENRE:;
#CREDIT:;
#BANNER:AV.avi;
#BACKGROUND:BG.jpg;
#LYRICSPATH:;
#CDTITLE:;
#MUSIC:ND Lee - Beautiful Day.mp3;
#OFFSET:-0.060000;
#SAMPLESTART:25.959999;
#SAMPLELENGTH:15.000000;
#SELECTABLE:YES;
#BPMS:0.000000=82.989998
,20.000000=41.494999
,24.000000=82.989998
,84.000000=41.494999
,88.000000=82.989998
;
#STOPS:
;
#BGCHANGES:0.000=Beautiful Day.avi=1.200=1=1=1=StretchRewind==CrossFade==,
1.500=Beautiful Day.avi=1.000=0=0=1=====,
99999=-nosongbg-=1.000=0=0=0 // don't automatically add -songbackground-
;
#KEYSOUNDS:;
#ATTACKS:;

//---------------dance-single - ----------------
#NOTES:
     dance-single:
     :
     Challenge:
     14:
     0.625385,0.668297,0.830520,0.139714,0.686925,564.000000,457.000000,107.000000,18.000000,0.000000,0.000000,0.625385,0.668297,0.830520,0.139714,0.686925,564.000000,457.000000,107.000000,18.000000,0.000000,0.000000:
0000
0000
0000
0000
0000
0000
0000
0100
,
1001
0000
0000
0000
0100
0000
0000
0000
0000
0000
0000
0000
0100
0000
0000
0010
1001
0000
0000
0000
1000
0000
0000
0000
0000
0000
0000
0000
1000
0000
0000
0100
,
1010
0000
0000
0001
0010
0000
0000
1000
0100
0000
0000
0010
0100
0000
0000
0100
1001
0000
0000
0000
0100
0000
0000
0000
0100
0000
0000
0000
0100
0000
0000
0010
,
0101
0000
0000
0000
0010
0000
0000
0000
0000
0000
0000
0000
0010
0000
0000
0100
1001
0000
0000
0000
0001
0000
0000
0000
0000
0000
0000
0000
0001
0000
0000
0010
,
0101
0000
0000
1000
0100
0000
0000
0001
0010
0000
0000
0100
0010
0000
0000
0010
1001
0000
0000
0000
0110
0000
0000
0000
1001
0000
0000
0000
0110
0000
0000
0000
,
1001
0000
0000
0000
1100
0000
0000
0000
0000
0000
0000
0000
0110
0000
0010
0000
0000
0000
0000
0000
0110
0000
0000
0000
0000
0000
0000
0000
0110
0000
0100
0000
0110
0000
0000
0000
1001
0000
0000
0000
0000
0000
0000
0000
0110
0000
0100
0000
0010
0000
0000
0000
1001
0000
0000
0000
0000
0000
0000
0000
0000
0000
0000
0100
,
1100
0000
0000
0000
0110
0000
2000
0000
3100
0000
0002
0000
1003
0000
0000
0010
1100
0000
0000
0000
0100
0000
0002
0000
0013
0000
2000
0000
3001
0000
0000
0100
,
0110
0000
0000
0000
0000
0000
0000
0000
0000
0000
0000
0000
0000
0000
0000
0000
0000
0000
0000
0000
0000
0000
0000
0000
0001
0000
0000
0000
0000
0000
0000
0000
0000
0000
0000
0000
0000
0000
0000
0000
0000
0000
0000
0000
0000
0000
0000
0000
1000
0000
0000
0000
0000
0000
0000
0000
0000
0000
0000
0000
0000
0000
0000
0000
0000
0000
0000
0000
0000
0000
0000
0000
1000
0000
0000
0000
0000
0000
0000
0000
0000
0000
0000
0000
0000
0000
0000
0000
0000
0000
0010
0000
0000
0000
0000
0000
1100
0000
0000
0000
0000
0000
0000
0000
0000
0000
0000
0000
0000
0000
0000
0000
0000
0000
0000
0000
0000
0000
0000
0000
0110
0000
0000
0000
0000
0000
0000
0000
0000
0000
0000
0000
0000
0000
0000
0000
0001
0000
0000
0000
0000
0000
0000
0000
0100
0000
0000
0000
0000
0000
0000
0000
0010
0000
0000
0000
0000
0000
0000
0000
0001
0000
0000
0000
0000
0000
0000
0000
1000
0000
0000
0000
0000
0000
0000
0000
0000
0000
0000
0000
0000
0000
0000
0000
1000
0000
0000
0000
0000
0000
0000
0000
,
0210
0000
0000
0000
0010
0000
0000
0000
1000
0000
0000
0000
1000
0300
0000
1000
0101
0000
0010
0000
0100
0000
1000
0000
0000
0000
0100
0000
0000
0000
1020
0001
,
1000
0000
0000
0000
0000
0000
0000
0000
0000
0000
0000
0000
0000
0000
0000
0000
0000
0000
0000
0000
0000
0000
0000
0000
1030
0000
0000
0000
0000
0000
0000
0000
0000
0000
0000
0000
0000
0000
0000
0000
0000
0000
0000
0000
0000
0000
0000
0000
0100
0000
0000
0000
0000
0000
0000
0000
0000
0000
0000
0000
0000
0000
0000
0000
0000
0000
0000
0000
0000
0000
0000
0000
0010
0000
0000
0000
0000
0000
0000
0000
0000
0000
0000
0000
0010
0000
0000
0000
0000
0000
1000
0000
0000
0000
0000
0000
0101
0000
0000
0000
0000
0000
0000
0000
0000
0000
0000
0000
0000
0000
0000
0000
0000
0000
0000
0000
0000
0000
0000
0000
1000
0000
0000
0000
0000
0000
0000
0000
0000
0000
0000
0000
0000
0000
0000
0000
0100
0000
0000
0000
0000
0000
0000
0000
0010
0000
0000
0000
0000
0000
0000
0000
1000
0000
0000
0000
0000
0000
0000
0000
0100
0000
0000
0000
0000
0000
0000
0000
0000
0000
0000
0000
0000
0000
0000
0000
0000
0000
0000
0000
0000
0000
0000
0000
0100
0000
0000
0000
0000
0000
0000
0000
,
1002
0000
0000
0000
0100
0000
0000
0000
0013
0000
0000
0000
1000
0000
0000
0010
1100
0000
0000
0000
0010
0000
0000
0000
0100
0000
0000
0000
1000
0000
0000
0010
,
0101
0000
0000
0000
0000
0000
0000
0000
0000
0000
0000
0000
0000
0000
0000
0000
0000
0000
0000
0000
0000
0000
0000
0000
1000
0000
0000
0000
0000
0000
0000
0000
0000
0000
0000
0000
0000
0000
0000
0000
0000
0000
0000
0000
0000
0000
0000
0000
0100
0000
0000
0000
0000
0000
0000
0000
0000
0000
0000
0000
0000
0000
0000
0000
0000
0000
0000
0000
0000
0000
0000
0000
0010
0000
0000
0000
0000
0000
0000
0000
0000
0000
0000
0000
0000
0000
0000
0000
0000
0000
1000
0000
0000
0000
0000
0000
0110
0000
0000
0000
0000
0000
0000
0000
0000
0000
0000
0000
0000
0000
0000
0000
0000
0000
0000
0000
0000
0000
0000
0000
1000
0000
0000
0000
0000
0000
0000
0000
0000
0000
0000
0000
0000
0000
0000
0000
0100
0000
0000
0000
0000
0000
0000
0000
1000
0000
0000
0000
0000
0000
0000
0000
0001
0000
0000
0000
0000
0000
0000
0000
0100
0000
0000
0000
0000
0000
0000
0000
1000
0000
0000
0000
0000
0000
0000
0000
0000
0000
0000
0000
0000
0000
0000
0000
0100
0000
0000
0000
0000
0000
0000
0000
,
2010
0000
0000
0000
0001
0000
0000
0000
0100
0000
0000
3000
0010
0000
0000
1000
0110
0000
0000
0000
0010
0000
0000
0000
0100
0000
0000
0000
0001
0000
0000
0100
,
1001
0000
0000
0000
0000
0000
0000
0000
0000
0000
0000
0000
0000
0000
0000
0000
0000
0000
0000
0000
0000
0000
0000
0000
0100
0000
0000
0000
0000
0000
0000
0000
0000
0000
0000
0000
0000
0000
0000
0000
0000
0000
0000
0000
0000
0000
0000
0000
0010
0000
0000
0000
0000
0000
0000
0000
0000
0000
0000
0000
0000
0000
0000
0000
0000
0000
0000
0000
0000
0000
0000
0000
1000
0000
0000
0000
0000
0000
0000
0000
0000
0000
0000
0000
0000
0000
0000
0000
0000
0000
0010
0000
0000
0000
0000
0000
1100
0000
0000
0000
0000
0000
0000
0000
0000
0000
0000
0000
0000
0000
0000
0000
0000
0000
0000
0000
0000
0000
0000
0000
0010
0000
0000
0000
0000
0000
0000
0000
0000
0000
0000
0000
0000
0000
0000
0000
0100
0000
0000
0000
0000
0000
0000
0000
1000
0000
0000
0000
0000
0000
0000
0000
0001
0000
0000
0000
0000
0000
0000
0000
0010
0000
0000
0000
0000
0000
0000
0000
0100
0000
0000
0000
0000
0000
0000
0000
0000
0000
0000
0000
0000
0000
0000
0000
0001
0000
0000
0000
0000
0000
0000
0000
,
1001
0000
0000
0000
0100
0000
0000
0000
0110
0000
0000
0000
1000
0000
0000
0010
1100
0000
0000
0000
0010
0000
0000
0000
0100
0000
0000
0000
0010
0000
0000
1000
,
0101
0000
0000
0000
0100
0000
0000
0000
0010
0000
0000
0000
1000
0000
0000
0010
1100
0000
0000
0000
0000
0000
0000
0000
0000
0000
0000
0000
0000
0000
0000
0000
,
1001
0000
0000
1001
0000
0000
1001
0000
0000
0100
1000
0100
0010
0100
1000
0100
,
1010
0000
0000
0000
0100
0000
0000
0000
0010
0000
0000
0000
0100
0000
0000
0010
1100
0000
0000
0000
1000
0000
0000
0000
0100
0000
0000
0000
0010
0000
0000
1000
,
0011
0000
0000
0000
0100
0000
0000
0000
0011
0000
0000
0000
1100
0000
0000
0010
1100
0000
0000
0000
1000
0000
0000
0000
0100
0000
0000
0000
0010
0000
0000
1000
,
0110
0000
0000
0000
0001
0000
0000
0000
0010
0000
0000
0000
0001
0000
0000
1000
0110
0000
0011
0000
0000
0000
0100
0000
1000
0000
0010
0000
0100
0000
1000
0000
,
0010
0000
0000
0000
0000
0000
0001
0000
0100
0000
0100
0000
0010
0000
0001
0000
0000
0100
0000
0010
1001
0000
0000
0000
0110
0000
0000
0000
0110
0000
0000
0000
,
1001
0000
0000
0000
1100
0000
0000
0000
0000
0000
0000
0000
0110
0000
0010
0000
0000
0000
0000
0000
0110
0000
0000
0000
0000
0000
0000
0000
0110
0000
0100
0000
0110
0000
0000
0000
1001
0000
0000
0000
0000
0000
0000
0000
0110
0000
0100
0000
0010
0000
0000
0000
1001
0000
0000
0000
0000
0000
0000
0000
0000
0000
0000
0100
,
1100
0000
0000
0000
0110
0000
2000
0000
3100
0000
0002
0000
1003
0000
0000
0010
1100
0000
0000
0000
0100
0000
0002
0000
0013
0000
2000
0000
3001
0000
0000
0100
,
0110
0000
0000
0000
0000
0000
0000
0000
0000
0000
0000
0000
0000
0000
0000
0000
0000
0000
0000
0000
0000
0000
0000
0000
0001
0000
0000
0000
0000
0000
0000
0000
0000
0000
0000
0000
0000
0000
0000
0000
0000
0000
0000
0000
0000
0000
0000
0000
1000
0000
0000
0000
0000
0000
0000
0000
0000
0000
0000
0000
0000
0000
0000
0000
0000
0000
0000
0000
0000
0000
0000
0000
1000
0000
0000
0000
0000
0000
0000
0000
0000
0000
0000
0000
0000
0000
0000
0000
0000
0000
0010
0000
0000
0000
0000
0000
1100
0000
0000
0000
0000
0000
0000
0000
0000
0000
0000
0000
0000
0000
0000
0000
0000
0000
0000
0000
0000
0000
0000
0000
0110
0000
0000
0000
0000
0000
0000
0000
0000
0000
0000
0000
0000
0000
0000
0000
0001
0000
0000
0000
0000
0000
0000
0000
0100
0000
0000
0000
0000
0000
0000
0000
0010
0000
0000
0000
0000
0000
0000
0000
0001
0000
0000
0000
0000
0000
0000
0000
1000
0000
0000
0000
0000
0000
0000
0000
0000
0000
0000
0000
0000
0000
0000
0000
1000
0000
0000
0000
0000
0000
0000
0000
,
0210
0000
0000
0000
0010
0000
0000
0000
1000
0000
0000
0000
1000
0300
0000
1000
0101
0000
0010
0000
0100
0000
1000
0000
0000
0000
0100
0000
0000
0000
1020
0001
,
1000
0000
0000
0000
0000
0000
0000
0000
0000
0000
0000
0000
0000
0000
0000
0000
0000
0000
0000
0000
0000
0000
0000
0000
1030
0000
0000
0000
0000
0000
0000
0000
0000
0000
0000
0000
0000
0000
0000
0000
0000
0000
0000
0000
0000
0000
0000
0000
0100
0000
0000
0000
0000
0000
0000
0000
0000
0000
0000
0000
0000
0000
0000
0000
0000
0000
0000
0000
0000
0000
0000
0000
0010
0000
0000
0000
0000
0000
0000
0000
0000
0000
0000
0000
0010
0000
0000
0000
0000
0000
1000
0000
0000
0000
0000
0000
0101
0000
0000
0000
0000
0000
0000
0000
0000
0000
0000
0000
0000
0000
0000
0000
0000
0000
0000
0000
0000
0000
0000
0000
1000
0000
0000
0000
0000
0000
0000
0000
0000
0000
0000
0000
0000
0000
0000
0000
0100
0000
0000
0000
0000
0000
0000
0000
0010
0000
0000
0000
0000
0000
0000
0000
1000
0000
0000
0000
0000
0000
0000
0000
0100
0000
0000
0000
0000
0000
0000
0000
0000
0000
0000
0000
0000
0000
0000
0000
0000
0000
0000
0000
0000
0000
0000
0000
0100
0000
0000
0000
0000
0000
0000
0000
,
1002
0000
0000
0000
0100
0000
0010
0000
1003
0000
0010
0000
0100
0000
1000
0000
0100
0000
0010
0000
0001
0000
0010
0000
0000
0000
1000
0000
0000
0000
0000
0010
,
0101
0000
0000
0000
0000
0000
0000
0000
0000
0000
0000
0000
0000
0000
0000
0000
0000
0000
0000
0000
0000
0000
0000
0000
1000
0000
0000
0000
0000
0000
0000
0000
0000
0000
0000
0000
0000
0000
0000
0000
0000
0000
0000
0000
0000
0000
0000
0000
0100
0000
0000
0000
0000
0000
0000
0000
0000
0000
0000
0000
0000
0000
0000
0000
0000
0000
0000
0000
0000
0000
0000
0000
0010
0000
0000
0000
0000
0000
0000
0000
0000
0000
0000
0000
0000
0000
0000
0000
0000
0000
1000
0000
0000
0000
0000
0000
0110
0000
0000
0000
0000
0000
0000
0000
0000
0000
0000
0000
0000
0000
0000
0000
0000
0000
0000
0000
0000
0000
0000
0000
1000
0000
0000
0000
0000
0000
0000
0000
0000
0000
0000
0000
0000
0000
0000
0000
0100
0000
0000
0000
0000
0000
0000
0000
1000
0000
0000
0000
0000
0000
0000
0000
0001
0000
0000
0000
0000
0000
0000
0000
0100
0000
0000
0000
0000
0000
0000
0000
1000
0000
0000
0000
0000
0000
0000
0000
0000
0000
0000
0000
0000
0000
0000
0000
0100
0000
0000
0000
0000
0000
0000
0000
,
2010
0000
0000
0000
0001
0000
0000
0000
0100
0000
0000
3000
0010
0000
0000
1000
0110
0000
0000
0000
0010
0000
0000
0000
0100
0000
0000
0000
0001
0000
0000
0100
,
1100
0000
0000
0000
0000
0000
0000
0000
0000
0000
0000
0000
0000
0000
0000
0000
0000
0000
0000
0000
0000
0000
0000
0000
1000
0000
0000
0000
0000
0000
0000
0000
0000
0000
0000
0000
0000
0000
0000
0000
0000
0000
0000
0000
0000
0000
0000
0000
0010
0000
0000
0000
0000
0000
0000
0000
0000
0000
0000
0000
0000
0000
0000
0000
0000
0000
0000
0000
0000
0000
0000
0000
0001
0000
0000
0000
0000
0000
0000
0000
0000
0000
0000
0000
0000
0000
0000
0000
0000
0000
0010
0000
0000
0000
0000
0000
1100
0000
0000
0000
0000
0000
0000
0000
0000
0000
0000
0000
0000
0000
0000
0000
0000
0000
0000
0000
0000
0000
0000
0000
0010
0000
0000
0000
0000
0000
0000
0000
0000
0000
0000
0000
0000
0000
0000
0000
0100
0000
0000
0000
0000
0000
0000
0000
1000
0000
0000
0000
0000
0000
0000
0000
0001
0000
0000
0000
0000
0000
0000
0000
0010
0000
0000
0000
0000
0000
0000
0000
0100
0000
0000
0000
0000
0000
0000
0000
0000
0000
0000
0000
0000
0000
0000
0000
0001
0000
0000
0000
0000
0000
0000
0000
,
1001
0000
0000
0000
0100
0000
0000
0000
0110
0000
0000
0000
1000
0000
0000
0010
1100
0000
0000
0000
0010
0000
0000
0000
0100
0000
0000
0000
0010
0000
0000
1000
,
0101
0000
0000
0000
0100
0000
0000
0000
0010
0000
0000
0000
1000
0000
0000
0010
1100
0000
0000
0000
0100
0000
0010
0000
1000
0000
0000
0100
0010
0000
0000
0110
,
0000
0000
0000
0000
0000
0000
0000
0000
0000
0000
0000
0000
0000
0000
0000
0000
0000
0000
0000
0000
0000
0000
0000
0000
1000
0000
0000
0000
0000
0000
0000
0000
0000
0000
0000
0000
0000
0000
0000
0000
0000
0000
0000
0000
0000
0000
0000
0000
0100
0000
0000
0000
0000
0000
0000
0000
0000
0000
0000
0000
0000
0000
0000
0000
0000
0000
0000
0000
0000
0000
0000
0000
0010
0000
0000
0000
0000
0000
0000
0000
0000
0000
0000
0000
0000
0000
0000
0000
0000
0000
1000
0000
0000
0000
0000
0000
0011
0000
0000
0000
0000
0000
0000
0000
0000
0000
0000
0000
0000
0000
0000
0000
0000
0000
0000
0000
0000
0000
0000
0000
0010
0000
0000
0000
0000
0000
0000
0000
0000
0000
0000
0000
0100
0000
0000
0000
0000
0000
0000
0000
0000
0000
0000
0000
0001
0000
0000
0000
0000
0000
0000
0000
1000
0000
0000
0000
0000
0000
0000
0000
0001
0000
0000
0000
0000
0000
0000
0000
0100
0000
0000
0000
0000
0000
0000
0000
0000
0000
0000
0000
0000
0000
0000
0000
0000
0000
0010
0000
0000
0000
0000
0000
,
1100
0000
0000
0000
0100
0000
0000
0000
0010
0000
0000
0000
1000
0000
0000
0100
0011
0000
0000
0000
0100
0000
0010
0000
1000
0000
0000
0100
0010
0000
0000
0010
,
1100
0000
0000
0000
0000
0000
0000
0000
0000
0000
0000
0000
0000
0000
0000
0000
0000
0000
0000
0000
0000
0000
0000
0000
0010
0000
0000
0000
0000
0000
0000
0000
0000
0000
0000
0000
0000
0000
0000
0000
0000
0000
0000
0000
0000
0000
0000
0000
0100
0000
0000
0000
0000
0000
0000
0000
0000
0000
0000
0000
0000
0000
0000
0000
0000
0000
0000
0000
0000
0000
0000
0000
0001
0000
0000
0000
0000
0000
0000
0000
0000
0000
0000
0000
0000
0000
0000
0000
0000
0000
0010
0000
0000
0000
0000
0000
1001
0000
0000
0000
0000
0000
0000
0000
0000
0000
0000
0000
0000
0000
0000
0000
0000
0000
0000
0000
0000
0000
0000
0000
0100
0000
0000
0000
0000
0000
0000
0000
0000
0000
0000
0000
0000
0000
0000
0000
1000
0000
0000
0000
0000
0000
0000
0000
0010
0000
0000
0000
0000
0000
0000
0000
0001
0000
0000
0000
0000
0000
0000
0000
0100
0000
0000
0000
0000
0000
0000
0000
1000
0000
0000
0000
0000
0000
0000
0000
0000
0000
0000
0000
0000
0000
0000
0000
0000
0000
0010
0000
0000
0000
0000
0000
,
1100
0000
0000
0000
0010
0000
0000
0000
0100
0000
0000
0000
0001
0000
0000
0010
1100
0000
0100
0000
0000
0000
0010
0000
1000
0000
0100
0000
0010
0000
0000
0110
,
1001
0000
0000
0000
0000
0000
0000
0000
0000
0000
0000
0000
0000
0000
0000
0000
0000
0000
0000
0000
0000
0000
0000
0000
0100
0000
0000
0000
0000
0000
0000
0000
0000
0000
0000
0000
0000
0000
0000
0000
0000
0000
0000
0000
0000
0000
0000
0000
0010
0000
0000
0000
0000
0000
0000
0000
0000
0000
0000
0000
0000
0000
0000
0000
0000
0000
0000
0000
0000
0000
0000
0000
0100
0000
0000
0000
0000
0000
0000
0000
0000
0000
0000
0000
0000
0000
0000
0000
0000
0000
1000
0000
0000
0000
0000
0000
0011
0000
0000
0000
0000
0000
0000
0000
0000
0000
0000
0000
0000
0000
0000
0000
0000
0000
0000
0000
0000
0000
0000
0000
0100
0000
0000
0000
0000
0000
0000
0000
0000
0000
0000
0000
0000
0000
0000
0000
0000
0000
0000
0000
0000
0000
0000
0000
1000
0000
0000
0000
0000
0000
0000
0000
0001
0000
0000
0000
0000
0000
0000
0000
0010
0000
0000
0000
0000
0000
0000
0000
0100
0000
0000
0000
0000
0000
0000
0000
0000
0000
0000
0000
0000
0000
0000
0000
0000
0000
0001
0000
0000
0000
0000
0000
,
1100
0000
0000
0000
0010
0000
0000
0000
0100
0000
0000
0000
0010
0000
0000
0100
1001
0000
0100
0000
0000
0000
0010
0000
1000
0000
0100
0000
0010
0000
0000
0010
,
1100
0000
0000
0000
0000
0000
0000
0000
0000
0000
0000
0000
0000
0000
0000
0000
0000
0000
0000
0000
0000
0000
0000
0000
0010
0000
0000
0000
0000
0000
0000
0000
0000
0000
0000
0000
0000
0000
0000
0000
0000
0000
0000
0000
0000
0000
0000
0000
0100
0000
0000
0000
0000
0000
0000
0000
0000
0000
0000
0000
0000
0000
0000
0000
0000
0000
0000
0000
0000
0000
0000
0000
0001
0000
0000
0000
0000
0000
0000
0000
0000
0000
0000
0000
0000
0000
0000
0000
0000
0000
0100
0000
0000
0000
0000
0000
0011
0000
0000
0000
0000
0000
0000
0000
0000
0000
0000
0000
0000
0000
0000
0000
0000
0000
0000
0000
0000
0000
0000
0000
1000
0000
0000
0000
0000
0000
0000
0000
0000
0000
0000
0000
0000
0000
0000
0000
0000
0000
0000
0000
0000
0000
0000
0000
0100
0000
0000
0000
0000
0000
0000
0000
0010
0000
0000
0000
0000
0000
0000
0000
0001
0000
0000
0000
0000
0000
0000
0000
1000
0000
0000
0000
0000
0000
0000
0000
0000
0000
0000
0000
0000
0000
0000
0000
0000
0000
1000
0000
0000
0000
0000
0000
,
0110
0000
0000
0000
0001
0000
0000
0000
0100
0000
0000
0000
0010
0000
0000
0100
1001
0000
0000
0000
0100
0000
0010
0000
1000
0000
0000
0100
0010
0000
0000
0000
,
0220
0000
0000
0000
,
0330
0000
0000
0000
;

//---------------dance-single - Copied from----------------
#NOTES:
     dance-single:
     Copied from:
     Hard:
     9:
     0.341522,0.350060,0.077619,0.357046,0.034928,308.000000,298.000000,10.000000,46.000000,0.000000,0.000000,0.341522,0.350060,0.077619,0.357046,0.034928,308.000000,298.000000,10.000000,46.000000,0.000000,0.000000:
// measure 0
0000
0000
0000
0000
0000
0000
0000
1000
,  // measure 1
0100
0010
0000
0001
0100
0010
0000
1000
,  // measure 2
0100
0010
0100
1000
0010
0100
1001
1001
,  // measure 3
0010
0100
0000
0100
0010
0001
0000
0001
,  // measure 4
0010
0100
0010
0001
0100
0010
1001
1001
,  // measure 5
0200
2300
3020
2030
,  // measure 6
3010
0000
0100
0010
0000
0010
0000
0000
0100
0000
0010
1000
0000
1000
0000
0000
,  // measure 7
0100
0010
0001
0100
0010
0100
0001
1000
,  // measure 8
0020
0000
0100
0000
0100
0000
0100
0030
1000
0000
0001
0000
0010
0000
0100
0000
,  // measure 9
2000
0001
3001
0010
0100
0001
0010
0100
,  // measure 10
2000
0001
3010
0100
0002
0010
1003
0010
,  // measure 11
0200
0001
1300
0100
0010
1000
0100
0010
,  // measure 12
0002
0000
0010
0000
1000
0000
0010
0003
0100
0000
0010
0000
1000
0000
0001
0000
,  // measure 13
2000
0100
3010
0001
0010
0100
0010
0001
,  // measure 14
1000
0020
0130
1000
0020
0100
1000
0130
,  // measure 15
0001
1000
0010
0100
1001
0000
0000
0000
,  // measure 16
1001
0000
0000
0110
0000
0000
1001
0000
0000
0100
0010
0100
0001
0100
0010
0100
,  // measure 17
0002
0010
1000
0103
0020
1000
0100
1030
,  // measure 18
0002
0100
1000
0103
2000
0010
0001
3100
,  // measure 19
0020
0000
0100
0000
1000
0000
0130
0000
0002
0000
1000
0000
0100
0000
1000
0003
,  // measure 20
0020
0000
0100
0000
0001
0000
0130
0000
0002
0000
1000
0000
0100
0003
0010
0000
,  // measure 21
2000
3200
0320
0230
,  // measure 22
1300
0010
0100
0001
0010
0100
1000
0001
,  // measure 23
0100
0010
1000
0100
1000
0001
0010
0100
,  // measure 24
2000
0100
0010
3001
0010
0100
0001
1000
,  // measure 25
0020
0100
1030
0001
0010
0100
1000
0001
,  // measure 26
0100
0010
2000
3001
0020
0130
2000
3001
,  // measure 27
0002
0010
0203
0310
0001
1000
0100
0010
,  // measure 28
2000
0100
0010
3100
0010
0100
0001
0010
,  // measure 29
0200
1000
0310
0001
0100
0010
1000
0100
,  // measure 30
0010
0002
1003
0100
0020
1000
0100
0031
,  // measure 31
1000
0001
0100
0010
1001
0000
0000
0000
,  // measure 32
0200
0010
0001
0010
0301
1000
0100
0010
,  // measure 33
2000
0001
0100
0010
3100
0010
0100
0001
,  // measure 34
0020
0001
0100
1000
0130
0001
1000
0010
,  // measure 35
0200
0001
1000
0010
0301
0010
1000
0001
,  // measure 36
0200
1000
0010
1000
0301
0010
0001
1000
,  // measure 37
0020
0100
1000
0001
1030
0001
0010
0100
,  // measure 38
2000
0001
0010
0001
3100
0010
0100
0001
,  // measure 39
2000
0010
0001
0100
3001
0010
0100
0010
,  // measure 40
2002
0000
0000
0000
,  // measure 41
3003
0000
0000
0000
;

//---------------dance-single - Copied from Copied f----------------
#NOTES:
     dance-single:
     Copied from Copied f:
     Medium:
     5:
     0.174088,0.174763,0.038809,0.364808,0.003881,157.000000,152.000000,5.000000,47.000000,0.000000,0.000000,0.174088,0.174763,0.038809,0.364808,0.003881,157.000000,152.000000,5.000000,47.000000,0.000000,0.000000:
0000
0000
0000
0000
,
1000
0100
0010
0001
,
0010
0000
0100
0000
1000
0000
0100
0100
,
0010
0001
0010
0100
,
1000
0000
0100
0000
0010
0000
0010
0010
,
1001
0000
0110
0000
,
1000
0100
0010
0001
,
0010
0100
1000
0100
,
0020
0130
0001
1000
,
0002
1003
0100
0010
,
2000
3100
0010
0100
,
0002
0103
1000
0010
,
0200
0310
0001
1000
,
0002
1003
0100
0010
,
0200
0310
0002
1003
,
0200
0310
1001
0000
,
0100
0000
0000
0100
0000
0000
0100
0000
0000
0000
0000
0000
0000
0000
0000
0000
,
2000
3100
0020
0031
,
0200
0310
0002
1003
,
2000
3100
0020
0130
,
0002
1003
2000
3001
,
1000
0000
0001
0000
,
1000
0100
0010
0100
,
0010
0100
0001
1000
,
0002
1003
0100
0010
,
2000
3100
0010
0100
,
0002
1003
0200
0310
,
0002
1003
2000
3100
,
0020
0130
0002
1003
,
2000
3100
0020
0130
,
0002
1003
2000
3100
,
0010
0100
1001
0000
,
2000
3100
0020
0031
,
0200
0310
0002
1003
,
2000
3100
0020
0130
,
0002
1003
2000
3100
,
0020
0130
0002
1003
,
2000
3100
0020
0130
,
2000
3100
0002
1003
,
0200
0310
0002
1003
,
2002
0000
0000
0000
0000
0000
0000
0000
0000
0000
0000
0000
0000
0000
0000
3003
;

//---------------dance-single - Copied from Copied f----------------
#NOTES:
     dance-single:
     Copied from Copied f:
     Easy:
     3:
     0.135278,0.158633,0.054333,0.155237,0.000000,122.000000,115.000000,7.000000,20.000000,0.000000,0.000000,0.135278,0.158633,0.054333,0.155237,0.000000,122.000000,115.000000,7.000000,20.000000,0.000000,0.000000:
0000
0000
0000
0000
,
1000
0100
0010
0000
,
0001
0110
0100
0000
,
1000
0100
0010
0000
,
1000
0110
0001
0000
,
1001
0000
0000
0000
,
1001
0000
0100
0000
,
0010
0000
0010
0000
0020
0000
0000
0030
,
0200
0000
0000
0300
1000
0000
1000
0000
,
0002
0000
0000
0003
0100
0000
0100
0000
,
2000
0000
0000
3000
0100
0000
0100
0000
,
0002
0000
0000
0003
0010
0000
0010
0000
,
0200
0000
0000
0300
1000
0000
1000
0000
,
0200
0000
0000
0300
0010
0000
0010
0000
,
0002
0000
0000
0003
2000
0000
0000
3000
,
0010
0010
0100
0000
,
0010
0000
0010
0000
,
1000
1000
0100
0100
,
0010
0010
0001
0001
,
0100
0100
1000
1000
,
0100
0100
0010
0010
,
1001
0000
0000
0000
,
1001
0100
0010
0100
,
0010
1000
0002
0000
,
2003
0000
0000
3000
0010
0000
0010
0000
,
0020
0000
0000
0030
0100
0000
0100
0000
,
0200
0000
0000
0300
0010
0000
0010
0000
,
0001
0001
1000
1000
,
2000
0000
0000
3000
0100
0000
0100
0000
,
0020
0000
0000
0030
0001
0000
0001
0000
,
2000
0000
0000
3000
0002
0000
0000
0003
,
0200
0000
0310
0000
,
1000
1000
0100
0000
,
0010
0010
0001
0000
,
0100
0100
1000
0000
,
0010
0010
0100
0000
,
0001
0001
1000
0000
,
0100
0100
1000
0000
,
0010
0010
0001
0000
,
0100
0100
1000
0000
,
2002
0000
0000
0000
0000
0000
0000
3003
;

//---------------dance-single - Copied from Copied f----------------
#NOTES:
     dance-single:
     Copied from Copied f:
     Beginner:
     1:
     0.070966,0.126923,0.007762,0.186285,0.000000,64.000000,63.000000,1.000000,24.000000,0.000000,0.000000,0.070966,0.126923,0.007762,0.186285,0.000000,64.000000,63.000000,1.000000,24.000000,0.000000,0.000000:
0000
0000
0000
0000
,
1000
0000
1000
0000
,
1000
0000
0001
0000
,
0001
0000
0001
0000
,
0100
0000
0100
0000
,
2000
0000
0000
0000
,
3000
0000
0001
0000
,
1000
0000
0100
0000
,
0002
0000
0003
0000
,
2000
0000
3000
0000
,
0020
0000
0030
0000
,
0200
0000
0300
0000
,
0002
0000
0003
0000
,
2000
0000
3000
0000
,
0002
0000
0003
0000
,
0020
0000
0030
0000
,
1000
0000
1000
0000
,
0002
0000
0003
0000
,
2000
0000
3000
0000
,
0200
0000
0300
0000
,
0020
0000
0030
0000
,
2000
0000
0000
0000
,
3000
0000
0100
0000
,
0010
0000
0001
0000
,
0002
0000
0003
0000
,
2000
0000
3000
0000
,
0200
0000
0300
0000
,
0020
0000
0030
0000
,
0002
0000
0003
0000
,
2000
0000
3000
0000
,
0200
0000
0300
0000
,
0020
0000
0030
0000
,
1000
1000
1000
0000
,
0001
0001
0001
0000
,
0100
0100
0100
0000
,
0010
0010
0010
0000
,
0001
0001
0001
0000
,
1000
1000
1000
0000
,
0100
0100
0100
0000
,
0010
0010
0010
0000
,
2002
0000
0000
0000
0000
0000
0000
0000
0000
0000
0000
0000
0000
0000
0000
0000
0000
0000
0000
0000
0000
0000
0000
0000
0000
0000
0000
0000
0000
0000
0000
0000
0000
0000
0000
0000
0000
0000
0000
0000
0000
0000
0000
0000
0000
0000
0000
0000
0000
0000
0000
0000
0000
0000
0000
0000
0000
0000
0000
0000
0000
0000
0000
0000
0000
0000
0000
0000
0000
0000
0000
0000
0000
0000
0000
0000
0000
0000
0000
0000
0000
0000
0000
0000
0000
0000
0000
0000
0000
0000
0000
0000
0000
0000
0000
0000
0000
0000
0000
0000
0000
0000
0000
0000
0000
0000
0000
0000
0000
0000
0000
0000
0000
0000
0000
0000
0000
0000
0000
0000
0000
0000
0000
0000
0000
0000
0000
0000
0000
0000
0000
0000
0000
0000
0000
0000
0000
0000
0000
0000
0000
0000
0000
0000
0000
0000
0000
0000
0000
0000
0000
0000
0000
0000
0000
0000
0000
0000
0000
0000
0000
0000
0000
0000
0000
0000
0000
0000
0000
3003
0000
0000
0000
0000
0000
0000
0000
0000
0000
0000
0000
0000
0000
0000
0000
0000
0000
0000
0000
0000
0000
0000
;
