#TITLE:Bad Liar;
#SUBTITLE:;
#ARTIST:Selena Gomez;
#TITLETRANSLIT:;
#SUBTITLETRANSLIT:;
#ARTISTTRANSLIT:;
#GENRE:;
#CREDIT:;
#BANNER:PV.avi;
#BACKGROUND:BadLiar-bg.png;
#LYRICSPATH:;
#CDTITLE:;
#MUSIC:Selena Gomez - Bad Liar.mp3;
#OFFSET:-0.220000;
#SAMPLESTART:108.339996;
#SAMPLELENGTH:15.000000;
#SELECTABLE:YES;
#BPMS:0.000000=121.019997
,175.000000=60.509998
,181.500000=121.019997
,276.500000=60.509998
,280.250000=60.519997
;
#STOPS:
;
#BGCHANGES:0.000=badliar_xvid.avi=1.200=1=1=1=StretchRewind==CrossFade==,
2.000=badliar_xvid.avi=1.000=0=0=1=====,
99999=-nosongbg-=1.000=0=0=0 // don't automatically add -songbackground-
;
#KEYSOUNDS:;
#ATTACKS:;

//---------------dance-single - Copied from----------------
#NOTES:
     dance-single:
     Copied from:
     Beginner:
     2:
     0.084355,0.118776,0.006787,0.020362,0.000000,87.000000,86.000000,1.000000,3.000000,0.000000,0.000000,0.084355,0.118776,0.006787,0.020362,0.000000,87.000000,86.000000,1.000000,3.000000,0.000000,0.000000:
0000
0000
0000
0000
,
0000
0000
0000
0000
,
0000
0000
0000
0000
,
0000
0000
0000
0000
,
1000
0000
1000
0000
,
1000
0000
0000
0000
,
0010
0000
0010
0000
,
0010
0000
0000
0000
0000
0000
0000
0100
,
0000
0000
0100
0000
,
0100
0000
0000
0000
,
0001
0000
0001
0000
,
0001
0000
0000
0000
,
1000
0000
1000
0000
,
1000
0000
0000
0000
,
0100
0000
0100
0000
,
0100
0000
0000
0000
,
0010
0000
0010
0000
,
0010
0000
0000
0000
,
1000
0000
0001
0000
,
1000
0000
0000
0000
,
1000
0000
0000
0000
,
1000
0000
0000
0000
,
1000
0000
1000
0000
,
1000
0000
0000
0000
,
0100
0000
0000
0000
,
0100
0000
0000
0000
,
0100
0000
0100
0000
,
0100
0000
0000
0000
,
0001
0000
0000
0000
,
1000
0000
0000
0000
,
0001
0000
0000
0000
,
0100
0000
0000
0000
,
1000
0000
0000
0000
,
0001
0000
0000
0000
,
1000
0000
0000
0000
,
0001
0000
0000
0000
,
1000
0000
1000
0000
,
1000
0000
0000
0000
,
0001
0000
0001
0000
,
0001
0000
0000
0000
,
0001
0000
1000
0000
,
1000
0000
0000
0000
,
0001
0000
0001
0000
,
0001
0000
0000
0000
0000
0000
0000
2002
,
0000
0000
0000
0000
,
0000
0000
3003
1000
0000
0000
0000
0100
,
0000
0000
0000
1000
0000
0000
0000
0001
,
0000
0000
0000
1000
0000
0000
0000
0001
,
0000
0000
0000
1000
0000
0000
0000
0000
,
0000
0000
0000
1000
0000
0000
0000
0001
,
0000
0000
0000
1000
0000
0000
0000
0001
,
0000
0000
0000
1000
0000
0000
0000
0001
,
0000
0000
0000
1000
0000
0000
0000
0000
,
0000
0000
0000
1000
0000
0000
0000
0000
,
0000
0000
0000
0001
0000
0000
0000
0000
,
0000
0000
0000
1000
0000
0000
0000
0000
,
0000
0000
0000
0001
0000
0000
0000
0000
,
0000
0000
0000
0100
0000
0000
0000
0000
,
0000
0000
0000
0001
0000
0000
0000
0000
,
0000
0000
0000
1000
0000
0000
0000
0000
,
0000
0000
0000
0010
0000
0000
0000
0000
,
0000
0000
0000
0100
0000
0000
0000
0000
,
0000
0000
0000
0001
0000
0000
0000
0000
,
0000
0000
0000
1000
0000
0000
0000
0000
,
0000
0000
0000
0001
0000
0000
0000
0000
,
0000
0000
0000
1000
0000
0000
0000
0000
,
0000
0000
0000
0001
0000
0000
0000
0000
,
0000
0000
0000
1000
0000
0000
0000
0000
,
0000
0000
0000
1000
0000
0000
0000
0000
,
0000
2000
0000
0000
,
3000
0000
0000
0000
;

//---------------dance-single - Copied from Copied f----------------
#NOTES:
     dance-single:
     Copied from Copied f:
     Easy:
     4:
     0.110535,0.166287,0.156106,0.027149,0.000000,114.000000,91.000000,23.000000,4.000000,0.000000,0.000000,0.110535,0.166287,0.156106,0.027149,0.000000,114.000000,91.000000,23.000000,4.000000,0.000000,0.000000:
0000
0000
0000
0000
,
0000
0000
0000
0000
,
0000
0000
0000
0000
,
0000
0000
0000
0000
,
1000
0000
1000
0000
,
1000
0000
0000
0000
,
0100
0000
0100
0000
,
0100
0000
0000
0000
,
1000
0000
0001
0000
,
1000
0000
0000
0000
,
0010
0000
0100
0000
,
0010
0000
0000
0000
,
1000
0000
0001
0000
,
1000
0000
0000
0000
,
0010
0000
0100
0000
,
0010
0000
0000
0000
,
0001
0000
1000
0000
,
0001
0000
0000
0000
,
0100
0000
0010
0000
,
0100
0000
0000
0000
,
1000
0000
0000
0000
,
1000
0000
0000
0000
,
1001
0000
1001
0000
,
1001
0000
0000
0000
,
0001
0000
0000
0000
,
0001
0000
0000
0000
,
1001
0000
1001
0000
,
0000
0000
0000
0000
,
1000
0000
0100
0000
,
1000
0000
0000
0000
,
0001
0000
0100
0000
,
0001
0000
1000
0000
,
1000
0000
1000
0000
,
0001
0000
0000
0000
,
1000
0000
1000
0000
,
0001
0000
0000
0000
,
1000
0000
0100
0000
,
1000
0000
0001
0000
,
1000
0000
0100
0000
,
1000
0000
0001
0000
,
1000
0000
0000
0000
,
1000
0000
0000
0000
,
1000
0000
0000
0000
,
1000
0000
0000
0000
0000
0000
0000
2002
,
0000
0000
0000
0000
,
0000
0000
3003
0100
0000
0000
0000
0100
,
0000
0000
0000
0100
0000
0000
0000
0010
,
0000
0000
0000
1000
0000
0000
0000
0001
,
0000
0000
0000
1000
0000
0000
0000
0100
,
0000
0000
0000
1000
0000
0000
0000
0001
,
0000
0000
0000
1000
0000
0000
0000
0001
,
0000
0000
0000
1000
0000
0000
0000
0100
,
0000
0000
0000
0010
0000
0000
0000
0000
,
0000
0000
0000
1001
0000
0000
0000
0000
,
0000
0000
0000
1001
0000
0000
0000
0000
,
0000
0000
0000
1001
0000
0000
0000
0000
,
0000
0000
0000
1010
0000
0000
0000
0000
,
0000
0000
0000
1001
0000
0000
0000
0000
,
0000
0000
0000
1100
0000
0000
0000
0000
,
0000
0000
0000
1001
0000
0000
0000
0000
,
0000
0000
0000
0011
0000
0000
0000
0000
,
0000
0000
0000
1100
0000
0000
0000
0000
,
0000
0000
0000
0101
0000
0000
0000
0000
,
0000
0000
0000
1010
0000
0000
0000
0000
,
0000
0000
0000
1001
0000
0000
0000
0000
,
0000
0000
0000
0101
0000
0000
0000
0000
,
0000
0000
0000
1010
0000
0000
0000
0000
,
0000
0000
0000
1001
0000
0000
0000
0000
,
0000
0000
0000
1100
0000
0000
0000
0000
,
0000
2200
0000
0000
,
3300
0000
0000
0000
;

//---------------dance-single - Copied from Copied f----------------
#NOTES:
     dance-single:
     Copied from Copied f:
     Medium:
     6:
     0.246279,0.356328,0.380084,0.210403,0.000000,254.000000,198.000000,56.000000,31.000000,0.000000,0.000000,0.246279,0.356328,0.380084,0.210403,0.000000,254.000000,198.000000,56.000000,31.000000,0.000000,0.000000:
0000
0000
0000
0000
,
0000
0000
0000
0000
,
0000
0000
0000
0000
,
0000
0000
0000
0000
,
1000
0001
1000
0010
,
0100
0010
1000
0001
,
1000
0100
1000
0010
,
0100
0010
0001
1000
,
0100
1000
0010
0001
,
0100
1000
0100
1000
,
0010
0001
0100
1000
,
0100
0010
0100
0010
,
0001
0001
1000
1000
,
0100
0100
0010
0010
,
0001
0001
0100
0100
,
1000
1000
0010
0010
,
0001
0000
0001
0000
,
0001
0000
0001
0000
,
1000
0100
1000
0010
,
1000
0001
1000
0001
,
2002
0000
0000
0000
,
3003
0000
0000
0000
,
2020
0000
0000
0000
,
3030
0000
0000
0000
,
2002
0000
0000
0000
,
3003
0000
0000
0000
,
2020
0000
0000
0000
,
3030
0000
0000
0000
,
1000
1000
0001
0001
,
1000
0001
1000
0000
0010
0000
0000
0000
,
0100
0100
0010
0010
,
0100
0010
0100
0000
0001
0000
0000
0000
,
1000
1000
1000
0000
,
0001
0001
0001
0000
,
0110
0010
0010
0000
,
1001
1000
1000
0000
,
2001
3001
0102
1003
,
0120
0130
1002
1003
,
2100
3100
0102
0103
,
1002
1003
0210
0310
,
1001
1001
1001
0000
,
0020
0000
0130
0000
,
1100
1100
1100
0000
,
0011
0000
0000
0000
1001
0000
0000
0220
,
0000
0000
0000
0000
,
0000
0000
0330
1001
0000
0100
0000
1000
,
0000
0100
0000
0010
0000
0100
0000
0010
,
0000
0100
0000
0010
0000
1000
0000
0010
,
0000
0100
0000
0001
0000
1000
0000
0010
,
0000
0010
0000
0110
0000
1000
0000
0100
,
0000
0010
0000
0001
0000
1000
0000
0010
,
0000
0100
0000
0010
0000
1000
0000
0001
,
0000
0100
0000
0010
0000
1000
0000
0000
,
0000
0000
0000
1000
0000
1000
0000
0100
,
0000
0100
0000
0020
0000
0100
0000
0130
,
0000
0000
0000
1000
0000
1000
0000
0100
,
0000
0100
0000
0020
0000
0100
0000
0130
,
0000
0000
0000
1001
0000
1001
0000
1001
,
0000
0000
0000
1100
0000
1100
0000
1100
,
0000
0000
0000
0011
0000
0011
0000
0011
,
0000
0000
0000
0110
0000
0110
0000
0110
,
0000
0000
0000
2001
0000
3001
0000
0102
,
0000
0103
0000
0220
0000
0000
0000
0330
,
0000
0000
0000
2010
0000
3010
0000
0102
,
0000
0103
0000
2002
0000
0000
0000
3003
,
0000
0000
0000
0110
0000
0110
0000
0110
,
0000
0000
0000
1001
0000
1001
0000
1001
,
0000
0000
0000
1100
0000
1100
0000
1100
,
0000
0000
0000
0110
0000
0110
0000
0110
,
0000
2002
0000
0000
,
3003
0000
0000
0000
;

//---------------dance-single - Copied from----------------
#NOTES:
     dance-single:
     Copied from:
     Hard:
     9:
     0.402384,0.427594,0.203616,0.061085,0.000000,415.000000,385.000000,30.000000,9.000000,0.000000,0.000000,0.402384,0.427594,0.203616,0.061085,0.000000,415.000000,385.000000,30.000000,9.000000,0.000000,0.000000:
0000
0000
0000
0000
,
0000
0000
0000
0000
,
0000
0000
0000
0000
,
0000
0000
0000
0000
,
1000
0000
0100
0000
0010
0001
0010
0001
,
0010
0000
0100
0000
1000
0001
1000
0001
,
1000
0000
0010
0000
0100
0001
0100
0001
,
0100
0000
0010
0000
1000
0001
1000
0001
,
1000
0000
0100
0000
0010
0001
0010
0001
,
0010
0000
0100
0000
1000
0001
1000
0001
,
1000
0000
0010
0000
0100
0001
0100
0001
,
0100
0000
0010
0000
1000
0001
0010
0100
,
1000
0000
0001
0000
0010
0100
0010
0100
,
1000
0000
0001
0000
0100
0001
0100
0001
,
1000
0000
0010
0000
1000
0001
1000
0001
,
1000
0000
0100
0000
0010
0001
0010
0001
,
0010
0000
0100
0000
1000
0001
1000
0001
,
1000
0000
0010
0000
0100
0010
0100
0010
,
0100
0000
0001
0000
1000
0100
1000
0100
,
1000
0001
0110
1001
,
0210
0001
0010
0001
,
0310
0000
1000
0100
0000
0100
0012
0000
,
1000
0100
0010
1003
,
0100
0000
0010
0001
0000
0001
0120
0000
,
1000
0100
1000
0130
,
1000
0000
0001
0010
0000
0010
2100
0000
,
0001
0010
3001
0000
,
0000
0000
0000
0000
0000
0010
0000
0000
,
1100
0001
0010
0100
0010
0001
0010
0100
,
0010
0001
0010
0100
0000
0100
1001
0010
,
0100
0001
0100
0010
0100
0001
0100
0010
,
0100
0001
0100
0010
0000
1000
0100
0010
,
0001
0010
0100
1000
0001
0100
0010
0000
,
1001
0100
1000
0001
0010
0100
1000
0000
,
0010
0100
0001
1000
0100
0010
0001
0000
,
1100
0001
1000
0010
0100
0001
0010
0000
,
0110
0001
1000
0010
0100
0001
1000
0100
,
0010
0001
1000
0010
0000
0100
0011
0000
,
1000
0010
0100
0001
0010
0100
1000
0001
,
0100
0010
1000
0001
0000
0010
0110
0000
,
0001
1000
0100
1000
0001
0100
0010
0000
,
0011
0001
0010
0100
1000
0010
0100
0000
,
1001
0100
1000
0001
0010
0100
1000
0000
,
1010
0001
1000
0100
0010
0001
1100
0010
,
0000
0010
0000
0100
0000
0100
0000
0000
,
0000
0000
0000
1001
0100
1000
0001
0010
,
0100
0010
0001
1000
0010
0100
0001
1000
,
0100
0010
0001
0010
0100
1000
0001
0100
,
0010
1000
0000
1000
0000
0100
0000
0100
,
0000
0100
0000
1000
0100
0010
0001
0010
,
0100
0010
0001
1000
0100
1000
0001
1000
,
0010
0100
0001
1000
0100
0010
0001
0010
,
0100
1000
0001
0100
0000
2001
0000
0100
,
0000
3010
0000
0210
0000
0001
0000
0010
,
0000
0001
0010
0301
0000
1000
0000
0100
,
1000
0100
0000
0021
0000
0100
0000
0001
,
0000
0100
0001
0130
0000
1000
0000
0010
,
0100
0010
0000
1100
0000
0100
0010
0001
,
0010
0100
0000
1001
0000
0010
0100
0001
,
0010
0100
0000
1001
0000
0010
1000
0001
,
1000
0100
0000
0011
0000
0100
1000
0001
,
0100
0010
0000
2001
0000
0100
0000
0010
,
0000
0001
0010
3100
0000
0001
0000
0010
,
0000
1001
0000
0020
0000
0100
0000
1000
,
0000
0100
0001
0130
0000
0001
0000
1000
,
0100
1000
0000
0001
0000
0010
0000
0100
,
1000
0001
0000
1010
0000
0001
0000
0010
,
0100
0010
0000
1001
0000
0010
0000
0100
,
1000
0100
0000
1100
0000
0001
0000
0010
,
0100
1000
0001
0000
0010
0000
0100
0000
,
0100
0000
0000
0000
;

//---------------dance-single - Copied from----------------
#NOTES:
     dance-single:
     Copied from:
     Challenge:
     13:
     0.744654,0.760846,1.601781,0.223978,0.234159,768.000000,530.000000,236.000000,33.000000,0.000000,49.000000,0.744654,0.760846,1.601781,0.223978,0.234159,768.000000,530.000000,236.000000,33.000000,0.000000,49.000000:
// measure 0
0000
0000
0000
0000
,  // measure 1
0000
0000
0000
0000
,  // measure 2
0000
0000
0000
0000
,  // measure 3
0000
0000
0000
0000
,  // measure 4
0010
0000
1100
0000
0010
0101
1000
0101
,  // measure 5
0010
0000
1100
0000
0100
1010
0100
1010
,  // measure 6
0100
0000
1001
0000
0010
0101
1000
0101
,  // measure 7
0001
0000
1001
0000
1000
0101
1000
0101
,  // measure 8
0010
0000
1010
0000
0001
1100
0001
1100
,  // measure 9
0010
0000
0011
0000
0100
1001
0100
1001
,  // measure 10
0010
0000
0011
0000
0001
0110
1000
0110
,  // measure 11
0001
0000
1001
0000
1000
0101
1000
0101
,  // measure 12
0010
0000
1000
0010
0101
0000
0000
0000
0100
0000
1001
0000
0100
0000
1001
0000
,  // measure 13
0010
0000
0101
0000
1000
0011
1000
0011
,  // measure 14
0100
0000
1010
0000
0001
0110
1000
0110
,  // measure 15
0001
0000
1010
0000
1000
0101
1000
0101
,  // measure 16
0100
0000
0101
0000
0010
1001
0100
1001
,  // measure 17
0010
0000
0101
0000
0100
0011
0100
0011
,  // measure 18
1000
0000
0110
0000
0011
1001
0100
1001
,  // measure 19
0100
0000
0000
0000
0000
0000
0000
0000
0100
1000
0001
0100
0000
0000
0000
0000
1000
0000
0000
0000
0001
0000
0000
0000
0220
0000
0000
0000
0000
0000
0330
0000
,  // measure 20
2001
0000
0101
0110
0000
0010
3110
0000
,  // measure 21
1001
0000
1001
0100
0000
0100
2100
0000
,  // measure 22
0110
0000
3101
0110
0000
0100
1100
0000
,  // measure 23
1001
0000
1001
0100
0000
0100
2010
0000
,  // measure 24
0110
0000
3101
1010
0000
0100
1100
0100
,  // measure 25
0000
0000
0010
1001
0000
1001
0120
0000
,  // measure 26
1100
0030
0110
0201
0000
0000
0000
0000
,  // measure 27
0300
0000
0000
0000
0000
1001
0000
0100
,  // measure 28
0110
0000
0010
0001
0100
0000
0110
0000
0100
0000
0110
0000
0110
0000
0010
0000
,  // measure 29
0110
0000
0100
0001
0010
0000
0110
0000
0001
0000
1001
0000
2010
0000
0001
0000
,  // measure 30
0011
0000
3010
0100
0001
0000
0011
0000
0010
0000
0011
0000
0011
0000
0001
0000
,  // measure 31
0011
0000
0010
0100
0001
0000
0011
0000
0001
0000
1100
0000
2100
0000
0001
0000
,  // measure 32
0110
0000
3010
0001
0100
0000
0101
0000
0010
0000
1001
0000
1001
0000
0010
0000
,  // measure 33
1001
0000
0010
0100
0010
0000
0110
0000
0010
0000
1010
0000
2100
0000
0100
0000
,  // measure 34
3110
0000
1000
0100
0010
0000
0110
0000
0001
0000
0110
0000
0110
0000
0010
0000
,  // measure 35
1001
0000
0000
0000
0100
0000
0010
0000
1001
0000
0000
0000
1001
0000
0000
0000
1001
0000
0000
0000
1001
0000
0000
0000
0100
0000
0000
0000
0010
0100
1000
0100
,  // measure 36
0011
0000
0010
1000
0100
0000
0110
0000
0100
0000
0110
0000
0110
0000
0010
0000
,  // measure 37
0110
0000
0100
1000
0010
0000
0110
0000
0001
0000
1001
0000
2010
0000
0001
0000
,  // measure 38
0011
0000
3010
0100
0001
0000
0011
0000
0010
0000
0011
0000
0011
0000
0001
0000
,  // measure 39
0011
0000
0010
0100
0001
0000
0011
0000
0001
0000
1100
0000
2100
0000
0001
0000
,  // measure 40
0110
0000
3100
0001
0010
0000
1001
0000
0100
0000
1001
0000
1001
0000
0100
0000
,  // measure 41
1001
0000
0001
0010
0101
0000
0101
0000
0101
0000
0101
0000
2010
0000
0100
0000
,  // measure 42
0101
0000
3010
0100
0010
0000
1010
0000
0001
0000
1100
0000
1100
0000
0010
0000
,  // measure 43
0110
0000
0000
0000
0000
0000
0010
0000
0000
0001
0000
0000
0100
0000
0000
0000
0000
0000
0110
0000
0000
0000
0000
0000
0001
0000
0000
0000
0000
0000
1000
0000
0000
0000
0000
0000
0100
0000
0000
0010
1000
0100
0001
0000
0000
0010
0000
0000
,  // measure 44
0100
0000
1000
0100
0000
0100
0010
0100
1000
0000
1000
0001
0000
0000
0000
0000
,  // measure 45
0000
0000
0000
0000
0000
0000
0011
0000
0001
0010
0100
0000
1100
0000
0010
0000
,  // measure 46
0011
0000
0011
0000
0001
0000
1010
0000
0001
0010
0001
0000
1001
0000
0010
0000
,  // measure 47
0101
0000
0021
0000
0001
0000
1001
0000
1030
0001
1010
0000
0011
0000
1000
0000
,  // measure 48
1001
0000
1100
0000
0100
0000
0110
0000
1000
0001
0100
0000
0011
0000
0100
0000
,  // measure 49
1010
0000
0120
0000
0001
0000
1100
0000
1030
0001
1000
0000
0110
0000
1000
0000
,  // measure 50
0101
0000
0110
0000
0100
0000
0110
0000
0010
0100
0010
0000
0101
0000
1000
0000
,  // measure 51
0101
0000
0021
0000
0001
0000
1001
0000
0031
1000
0010
0000
0110
0000
0001
0000
,  // measure 52
0011
0000
1100
0000
1000
0000
0011
0000
1000
0100
1002
0000
1100
0000
0103
0000
,  // measure 53
1010
0000
0000
0000
0110
0000
0000
0000
0100
0010
0001
0010
2100
0000
0000
0000
0010
0000
0001
0000
0100
0000
0000
0000
0110
0000
0000
0000
0100
0000
0000
0000
,  // measure 54
0110
0000
0110
0000
0010
0000
3110
0000
0100
0001
0010
0000
0110
0000
0001
0000
,  // measure 55
1001
0000
2010
0000
0001
0000
0211
0000
3010
0001
0010
0000
0011
0000
0010
0000
,  // measure 56
0011
0000
0011
0000
0001
0000
0311
0000
0010
1000
0001
0000
0011
0000
0001
0000
,  // measure 57
1100
0000
2100
0000
0001
0000
0110
0000
3010
0001
0100
0000
0101
0000
0010
0000
,  // measure 58
1001
0000
1001
0000
0010
0000
2001
0000
0010
0100
0010
0000
3110
0000
0010
0000
,  // measure 59
1010
0000
2100
0000
0100
0000
0110
0000
3001
0100
0010
0000
0110
0000
0001
0000
,  // measure 60
0110
0000
0110
0000
0010
0000
1020
0000
1000
0100
1001
0000
1031
0000
1001
0000
,  // measure 61
1001
0000
0000
0000
0100
0000
0000
0000
0010
0100
1000
0100
0012
0000
0000
0000
0010
0000
1000
0000
0100
0000
0000
0000
0110
0000
0000
0000
0100
0000
0000
0000
,  // measure 62
0110
0000
0110
0000
0010
0000
0113
0000
0100
1000
0010
0000
0110
0000
0001
0000
,  // measure 63
1001
0000
2010
0000
0001
0000
0211
0000
3010
0001
0010
0000
0011
0000
0010
0000
,  // measure 64
0011
0000
0011
0000
0001
0000
0311
0000
0010
1000
0001
0000
0011
0000
0001
0000
,  // measure 65
1100
0000
2100
0000
0001
0000
0110
0000
3100
0001
0010
0000
1001
0000
0100
0000
,  // measure 66
1001
0000
1001
0000
0100
0000
2001
0000
0100
0010
0101
0000
3101
0000
0101
0000
,  // measure 67
0101
0000
2001
0000
0100
0000
0101
0000
3010
0001
0010
0000
1010
0000
0001
0000
,  // measure 68
1100
0000
1100
0000
0010
0000
2010
0000
0010
0001
0100
0000
3220
0000
0331
0000
,  // measure 69
1000
0000
0000
0000
0000
0000
0100
0000
0000
0010
1000
0100
0001
0000
0000
0010
0000
0000
0100
0000
0000
0000
0000
0000
0100
0000
0000
0010
0000
0000
0000
0000
0000
0001
0000
0000
0010
0000
0000
1000
0000
0000
0100
0000
0000
0000
0000
0000
,  // measure 70
0100
0010
0000
0000
0000
0000
0000
0000
0000
0000
0000
0000
0000
0000
0000
0000
;
