#TITLE:Ba Be Loo Be Ra (Raje's Edit);
#SUBTITLE:;
#ARTIST:Kristeen;
#TITLETRANSLIT:;
#SUBTITLETRANSLIT:;
#ARTISTTRANSLIT:;
#GENRE:;
#CREDIT:;
#BANNER:AV.avi;
#BACKGROUND:Ba-bg.png;
#LYRICSPATH:;
#CDTITLE:;
#MUSIC:Ba_Be_Loo_Be_Ra_-_Kristine.mp3;
#OFFSET:-0.189000;
#SAMPLESTART:54.400002;
#SAMPLELENGTH:11.000000;
#SELECTABLE:YES;
#BPMS:0.000000=125.999992
;
#STOPS:
;
#BGCHANGES:0.000=Be.avi=1.000=1=1=1=StretchRewind==CrossFade==,
99999=-nosongbg-=1.000=0=0=0 // don't automatically add -songbackground-
;
#KEYSOUNDS:;
#ATTACKS:;

//---------------dance-single - ----------------
#NOTES:
     dance-single:
     :
     Challenge:
     14:
     0.749543,0.793419,0.904936,0.475320,0.617002,574.000000,475.000000,99.000000,52.000000,0.000000,8.000000,0.749543,0.793419,0.904936,0.475320,0.617002,574.000000,475.000000,99.000000,52.000000,0.000000,8.000000:
// measure 0
0000
0000
0000
0000
,  // measure 1
0000
0000
0000
0000
,  // measure 2
1010
0000
0000
0001
1010
0000
0010
0000
0101
0000
0000
0000
0110
0000
0000
0000
,  // measure 3
1000
0010
0100
0010
0100
0000
0110
0000
1000
0100
0010
1000
0100
0001
1010
0100
,  // measure 4
1010
0000
0001
0010
0000
0010
0000
1000
0001
0000
1000
0000
0110
0000
0010
0000
,  // measure 5
1000
0000
0100
1000
0000
0010
0001
0000
0100
1000
0100
0000
1001
0000
0100
0000
,  // measure 6
0010
0000
1000
0000
0100
0000
0001
0000
1000
0010
1000
0000
1010
0000
0100
0000
,  // measure 7
0010
0000
1000
0001
0000
0100
0000
0110
0001
1000
0100
0010
0001
0010
0100
0000
,  // measure 8
0010
0000
0100
0001
0000
0010
0000
1000
0000
0000
0100
0000
1100
0000
0001
0000
,  // measure 9
0010
0000
0010
0100
0000
1000
0010
0000
1000
0000
0001
0000
0011
0000
0000
0000
,  // measure 10
1000
0000
0000
0100
0000
0000
1000
0000
0010
0000
0000
0000
1010
0000
0000
0000
,  // measure 11
1000
0000
0010
0001
0010
0000
0100
1000
0001
0010
0100
0000
0100
0010
0001
0000
,  // measure 12
1000
0000
0010
0100
1001
0000
0001
0000
1010
0000
0100
0000
1100
0000
0010
0000
,  // measure 13
0101
0000
0001
1000
0101
0010
0000
0000
1100
0000
0001
0000
0011
0000
0000
0000
,  // measure 14
1100
0000
0010
0000
1010
0001
0000
0100
1001
0010
0000
0000
0110
0000
0100
0000
,  // measure 15
1010
0000
0001
0100
0011
1000
0000
0010
0101
0000
1000
0000
1001
0000
0100
0000
,  // measure 16
0011
0000
0001
1000
0101
0000
0010
0000
1100
0000
0001
0000
1001
0000
0100
0000
,  // measure 17
0101
0010
1010
0100
0110
0000
1001
0000
,  // measure 18
1000
0100
0010
0100
1000
0100
0010
0001
0010
0100
0010
0001
0010
0100
1000
0100
,  // measure 19
1000
0100
0010
0000
0001
0010
0100
0000
1000
0000
0100
1000
0010
0100
0001
0100
,  // measure 20
1020
1030
0120
0031
0102
1003
1020
0130
,  // measure 21
0201
0000
0010
1300
0101
0000
0010
1000
,  // measure 22
1020
0031
1002
0013
2010
3001
1002
0103
,  // measure 23
0120
0000
0031
1000
1002
0000
1003
0010
,  // measure 24
1010
0000
0001
0000
1100
0001
0010
1000
0102
0000
0023
0000
1031
0000
0010
0000
,  // measure 25
2000
3200
0311
0001
0120
0032
1103
0000
,  // measure 26
2100
3001
0012
0003
1020
0130
0101
0000
,  // measure 27
1000
0100
0010
0000
0001
0010
0100
0000
1000
0000
0100
0001
1000
0010
1000
0001
,  // measure 28
0210
0310
1020
0130
2100
3010
0012
0103
,  // measure 29
0120
0000
0100
1030
1100
0000
1001
0100
,  // measure 30
0120
1030
2010
3100
0201
0301
0102
0013
,  // measure 31
0120
0000
1001
0130
1200
0000
1300
0100
,  // measure 32
0110
0000
0001
0010
1000
0100
0010
0001
2100
0000
3002
0000
0113
0000
0000
0000
,  // measure 33
1002
0203
0310
0100
1200
0320
0131
0000
,  // measure 34
2100
3010
0120
0031
0102
0010
1000
0103
,  // measure 35
1000
0100
0010
0000
0001
0010
0100
0000
1000
0000
0100
0001
0100
0010
0100
0010
,  // measure 36
1001
0000
0000
0100
0000
0000
0010
0000
1000
0000
0000
0000
0110
0000
0001
0000
,  // measure 37
0100
0000
0000
0010
0000
0000
1000
0000
0000
0000
0100
0000
0010
0000
0100
0000
,  // measure 38
0010
0000
0000
1000
0000
0000
0001
0000
0100
0000
0000
0000
0110
0000
0000
0000
,  // measure 39
0001
0000
0010
0001
0000
0000
0100
0000
0100
1000
0100
0000
0001
0010
0001
0100
,  // measure 40
1000
0000
0100
0010
0000
0100
0000
0001
0000
0010
0000
0010
0000
0000
0001
0000
,  // measure 41
0010
0000
1000
0001
0000
0100
0000
1000
0000
0000
0010
0000
0110
0000
0000
0000
,  // measure 42
1000
0000
0010
0100
0000
0001
0000
0010
0000
1000
0000
0001
0000
0000
0010
0000
,  // measure 43
1000
0000
0001
0100
0000
0100
0000
0010
0000
0000
1000
0000
1001
0000
1010
0000
,  // measure 44
1001
0000
0100
0010
0000
0100
0000
1000
0000
0010
0000
0100
0000
0000
0001
0000
,  // measure 45
1010
0100
0000
0001
0000
1000
0000
0001
0000
0000
0000
0000
0110
0000
0000
0000
,  // measure 46
1000
0100
1000
0100
1000
0100
0010
0100
0010
0001
0010
0001
0010
0100
0010
0100
,  // measure 47
1000
0100
0010
0000
0001
0010
0100
0000
1000
0000
0100
0001
0100
0010
0100
0010
,  // measure 48
2001
0000
0000
0010
0100
0000
0000
0000
0010
0000
0000
0010
0001
0000
0000
0000
,  // measure 49
3010
0000
0000
0010
1000
0000
0000
0000
1000
0000
0100
0000
0010
0001
0100
0010
,  // measure 50
2100
0000
0000
0100
0010
0000
0000
0000
0001
0000
0000
0010
3100
0000
0000
0000
,  // measure 51
1002
0000
0000
1000
0100
0000
0000
0000
0013
0000
0000
0100
0010
0000
1000
0000
,  // measure 52
0010
0100
1000
0001
0010
1000
0100
0010
0002
0000
0023
0000
1031
0000
0000
0000
,  // measure 53
2100
3020
0130
0001
0200
0320
1031
0000
,  // measure 54
2000
0100
0010
0100
3002
0000
0000
0000
0023
1000
0001
1000
0100
0000
0030
0000
,  // measure 55
0100
1000
0010
0000
0001
0010
0100
0000
1000
0000
1000
0100
0010
0100
1000
0100
,  // measure 56
1001
0000
0000
0000
;

//---------------dance-single - Copied from----------------
#NOTES:
     dance-single:
     Copied from:
     Hard:
     11:
     0.557587,0.767825,0.027422,0.356490,0.415905,427.000000,424.000000,3.000000,39.000000,0.000000,0.000000,0.557587,0.767825,0.027422,0.356490,0.415905,427.000000,424.000000,3.000000,39.000000,0.000000,0.000000:
0000
0000
0000
0000
,
0000
0000
0000
0000
,
1000
0100
0010
0100
,
0001
1000
0001
1000
0001
0000
0100
0000
0010
0100
0010
0100
0010
1000
0100
0010
,
0001
0000
1000
0000
0010
0000
0100
0000
1000
0010
1000
0000
0010
0000
0100
0000
,
0001
0000
0010
0000
0100
0000
1000
0000
0001
1000
0001
0000
1000
0000
0000
0000
,
0010
0000
0100
0000
0001
0000
0010
0000
0001
0010
0001
0000
1000
0000
0100
0000
,
0010
0000
0001
0000
1000
0000
0100
0000
1000
0010
1000
0000
0010
0000
0100
0000
,
0001
0000
0010
0000
0100
0000
1000
0000
0100
1000
0001
0000
0100
0000
0010
0000
,
0100
0000
0001
0000
1000
0000
0100
0000
1000
0001
1000
0000
0010
0000
0100
0000
,
0001
0000
0000
0001
0000
0000
0100
0000
0010
0000
0000
0000
1000
0000
0000
0000
,
0100
0000
0100
1000
0100
0000
0010
0001
0010
0001
0010
0000
0100
0000
1000
0000
,
0001
0000
0100
1000
0100
0000
0100
0000
0010
0000
1000
0000
0001
0000
0010
0000
,
0100
0000
1000
0000
0001
0000
0100
0000
0001
0100
0001
0000
0100
0000
0000
0000
,
0010
0000
1000
0000
0001
0000
0010
0000
0100
0010
0100
0000
1000
0000
0001
0000
,
0100
0000
0010
0000
1000
0000
0100
0000
1000
0100
1000
0000
0100
0000
0000
0000
,
0001
0000
0010
0000
0100
0000
1000
0000
0001
1000
0001
0000
0100
0000
0010
0000
,
0001
0000
0100
0000
1000
0000
0001
0000
1000
0001
1000
0000
0010
0000
0000
0000
,
0100
0010
1000
0001
0010
0100
1000
0001
,
0100
0000
0010
0000
1000
0000
0001
0000
0010
0000
1000
0000
0100
1000
0100
1000
,
0200
0320
0032
2003
,
3020
0000
0130
0000
1000
0100
1000
0010
,
0200
0302
0023
0230
,
2300
3010
0002
0103
,
0010
0000
0100
0000
1000
0100
1000
0000
0100
0000
0000
0000
0010
0000
0000
0000
,
0001
0000
1000
0000
0010
0000
0100
0010
0001
0000
0001
0000
0010
0000
0000
0000
,
0200
0302
0023
0230
,
1300
0010
0001
0000
1000
0100
0010
0000
0001
0000
1000
0100
0010
0001
1000
0100
,
0020
0032
2003
3020
,
0230
0000
0000
0000
0301
0000
0000
0000
0010
1000
0001
1000
0010
0000
0100
0000
,
0002
0013
0200
1300
,
0002
0010
1000
0103
,
1000
0000
0010
0000
0100
0010
0100
0001
0020
0000
0000
0000
0130
0000
0000
0000
,
0001
1000
0010
1000
0002
0000
0013
0000
,
0200
2300
3002
0013
,
0010
1000
0100
0000
1000
0001
1000
0000
0010
0000
0100
0001
0100
0001
0100
0001
,
0100
0000
0000
0010
0000
0000
1000
0000
0001
0000
0000
0000
0010
0000
0100
0000
,
1000
0000
0000
0010
0000
0000
0100
0000
0000
0000
0100
0000
0010
0000
1000
0000
,
0001
0000
0000
0001
0000
0000
0010
0000
0100
0000
0000
0000
1000
0000
0000
0000
,
0010
0000
0100
0010
0001
0000
0010
0000
0001
0010
0001
0000
1000
0100
0010
0001
,
0010
0000
1000
0000
0010
1000
0000
0010
1000
0000
0010
1000
0000
0010
1000
0000
,
0010
0000
0100
0000
0001
0010
0000
0001
0010
0000
0001
0010
0000
0001
0010
0000
,
0100
0000
1000
0000
0001
1000
0000
0001
1000
0000
0001
1000
0000
0001
1000
0000
,
0010
0000
0100
0000
0001
0100
0000
0001
0100
0000
0001
0100
0001
0100
0001
0100
,
0010
1000
0100
1000
,
0011
0000
0100
0000
1000
0100
0000
1000
0100
0000
1000
0100
0000
1000
0100
0000
,
0001
1000
0100
0010
0001
1000
0010
0100
0010
0001
0010
0100
0010
1000
0010
0100
,
0010
1000
0100
0000
1000
0100
0010
0000
0001
0000
0100
0001
0100
0010
0100
0010
,
0002
1000
0010
0100
,
2003
0000
0000
0000
3010
0000
0000
0000
0001
0010
0100
0010
0100
1000
0001
1000
,
0020
0100
1000
0100
,
0032
0023
0230
2300
,
3010
0000
0100
0000
0010
0000
0100
0010
0002
0000
0000
0000
1003
0000
0000
0000
,
0010
0100
0001
0010
0200
0000
1300
0000
,
2010
3010
0102
0103
,
1000
0100
1000
0000
0001
0010
0001
0000
0010
0000
0001
1000
0100
0010
0001
1000
,
0100
0000
0000
0000
;

//---------------dance-single - Copied from Copied f----------------
#NOTES:
     dance-single:
     Copied from Copied f:
     Medium:
     5:
     0.225908,0.281536,0.109689,0.182815,0.000000,173.000000,161.000000,12.000000,20.000000,0.000000,0.000000,0.225908,0.281536,0.109689,0.182815,0.000000,173.000000,161.000000,12.000000,20.000000,0.000000,0.000000:
0000
0000
0000
0000
,
0000
0000
0000
0000
,
1000
1000
1000
0000
,
0001
0001
0001
0000
,
1000
1000
0100
0000
,
0010
0001
0010
0000
,
0100
1000
0001
0000
0100
0000
0000
0000
,
1000
1000
0010
0000
0001
0000
0000
0000
,
0100
0001
1000
0000
,
1000
0100
0010
0000
,
1000
0001
1000
0001
,
0100
1000
0100
1000
,
0001
1000
0001
0000
,
0010
0100
0010
0000
,
1000
1000
0001
0000
,
0100
0100
0010
0000
,
0001
1000
0001
0000
,
0001
0010
0001
0000
,
0100
1000
0100
0000
,
0001
1000
0001
0000
,
0100
1000
0010
0001
,
2002
0000
3003
0000
,
1000
0010
0100
0001
,
0022
0030
2000
3003
,
1000
0001
0010
0000
,
1000
0001
1000
0000
,
1002
0010
1003
0000
,
1000
0010
1000
0001
,
1001
0010
0001
1000
,
2002
0000
3003
0000
,
1000
0010
0100
0010
,
0022
0030
2000
3003
,
1000
0001
0010
0000
,
1000
0001
0100
0000
,
0010
0000
0001
0000
2020
0000
0000
3030
,
0100
0001
1000
1000
,
0001
0000
1000
0000
,
0001
0000
1000
0000
,
0100
0000
1000
0000
,
0100
0000
1000
0000
,
0010
0010
0001
0000
,
1000
1000
0001
0000
,
0100
0010
1000
0000
,
0001
0001
1000
0000
,
0100
0100
1000
0000
,
0010
0010
0001
0000
,
0100
0100
1000
0000
,
0001
0001
0001
0000
,
0010
1000
0001
0100
,
2020
0000
3030
0000
,
0001
1000
0010
1000
,
0022
0030
2000
3003
,
1000
0001
0011
0000
,
1000
0001
0010
0000
,
0001
0000
1000
0000
2020
0000
0000
3030
,
0001
0000
0001
0000
,
1001
0000
0000
0000
;

//---------------dance-single - Copied from Copied f----------------
#NOTES:
     dance-single:
     Copied from Copied f:
     Easy:
     3:
     0.199791,0.230347,0.009141,0.091408,0.000000,153.000000,152.000000,1.000000,10.000000,0.000000,0.000000,0.199791,0.230347,0.009141,0.091408,0.000000,153.000000,152.000000,1.000000,10.000000,0.000000,0.000000:
0000
0000
0000
0000
,
0000
0000
0000
0000
,
1000
0000
1000
0000
,
1000
0000
0100
0000
,
1000
0000
0001
0000
,
0010
0000
0000
0000
,
1000
1000
1000
0000
,
0001
0000
0000
0000
,
0010
0000
1000
0000
,
0100
0000
0000
0000
,
0001
1000
0001
0000
,
0010
0100
0010
0000
,
1000
0001
1000
0000
,
0100
1000
0010
0000
,
0001
1000
0010
0000
,
1000
0100
1000
0000
,
0001
0010
0001
0000
,
1000
0100
1000
0000
,
0010
0001
0010
0000
,
1000
1000
1000
1000
,
0001
1000
0001
1000
,
0002
0000
0003
0000
,
1000
0010
0100
0010
,
2000
3000
0002
0003
,
1000
0001
0010
0000
,
1000
0001
0100
0000
,
1000
0010
0200
0300
,
1000
0001
1000
0000
,
0001
1000
0010
0100
,
0002
0003
0000
0000
,
1000
0010
0100
0010
,
1000
0000
0001
0000
,
1000
0010
0100
0000
,
0001
1000
0010
0000
,
1000
0001
0020
0030
,
1000
0001
1000
0000
,
0001
1000
0001
0000
,
0010
0100
0010
0000
,
1000
0001
1000
0000
,
0001
0010
0001
0000
,
0100
1000
0100
0000
,
0001
1000
0001
0000
,
0100
1000
0100
0000
,
0001
0010
0001
0000
,
0100
1000
0001
0000
,
1000
0010
1000
0000
,
0001
0100
0010
0000
,
1000
1000
1000
0000
,
0001
1000
0001
1000
,
0020
0000
0000
0030
0000
0000
0000
0000
,
1000
0001
0100
0010
,
2000
3000
0200
0300
,
0010
0001
1000
0000
,
1000
0001
0010
0000
,
1000
0001
0200
0300
,
1000
0001
1000
0001
,
1001
0000
0000
0000
;

//---------------dance-single - Copied from Copied f----------------
#NOTES:
     dance-single:
     Copied from Copied f:
     Beginner:
     1:
     0.094019,0.153565,0.009141,0.146252,0.000000,72.000000,71.000000,1.000000,16.000000,0.000000,0.000000,0.094019,0.153565,0.009141,0.146252,0.000000,72.000000,71.000000,1.000000,16.000000,0.000000,0.000000:
0000
0000
0000
0000
,
0000
0000
0000
0000
,
1000
0000
0000
0000
,
1000
0000
0000
0000
,
0001
0000
0000
0000
,
0001
0000
0000
0000
,
0010
0000
0000
0000
,
0010
0000
0000
0000
,
1000
0000
0000
0000
,
1000
0000
0000
0000
,
0001
0000
0000
0000
,
1000
0000
0000
0000
,
0200
0000
0000
0000
,
2300
0000
0000
0000
,
3002
0000
0000
0000
,
2003
0000
0000
0000
,
3200
0000
0000
0000
,
0320
0000
0000
0000
,
0032
0000
0000
0000
,
2003
0000
0000
0000
0000
0000
0000
3000
,
0001
1000
0000
1000
,
0001
0000
0000
0000
,
0010
0100
0000
0100
,
0010
0000
0000
0000
,
1000
0000
1000
0000
,
1000
0000
0000
0000
,
0001
0000
0000
0000
,
0001
0000
0000
0000
,
1000
0000
1000
0000
,
1000
0000
0000
0000
,
0001
0000
0001
0000
,
0001
0000
0001
0000
,
0000
0000
1000
0000
,
0000
0000
1000
0000
,
0100
0000
0100
0000
,
0000
0000
0000
0000
,
1000
0000
0000
0000
,
1000
0000
0000
0000
,
1000
0000
0000
0000
,
0001
0000
0000
0000
,
2000
0000
0000
0000
,
3200
0000
0000
0000
,
0302
0000
0000
0000
,
2003
0000
0000
0000
,
3200
0000
0000
0000
,
0302
0000
0000
0000
,
2003
0000
0000
0000
,
3200
0000
0000
0300
,
0001
1000
0000
1000
,
0001
0000
0000
0000
,
0010
0100
0000
0100
,
0010
0000
0000
0000
,
1000
0000
1000
0000
,
0001
0000
0001
0000
,
0100
0000
1000
0000
,
0001
0000
1000
0000
,
1001
0000
0000
0000
;

//---------------dance-double - Copied from----------------
#NOTES:
     dance-double:
     Copied from:
     Challenge:
     11:
     0.634631,0.692585,0.786106,0.018282,0.452468,486.000000,400.000000,86.000000,2.000000,0.000000,0.000000,0.634631,0.692585,0.786106,0.018282,0.452468,486.000000,400.000000,86.000000,2.000000,0.000000,0.000000:
00000000
00000000
00000000
00000000
,
00000000
00000000
00000000
00000000
,
00000000
00000000
01000000
00000000
00000000
00000001
00000000
00000000
00000100
00000000
00001000
00000000
00000000
00000000
00010100
00000000
,
00000000
00000000
00000100
00000010
00000001
00010000
00100000
00000000
00001010
00000000
10000000
00010000
00000100
10000000
00000001
00000000
,
00100001
00000000
00100001
00000000
00100000
10000000
00000000
00100000
00000000
00010000
01000000
00000000
00100000
00000000
01100000
00000000
,
01000000
00000000
00100000
00000000
00001000
00100000
00000000
00010000
00000100
00000000
00100000
00001000
00000010
00000000
00101000
00000000
,
00000000
00000000
00000100
00000000
00001000
00000000
00000001
00000000
00000010
00000000
10000000
00000001
00000010
00000000
00011000
00000000
,
00001000
00000000
00001000
00000000
00001000
01000000
00000000
00001000
00000000
00000011
00000000
00000000
00000000
00000000
00000000
00000000
,
00000001
00000000
01000000
00000000
00000010
00001000
00000000
00000010
00000000
00010000
00000000
00000000
01000000
00000000
00001010
00000000
,
00000000
00000000
00001000
00000000
00010000
00100000
00000000
00000001
10000000
00000000
00100000
00000000
01000000
00000000
00011000
00000000
,
00000000
00000000
00010000
00000000
00000000
01000000
00000000
00000000
01000000
00000000
10000000
00000000
00000000
00000000
01100000
00000000
,
00000000
00000000
00001000
00000000
00100000
00010000
00000001
00000000
01000000
00000100
00000010
00001000
01000000
00000000
00000010
01000000
,
10000000
00000000
01000000
00000000
00001000
00000001
00000010
00000000
00000010
00000000
00000001
00000000
00001000
00000000
00000011
00000000
,
00000100
00000000
00100000
00000000
01000000
10000000
00000000
01000000
00000000
00000000
00010000
00000000
00100000
00000000
01000000
00000000
,
00000000
00000000
00010000
00000000
00000100
00000000
00001000
00000100
00000000
00000100
00000000
00000001
00000000
00000000
00100010
00000000
,
00001000
00000000
00001000
00000000
00010000
00000001
00000000
00000001
00000000
00000100
00000000
00000000
00000001
00000000
00100010
00000000
,
00100000
00000000
00010000
00000000
00001000
10000000
00000000
00000000
00010000
00000000
00000001
00000000
10000000
00000000
01010000
00000000
,
00100000
00001010
00000010
10001000
00010000
10000100
00000000
10000000
,
00000000
00000000
00000101
00000000
10000000
00010000
00000000
00000001
00000000
00000000
00000100
00000000
00000000
00010100
00000000
00000000
,
00000010
00000000
00100000
00010000
01000000
00000000
00000001
00001000
00010000
00000000
00001000
00000000
01000000
00000010
00010000
00000001
,
00000010
00010000
00000011
00000000
00010000
00000000
00000011
00000000
00000100
00000000
10100000
00000000
00000100
00000000
00011000
00000000
,
01000000
10010000
00000000
00100000
00000010
00010100
00000000
00100000
,
10000000
00001001
00000001
01010000
10000000
01100000
00000001
00000011
,
00000100
10010000
00000000
00000100
00000010
00010100
00000000
00100000
,
00010000
00000001
00010000
10000000
10000000
01001000
00000000
00010010
,
00000000
00000100
00001000
00000010
00001000
00001100
00000000
10000100
,
00000000
00000100
00000001
00100001
00000000
00000010
00000001
00100010
,
00000000
00000000
00100000
00001000
00000100
00000000
01000000
00010000
01000000
00000000
00000001
00000000
00010000
00000010
00001000
10000000
,
01000000
00010000
00001010
00000000
00000001
00000000
00100010
00000000
10000000
00000000
01100000
00000000
00001000
00000000
00000011
00000000
,
00000010
01000001
00000000
00100000
10000000
00100010
00000000
00000010
,
00000100
10001000
00000001
00100100
00000001
01000100
00000001
01100000
,
00000010
10000100
00000000
11000000
10000000
00000011
00000000
00010000
,
00000100
10000001
00000010
00010000
00000100
00001100
10000001
01001000
,
00000000
00100100
00010000
00010000
00000001
00100010
00010001
01000010
,
00000000
00100001
00010000
10000001
00001000
00000110
00001000
00001100
,
00001000
00000000
10000000
00010000
00100000
00000000
01000000
01000000
10000000
00000000
00000100
00000000
10000000
00000001
00010000
00000010
,
00001000
10000000
01000100
00000000
00000000
00000000
00000000
00000000
00000000
00000000
00000000
00000000
00000000
00000000
00000000
00000000
,
00000000
00101000
00000000
00100010
00000000
00100010
00000000
00010001
,
00000000
00100100
00000000
00000000
00000000
00000101
00000000
00000000
,
00000000
00000000
00100000
00000000
00100000
10000000
00000000
00000000
10000000
00000000
00000001
00100000
00000100
00000000
00010000
00001000
,
00000010
00000100
00001000
00000000
00001000
00000001
00000000
00001000
00000000
10000000
00000000
00100000
00000000
00010000
00000000
00000000
,
00100000
00000000
00000010
00000000
10000000
00000001
00000000
00001000
00000000
00100000
00000000
00000000
00000100
00000000
10000100
00000000
,
00000000
00000000
01000000
00000000
00010000
00100000
00000000
00001000
00000000
00000010
00000000
00000100
00000000
00000001
00000000
00000000
,
00000001
00000000
00010000
00000000
00000001
00100000
00000000
00100000
00000000
01000000
00000000
00000000
00100000
00000000
01010000
00000000
,
00000000
00000000
00000010
00000000
00010000
00000100
00000000
00010000
00000000
01000000
00000000
01000000
00000000
10000000
00000000
00000000
,
01000000
00000000
10000000
01000000
00000000
01000000
00000000
00000010
00000000
10000000
00000000
00000000
00000000
00000000
00101000
00000000
,
00000000
00000000
00000100
00010000
00000100
00000010
00000010
00000000
00000000
00000000
00000100
00010000
00001000
00100000
01000000
00000000
,
00000000
00000000
00100000
00000100
01000000
00000000
00010000
00001000
00010000
00000000
00000010
00000000
00000100
00010000
00000001
00000010
,
00000100
00020100
00000000
00000001
00000000
00000010
00000000
00000010
,
00000000
10030000
00000000
00000100
00000000
00100000
00100000
00100000
,
01000000
00010010
00000000
00000110
00000000
00011000
00000000
00011000
,
00000000
10000020
00000000
00000100
00000000
00000030
00000000
00000000
,
01000000
00000000
00000001
00010000
00000000
00010000
00000000
00100000
00000000
00000010
00000000
00000000
00000000
00000000
11000000
00000000
,
00000000
00000100
00000010
00001000
00000100
00001000
00000000
00010100
,
00000000
00000000
10000000
00100000
00000100
01000000
00000001
00000000
00000000
00000000
01000000
10000000
00010000
00000001
01000000
00000000
,
00000000
00000000
00100000
00000000
00000000
00001000
00000000
00000000
00011000
00000000
00000000
00000000
00000011
00000000
10000010
00000000
,
10000010
00000101
00000000
00000000
00000000
00000000
00000000
00000000
;

//---------------dance-double - Copied from Copied f----------------
#NOTES:
     dance-double:
     Copied from Copied f:
     Hard:
     7:
     0.420475,0.461723,0.383912,0.100548,0.004570,322.000000,280.000000,42.000000,11.000000,0.000000,0.000000,0.420475,0.461723,0.383912,0.100548,0.004570,322.000000,280.000000,42.000000,11.000000,0.000000,0.000000:
00000000
00000000
00000000
00000000
,
00000000
00000000
00000000
00000000
,
00000000
00010000
00000000
00010000
00000000
00100000
00000000
01000100
,
00000000
00000100
00100000
00010100
00000000
00100000
00001000
01000010
,
00000000
00000100
00000000
00001000
00000000
00001000
00000001
00000010
,
00000000
00000100
00001000
01000000
10000000
00000001
01000000
00010000
,
00000000
00010000
10000000
00000100
01000000
00000010
00000000
00000011
,
00000000
01000000
00001000
00000001
00000000
10000000
10000000
10001000
,
00000000
10000000
00000000
00101000
00000000
00000100
00000000
10000010
,
00000000
00100000
00100000
00001010
00000000
01000000
00001000
00000010
,
00000000
00010000
00000000
00000010
00000000
00100000
00000000
10010000
,
00000000
10000000
00000000
00001000
00000001
00100000
00000011
10001000
,
00000000
00001000
00001000
00100000
00000001
00000100
00000010
00000100
,
00000100
00100000
00100000
10000000
00000000
10000000
00000000
10100000
,
00000000
00000001
00000001
00000001
10000000
00000001
00000000
00000110
,
00000000
00001000
00000000
00100000
00000000
00100000
01000000
10010000
,
00000000
00001000
01000000
00001000
00000000
00000010
00000001
00000001
,
00000000
01000000
00000100
00100000
00001000
10000000
10000000
00000010
,
00000000
01000000
00010000
00000100
00000000
00100000
00010000
00000001
,
00000000
01000000
00100000
00100000
00000010
00000001
00100000
10000000
,
00000000
00020100
00000000
00000010
00000000
00001000
00000000
00001000
,
00000000
00130000
00000000
00000000
00000000
00100000
00000000
00000100
,
00000000
00010020
00000000
10000000
00000000
00010000
00000000
00100000
,
00000000
00000030
00000000
00000000
00000000
00100010
00000000
00000000
,
00000000
00000001
00100000
10000000
00000000
00000100
00000001
10000000
,
00000000
00000010
00000100
10000000
00000010
00000001
00000010
00100010
,
00000000
00120000
00000000
00001000
00000000
10030000
00000000
00000000
,
00000000
00000100
10000000
00000010
01000000
00000001
10000000
00000100
,
01000000
00000120
00000000
00000001
00000000
10000000
00000000
01000000
,
00000000
10000030
00000000
00000000
00000000
00010000
00000000
00000001
,
00000000
00020010
00000000
00000100
00000000
00000001
00000000
00000100
,
00000000
00030100
00000000
00000000
00000000
00010001
00000000
00000000
,
00000000
00000100
00001000
01000000
00000000
00010000
00000001
00010000
,
00000000
00000001
00100000
01000000
00000001
10000000
00000010
10001000
,
00000000
00001000
00000010
00101000
00000000
00000001
00000001
00000011
,
00000000
00000001
00001000
00000001
00001000
00000000
10000000
00001000
,
00000000
00110000
00000000
00001000
00000000
00010000
00000000
01000000
,
00000000
00020010
00000000
00000001
00000000
00130000
00000000
00000010
,
00000000
00000021
00000000
00000100
00000000
00001030
00000000
00001000
,
00000000
00020100
00000000
00000100
00000000
10030000
00000000
00000000
,
00000000
10000000
00001000
00010000
00000000
10000000
01000000
10000000
,
00000000
10000000
00100000
00010000
10000000
00010000
00000001
00001000
,
00000000
01000000
00010000
00100000
00000000
01000000
01000000
00000001
,
00000000
01000000
00000001
00000010
00100000
01000000
00010000
10001000
,
00000000
00000100
00000100
01000010
00000000
01000000
00001000
01000100
,
00000000
00000010
01000000
00100000
01000000
00000100
00000001
10100000
,
00000000
00001000
00001000
00010100
00000000
00000010
00100000
00000101
,
00000000
00000100
00100000
01000000
00000100
01000000
01000000
10000000
,
00000000
20010000
00000000
00000010
00000000
00000001
00000000
00001000
,
00000000
30100000
00000000
00000000
00000000
01000000
00000000
00000001
,
00000000
00001002
00000000
10000000
00000000
00010000
00000000
00000010
,
00000000
00000003
00000000
00000000
00000000
11000000
00000000
00000000
,
00000000
01000000
00010000
01000000
00000000
00001000
00000010
00010000
,
00000000
00000100
00000100
00000100
00000000
01000000
01000000
00000100
,
00000000
21000000
00000000
00000001
00000000
30100000
00000000
00000001
,
00000000
00000000
10000001
00000000
00000000
00010000
00000000
00000000
00000010
00000000
00000000
00000000
00001010
00000000
10000000
00000000
,
10000000
00100010
00000000
00000000
00000000
00000000
00000000
00000000
;

//---------------dance-double - Copied from Copied f----------------
#NOTES:
     dance-double:
     Copied from Copied f:
     Medium:
     5:
     0.225908,0.282164,0.109689,0.182815,0.000000,173.000000,161.000000,12.000000,20.000000,0.000000,0.000000,0.225908,0.282164,0.109689,0.182815,0.000000,173.000000,161.000000,12.000000,20.000000,0.000000,0.000000:
00000000
00000000
00000000
00000000
,
00000000
00000000
00000000
00000000
,
00000000
00000100
00000000
00000010
00000000
10000000
00000000
00000000
,
00000000
01000000
00000000
00010000
00000000
00100000
00000000
00000000
,
00000000
10000000
00000000
00010000
00000000
00000010
00000000
00000000
,
00000000
10000000
00000000
10000000
00000000
01000000
00000000
00000000
,
00000000
00000010
01000000
01000000
00000000
00010000
00000000
00000000
,
00000000
00100000
00001000
00000001
00000000
00000100
00000000
00000000
,
00000000
00100000
00000000
00010000
00000000
00000001
00000000
00000000
,
00000000
10000000
00000000
00001000
00000000
00000100
00000000
00000000
,
00000000
00010000
00000000
00100000
00000000
00000010
00000000
00000001
,
00000000
01000000
00000000
00000100
00000000
10000000
00000000
00000100
,
00000000
01000000
00000000
00000001
00000000
00100000
00000000
00000000
,
00000000
01000000
00000000
00100000
00000000
00000010
00000000
00000000
,
00000000
00001000
00000000
00000010
00000000
00001000
00000000
00000000
,
00000000
00010000
00000000
00001000
00000000
00010000
00000000
00000000
,
00000000
10000000
00000000
10000000
00000000
01000000
00000000
00000000
,
00000000
00000100
00000000
00001000
00000000
00100000
00000000
00000000
,
00000000
01000000
00000000
00001000
00000000
00000100
00000000
00000000
,
00000000
00000001
00000000
00000001
00000000
00000010
00000000
00000000
,
00000000
00001000
00000000
01000000
00000000
00000010
00000000
00001000
,
00000000
00020020
00000000
00000000
00000000
00030030
00000000
00000000
,
00000000
01000000
00000000
00000001
00000000
00010000
00000000
10000000
,
00000000
00000022
00000000
00000003
00000000
00020000
00000000
00030030
,
00000000
10000000
00000000
00000100
00000000
00001000
00000000
00000000
,
00000000
00100000
00000000
00000100
00000000
00010000
00000000
00000000
,
00000000
10000020
00000000
10000000
00000000
00000031
00000000
00000000
,
00000000
10000000
00000000
00000100
00000000
00000001
00000000
00010000
,
00000000
00100010
00000000
00000100
00000000
00010000
00000000
00000001
,
00000000
00020020
00000000
00000000
00000000
00030030
00000000
00000000
,
00000000
10000000
00000000
00000001
00000000
00100000
00000000
01000000
,
00000000
00000022
00000000
00000003
00000000
00020000
00000000
00030030
,
00000000
00001000
00000000
00000010
00000000
01000000
00000000
00000000
,
00000000
00001000
00000000
00100000
00000000
01000000
00000000
00000000
,
00000000
00000100
00000000
00100000
00000000
00020002
00000000
00000000
,
00030003
10000000
00000000
00000001
00000000
00001000
00000000
00000100
,
00000000
00000100
00000000
00000000
00000000
00000010
00000000
00000000
,
00000000
00001000
00000000
00000000
00000000
00000100
00000000
00000000
,
00000000
01000000
00000000
00000000
00000000
00001000
00000000
00000000
,
00000000
00010000
00000000
00000000
00000000
00001000
00000000
00000000
,
00000000
00000010
00000000
00000010
00000000
00010000
00000000
00000000
,
00000000
00010000
00000000
00010000
00000000
00000001
00000000
00000000
,
00000000
10000000
00000000
00000001
00000000
01000000
00000000
00000000
,
00000000
00010000
00000000
00010000
00000000
00000001
00000000
00000000
,
00000000
10000000
00000000
00000010
00000000
00001000
00000000
00000000
,
00000000
00001000
00000000
01000000
00000000
00001000
00000000
00000000
,
00000000
00001000
00000000
10000000
00000000
00000001
00000000
00000000
,
00000000
00010000
00000000
00010000
00000000
00000100
00000000
00000000
,
00000000
00000100
00000000
10000000
00000000
00000010
00000000
00000010
,
00000000
00020002
00000000
00000000
00000000
00030003
00000000
00000000
,
00000000
00000001
00000000
10000000
00000000
00000010
00000000
10000000
,
00000000
00000022
00000000
00000003
00000000
00020000
00000000
00030030
,
00000000
00000010
00000000
00100000
00000000
00110000
00000000
00000000
,
00000000
01000000
00000000
00000001
00000000
00000100
00000000
00000000
,
00000000
00001000
00000000
01000000
00000000
00020002
00000000
00000000
,
00030003
00001000
00000000
00000000
00000000
00000100
00000000
00000000
,
00000000
01001000
00000000
00000000
00000000
00000000
00000000
00000000
;

//---------------dance-double - Copied from Copied f----------------
#NOTES:
     dance-double:
     Copied from Copied f:
     Easy:
     3:
     0.199791,0.230862,0.009141,0.091408,0.000000,153.000000,152.000000,1.000000,10.000000,0.000000,0.000000,0.199791,0.230862,0.009141,0.091408,0.000000,153.000000,152.000000,1.000000,10.000000,0.000000,0.000000:
00000000
00000000
00000000
00000000
,
00000000
00000000
00000000
00000000
,
00000000
10000000
00000000
00000000
00000000
00000100
00000000
00000000
,
00000000
01000000
00000000
00000000
00000000
00100000
00000000
00000000
,
00000000
00000010
00000000
00000000
00000000
00100000
00000000
00000000
,
00000000
00001000
00000000
00000000
00000000
00000000
00000000
00000000
,
00000000
00100000
00000000
01000000
00000000
00001000
00000000
00000000
,
00000000
00000100
00000000
00000000
00000000
00000000
00000000
00000000
,
00000000
00010000
00000000
00000000
00000000
00010000
00000000
00000000
,
00000000
00010000
00000000
00000000
00000000
00000000
00000000
00000000
,
00000000
00001000
00000000
00010000
00000000
00001000
00000000
00000000
,
00000000
00000001
00000000
00100000
00000000
10000000
00000000
00000000
,
00000000
01000000
00000000
00010000
00000000
00000001
00000000
00000000
,
00000000
01000000
00000000
10000000
00000000
01000000
00000000
00000000
,
00000000
00000001
00000000
00000100
00000000
10000000
00000000
00000000
,
00000000
00000010
00000000
00000010
00000000
01000000
00000000
00000000
,
00000000
00010000
00000000
01000000
00000000
00010000
00000000
00000000
,
00000000
00100000
00000000
00000010
00000000
00000001
00000000
00000000
,
00000000
00000010
00000000
00000010
00000000
00010000
00000000
00000000
,
00000000
00100000
00000000
00001000
00000000
00000010
00000000
01000000
,
00000000
00010000
00000000
00000001
00000000
01000000
00000000
00000100
,
00000000
00000020
00000000
00000000
00000000
00000030
00000000
00000000
,
00000000
00000010
00000000
00000010
00000000
00001000
00000000
00000010
,
00000000
00020000
00000000
00030000
00000000
00000020
00000000
00000030
,
00000000
00100000
00000000
00001000
00000000
00100000
00000000
00000000
,
00000000
00000001
00000000
00000100
00000000
01000000
00000000
00000000
,
00000000
10000000
00000000
01000000
00000000
20000000
00000000
30000000
,
00000000
10000000
00000000
00000100
00000000
00001000
00000000
00000000
,
00000000
10000000
00000000
00000010
00000000
00000001
00000000
01000000
,
00000000
00000020
00000000
00000030
00000000
00000000
00000000
00000000
,
00000000
00000001
00000000
01000000
00000000
00001000
00000000
00000010
,
00000000
00010000
00000000
00000000
00000000
00000100
00000000
00000000
,
00000000
00000001
00000000
00100000
00000000
00000001
00000000
00000000
,
00000000
00000100
00000000
00010000
00000000
00100000
00000000
00000000
,
00000000
01000000
00000000
00000100
00000000
00000002
00000000
00000003
,
00000000
00100000
00000000
00000010
00000000
00010000
00000000
00000000
,
00000000
00100000
00000000
00001000
00000000
00001000
00000000
00000000
,
00000000
00010000
00000000
10000000
00000000
00001000
00000000
00000000
,
00000000
00001000
00000000
00001000
00000000
00100000
00000000
00000000
,
00000000
00001000
00000000
01000000
00000000
00010000
00000000
00000000
,
00000000
00100000
00000000
00000010
00000000
10000000
00000000
00000000
,
00000000
00000001
00000000
00010000
00000000
00000100
00000000
00000000
,
00000000
00000100
00000000
00100000
00000000
00000100
00000000
00000000
,
00000000
00100000
00000000
10000000
00000000
00000100
00000000
00000000
,
00000000
00001000
00000000
01000000
00000000
00100000
00000000
00000000
,
00000000
00001000
00000000
00001000
00000000
00100000
00000000
00000000
,
00000000
00000100
00000000
00000010
00000000
00000010
00000000
00000000
,
00000000
00100000
00000000
01000000
00000000
00100000
00000000
00000000
,
00000000
00100000
00000000
01000000
00000000
00010000
00000000
01000000
,
00000000
00000002
00000000
00000000
00000003
00000000
00000000
00000000
,
00000000
00100000
00000000
01000000
00000000
01000000
00000000
00100000
,
00000000
00020000
00000000
00030000
00000000
20000000
00000000
30000000
,
00000000
00100000
00000000
00000010
00000000
00010000
00000000
00000000
,
00000000
00010000
00000000
00010000
00000000
00010000
00000000
00000000
,
00000000
00001000
00000000
00000100
00000000
20000000
00000000
30000000
,
00000000
00100000
00000000
00010000
00000000
00000010
00000000
00000001
,
00000000
00100001
00000000
00000000
00000000
00000000
00000000
00000000
;

//---------------dance-double - Copied from Copied f----------------
#NOTES:
     dance-double:
     Copied from Copied f:
     Beginner:
     1:
     0.094019,0.153908,0.009141,0.146252,0.000000,72.000000,71.000000,1.000000,16.000000,0.000000,0.000000,0.094019,0.153908,0.009141,0.146252,0.000000,72.000000,71.000000,1.000000,16.000000,0.000000,0.000000:
00000000
00000000
00000000
00000000
,
00000000
00000000
00000000
00000000
,
00000000
00001000
00000000
00000000
00000000
00000000
00000000
00000000
,
00000000
00000010
00000000
00000000
00000000
00000000
00000000
00000000
,
00000000
10000000
00000000
00000000
00000000
00000000
00000000
00000000
,
00000000
00000100
00000000
00000000
00000000
00000000
00000000
00000000
,
00000000
00000001
00000000
00000000
00000000
00000000
00000000
00000000
,
00000000
00000100
00000000
00000000
00000000
00000000
00000000
00000000
,
00000000
00010000
00000000
00000000
00000000
00000000
00000000
00000000
,
00000000
00000010
00000000
00000000
00000000
00000000
00000000
00000000
,
00000000
00001000
00000000
00000000
00000000
00000000
00000000
00000000
,
00000000
01000000
00000000
00000000
00000000
00000000
00000000
00000000
,
00000000
00020000
00000000
00000000
00000000
00000000
00000000
00000000
,
00000000
00030020
00000000
00000000
00000000
00000000
00000000
00000000
,
00000000
00002030
00000000
00000000
00000000
00000000
00000000
00000000
,
00000000
00003020
00000000
00000000
00000000
00000000
00000000
00000000
,
00000000
00020030
00000000
00000000
00000000
00000000
00000000
00000000
,
00000000
02030000
00000000
00000000
00000000
00000000
00000000
00000000
,
00000000
03002000
00000000
00000000
00000000
00000000
00000000
00000000
,
00000000
00003020
00000000
00000000
00000000
00000000
00000000
00000000
,
00000030
00000001
00000000
10000000
00000000
00000000
00000000
00000001
,
00000000
10000000
00000000
00000000
00000000
00000000
00000000
00000000
,
00000000
00000100
00000000
00000100
00000000
00000000
00000000
00010000
,
00000000
00000001
00000000
00000000
00000000
00000000
00000000
00000000
,
00000000
10000000
00000000
00000000
00000000
01000000
00000000
00000000
,
00000000
00000001
00000000
00000000
00000000
00000000
00000000
00000000
,
00000000
00000010
00000000
00000000
00000000
00000000
00000000
00000000
,
00000000
10000000
00000000
00000000
00000000
00000000
00000000
00000000
,
00000000
00000010
00000000
00000000
00000000
00000010
00000000
00000000
,
00000000
00000100
00000000
00000000
00000000
00000000
00000000
00000000
,
00000000
00010000
00000000
00000000
00000000
00001000
00000000
00000000
,
00000000
00001000
00000000
00000000
00000000
00000001
00000000
00000000
,
00000000
00000000
00000000
00000000
00000000
00010000
00000000
00000000
,
00000000
00000000
00000000
00000000
00000000
01000000
00000000
00000000
,
00000000
00000100
00000000
00000000
00000000
00001000
00000000
00000000
,
00000000
00000000
00000000
00000000
,
00000000
00010000
00000000
00000000
00000000
00000000
00000000
00000000
,
00000000
00000100
00000000
00000000
00000000
00000000
00000000
00000000
,
00000000
01000000
00000000
00000000
00000000
00000000
00000000
00000000
,
00000000
00000100
00000000
00000000
00000000
00000000
00000000
00000000
,
00000000
00000020
00000000
00000000
00000000
00000000
00000000
00000000
,
00000000
00020030
00000000
00000000
00000000
00000000
00000000
00000000
,
00000000
00032000
00000000
00000000
00000000
00000000
00000000
00000000
,
00000000
00003020
00000000
00000000
00000000
00000000
00000000
00000000
,
00000000
00020030
00000000
00000000
00000000
00000000
00000000
00000000
,
00000000
00032000
00000000
00000000
00000000
00000000
00000000
00000000
,
00000000
00003020
00000000
00000000
00000000
00000000
00000000
00000000
,
00000000
00020030
00000000
00000000
00000000
00000000
00000000
00030000
,
00000000
00010000
00000000
00010000
00000000
00000000
00000000
00100000
,
00000000
00000010
00000000
00000000
00000000
00000000
00000000
00000000
,
00000000
00010000
00000000
00010000
00000000
00000000
00000000
10000000
,
00000000
00001000
00000000
00000000
00000000
00000000
00000000
00000000
,
00000000
00100000
00000000
00000000
00000000
00000100
00000000
00000000
,
00000000
01000000
00000000
00000000
00000000
10000000
00000000
00000000
,
00000000
00000001
00000000
00000000
00000000
00000010
00000000
00000000
,
00000000
10000000
00000000
00000000
00000000
00100000
00000000
00000000
,
00000000
00100100
00000000
00000000
00000000
00000000
00000000
00000000
;

//---------------dance-single - Copied from----------------
#NOTES:
     dance-single:
     Copied from:
     Edit:
     15:
     0.817446,0.872143,1.252285,0.484461,0.685558,626.000000,489.000000,137.000000,53.000000,0.000000,34.000000,0.817446,0.872143,1.252285,0.484461,0.685558,626.000000,489.000000,137.000000,53.000000,0.000000,34.000000:
0000
0000
0000
0000
,
0000
0000
0000
0000
,
0000
0000
1010
0000
0000
0101
0000
0000
0110
0000
1001
0000
0000
0000
0110
0000
,
0000
0000
1001
0010
0100
0010
1100
0000
0110
0000
1001
0100
0010
1000
0110
0000
,
1010
0000
1010
0000
0001
0010
0000
0010
0000
1000
0001
0000
1000
0000
0110
0000
,
0010
0000
1000
0000
0100
1000
0000
0010
0001
0000
0100
1000
0100
0000
1001
0000
,
0000
0000
0010
0000
1000
0001
0100
0000
0001
0100
1000
0010
1000
0000
1010
0000
,
0100
0000
0010
0000
1000
0001
0000
0100
0000
0110
0000
0000
0100
0010
1000
0001
,
1000
0000
0010
0000
0100
0001
0000
0010
0000
1000
0000
0000
0100
0000
1100
0000
,
0100
0000
0010
0000
0010
0100
0000
1000
0010
0000
1000
0000
0001
0000
0011
0000
,
0100
0000
1000
0000
0000
0100
0000
0000
1000
0000
0010
0000
0000
0000
1010
0000
,
0000
0000
1000
0000
0010
0001
0010
0000
0100
1000
0001
0010
0100
0000
1100
0000
,
1001
0000
1000
0001
0010
0100
1000
0000
0001
0000
0010
0000
0100
0000
1100
0000
,
0010
0000
0100
0000
0001
1000
0000
0010
0000
1000
0100
0000
0001
0000
0011
0000
,
0000
0000
0100
0001
0010
0000
1000
0001
0000
0100
0000
0010
0000
0000
0110
0000
,
0100
0000
0010
0000
0001
0100
0000
1000
0000
0010
0000
0000
1000
0000
1001
0010
,
0100
0000
0001
0000
0001
1000
0000
0001
0010
0000
0100
0000
0001
0000
1001
0000
,
0100
0101
0010
1010
0100
0110
0000
0101
,
0000
0000
1000
0100
1000
0001
0010
0100
0001
0010
1000
0001
1000
0010
0001
1000
,
0100
0001
1000
0100
0010
0000
0001
0010
0100
0000
1000
0000
0100
1000
0010
0100
,
0001
0100
1020
0000
1000
0000
1230
0000
0001
0000
0312
0000
1000
0000
1023
0000
,
0100
0000
0231
0000
0000
0000
0010
0000
1300
0000
0101
0000
1000
0000
0010
1000
,
0200
0000
2300
0020
0001
0000
3102
0030
0010
0000
1023
0000
0001
0000
1032
0000
,
0100
0123
0000
0001
1000
1032
0000
1000
,
0013
0000
1000
0010
0001
1000
0100
0000
0010
0000
0102
0000
0023
0000
1130
0000
,
0000
0000
2000
0000
0200
3000
0311
0000
0001
0000
0200
0000
0320
0000
1031
0000
,
0000
2000
0001
3021
0000
2031
0100
0101
,
3000
0000
1000
0100
0010
0000
0001
0010
0100
0000
1000
0000
0100
0001
1000
0010
,
1000
0001
0210
0000
0010
0000
1302
0000
0100
0000
1203
0000
0010
0000
0321
0000
,
0100
0000
2030
0000
0000
0000
0100
0000
3100
0001
1000
0010
0100
0001
1000
0000
,
0100
0102
1000
1023
0100
2031
0001
3201
,
0010
2310
0000
0101
0100
3210
0000
1300
,
0100
0000
0110
0000
0001
0000
1000
0100
0010
0001
2100
0000
3102
0000
1013
0000
,
0000
1002
0203
0310
0100
2100
3021
0131
,
0000
2100
0010
3210
0001
0302
0010
1100
,
0103
0000
1000
0100
0010
0000
0001
0010
0100
0000
1000
0000
0100
0001
0100
0010
,
0100
0010
1001
0000
0000
0110
0000
0000
0110
0000
1001
0000
0000
0000
0000
0000
,
1001
0000
1010
0000
0000
1001
0000
0000
0110
0000
0000
0000
0101
0000
0110
0000
,
1001
0000
1001
0000
0000
0110
0000
0000
1001
0000
1100
0000
0000
0000
1001
0000
,
0000
0000
1001
0000
0010
0001
0000
0000
0100
0000
0100
1000
0100
0000
1001
0010
,
0001
0100
1001
0000
0100
1010
0000
0100
1010
0001
0000
0010
1100
0010
0000
1000
,
0101
0000
0110
0000
1000
0011
0000
0100
0011
1000
0000
0000
0011
0000
0110
1001
,
0100
0000
1001
0000
0010
1100
0000
0001
1100
0010
0000
1000
0110
0001
0000
0100
,
0011
0000
1100
0000
0001
1100
0000
0100
1001
0010
0000
0000
1100
0000
1001
0110
,
0000
0000
1010
0000
0100
0011
0000
0100
0011
1000
0000
0001
1010
0100
0000
1001
,
0010
0000
0011
1000
0000
1001
0000
1000
0110
0001
0000
0000
1001
0000
0110
1001
,
0000
0000
1001
0100
1000
0100
1000
0100
0010
0001
0010
0001
0010
0001
0010
1000
,
0010
0001
1000
0100
0010
0000
0001
0010
0100
0000
1000
0000
0100
0001
0100
0010
,
0100
0010
2001
0000
0000
0010
0100
0000
0000
0000
0010
0000
0000
0100
0001
0000
,
0000
0000
3010
0000
0000
0100
1000
0000
0000
0000
1000
0000
0100
0001
0010
1000
,
0000
0100
0000
0000
0001
1000
0110
0000
0000
0000
0011
0000
0000
0010
1100
0000
,
0000
0000
1002
0000
0000
0100
1000
0000
0000
0000
0013
0000
0000
0100
0001
0000
,
1000
0000
0010
0100
0000
0001
0000
1000
0000
0010
0200
0000
0320
0000
1031
0000
,
0000
2000
3020
1130
0001
2000
3200
1301
,
0000
0000
2000
0100
0010
0100
3002
0000
0000
0000
0203
1000
0001
1000
0310
0000
,
0000
0000
1001
0100
0010
1010
0001
0010
1100
0000
1000
0000
1001
0100
0011
0001
,
0011
0100
1001
0000
0000
0000
0000
0000
0000
0000
0000
0000
0000
0000
0000
0000
;
