#VERSION:0.83;
#TITLE:YES or YES;
#SUBTITLE:;
#ARTIST:TWICE;
#TITLETRANSLIT:;
#SUBTITLETRANSLIT:;
#ARTISTTRANSLIT:;
#GENRE:;
#ORIGIN:;
#CREDIT:;
#BANNER:AV.avi;
#BACKGROUND:bg.png;
#PREVIEWVID:;
#JACKET:jacket.jpg;
#CDIMAGE:;
#DISCIMAGE:;
#LYRICSPATH:;
#CDTITLE:;
#MUSIC:YES OR YES - TWICE.mp3;
#OFFSET:-0.280000;
#SAMPLESTART:71.099998;
#SAMPLELENGTH:12.000000;
#SELECTABLE:YES;
#DISPLAYBPM:138.000000;
#BPMS:0.000=138.010,
35.000=275.990,
35.750=55.190,
36.000=138.010,
161.500=34.510,
161.750=69.010,
162.250=207.010,
163.000=138.010,
227.000=69.005,
229.000=138.010,
261.000=69.005,
265.000=138.010,
295.000=69.005,
296.000=138.010;
#STOPS:;
#DELAYS:;
#WARPS:;
#TIMESIGNATURES:0.000=4=4;
#TICKCOUNTS:0.000=4;
#COMBOS:0.000=1;
#SPEEDS:0.000=1.000=0.000=0;
#SCROLLS:0.000=1.000;
#FAKES:;
#LABELS:0.000=Song Start;
#BGCHANGES:0.000=MV.avi=1.200=1=0=1===CrossFade==,
3.000=MV.avi=1.000=0=0=1=====,
368.000=MV.avi=0.000=0=0=1=====,
99999=-nosongbg-=1.000=0=0=0 // don't automatically add -songbackground-
;
#KEYSOUNDS:;
#ATTACKS:
;

//---------------dance-single - ----------------
#NOTEDATA:;
#CHARTNAME:;
#STEPSTYPE:dance-single;
#DESCRIPTION:;
#CHARTSTYLE:;
#DIFFICULTY:Challenge;
#METER:15;
#RADARVALUES:0.941036,1.307244,1.560299,1.493516,0.525159,1085.000000,828.000000,257.000000,246.000000,0.000000,77.000000,0.000000,0.000000,0.000000,0.941036,1.307244,1.560299,1.493516,0.525159,1085.000000,828.000000,257.000000,246.000000,0.000000,77.000000,0.000000,0.000000,0.000000;
#CREDIT:;
#DISPLAYBPM:138.000000;
#NOTES:
1200
0000
0302
0203
0300
0200
2300
3002
,
0023
0000
0100
0000
1000
0000
0100
0000
0032
0000
0000
0000
0023
0000
0000
0000
0130
0000
0000
0000
0010
0001
0100
0000
1000
0000
0000
0000
0010
0000
0000
0000
,
0102
0000
0023
0032
0003
0200
0320
0032
,
2003
0000
0000
0000
0001
0000
0010
0000
3200
0000
0000
0000
2300
0000
0000
0000
3100
0000
0000
0000
0010
1000
0001
0000
0020
0000
0000
0000
0130
0001
1000
0000
,
0210
0000
0302
0203
1301
0000
0200
0300
,
0021
0000
0000
0000
0000
0000
0000
0000
0230
0000
0000
0000
0320
0000
0000
0000
1031
0000
0000
0000
0010
0001
0100
0000
0010
0000
0000
0000
1000
0000
0000
0000
,
0101
0000
0000
0000
0010
0000
0100
0000
1001
0000
0000
0000
0100
0000
0000
0000
1010
0000
0000
0000
0001
0100
0010
0000
1001
0000
0000
0000
0100
0010
0001
0000
,
1100
0000
0012
0000
1103
0000
0021
0000
1130
0011
1100
0011
1100
0011
1100
0011
,
1000
0100
0001
0010
1000
0100
0010
0001
0010
0100
0000
0100
0020
0000
0000
0030
,
0101
0000
0001
0010
1100
0000
0001
0000
1100
0000
0010
0000
0101
0000
0010
0000
,
1001
0100
0000
1000
0110
0000
0001
0000
1100
0010
0000
0100
1001
0000
0020
0000
,
0230
0000
0302
0010
2003
0000
3200
0000
0320
0000
1030
0000
0002
0000
2003
0000
,
3022
0000
1033
0000
0200
0000
1300
0000
0022
0100
0033
1000
0110
0000
1001
0000
,
0110
0000
0001
0010
1100
0000
0010
0000
1001
0000
0010
0000
1100
0000
0001
0000
,
1010
0100
0000
0100
0011
0000
1000
0000
0110
0001
0000
1000
0110
0000
0002
0000
,
2003
3200
0320
0032
0203
0310
0002
0023
,
2230
0000
3310
0000
0002
0000
0013
0000
2200
0010
3301
0010
0100
1000
0010
0100
,
0012
0100
1003
0012
0103
0020
0231
2300
,
3102
0010
1003
0102
1003
0000
0210
0000
,
2302
0010
3103
2001
3100
0020
1032
0203
,
1320
0000
0001
0000
0130
0000
1020
0000
0031
0110
1000
0000
0011
0000
1100
0000
,
1200
0010
0301
1200
0310
0001
0110
0000
,
0201
1000
0310
0201
1300
0010
0101
0000
,
1020
0000
0000
0001
0030
0000
1020
0000
0030
0000
0021
0000
1130
0000
0021
0000
,
1130
0000
0020
0000
0031
0000
2010
0000
3100
0011
0200
0000
1301
0000
0010
0000
,
0102
0000
0010
0100
1003
0000
0102
1000
0013
0000
2000
0000
3201
0000
0320
0000
,
2230
0000
0000
0000
3301
0000
2100
0001
3020
0000
0000
0000
0131
0000
0000
0000
,
1002
0000
0010
0000
0103
0000
1002
0100
0013
0000
2000
0000
3120
0000
0032
0000
,
1203
0000
0311
1200
0311
0100
1002
0000
,
0103
0000
0010
0000
0002
0000
0010
1000
0103
0000
0010
0000
2001
0000
0000
0000
,
3010
0000
0100
0000
2000
0000
0001
0010
3100
0000
0001
0010
1001
0000
1000
0100
,
0012
0000
0000
0020
0003
0030
0102
1000
0013
0000
0200
0000
0310
0000
0002
0000
,
1103
0012
1103
0021
1130
0012
1013
0000
,
0101
0000
0010
0000
0100
0000
1000
0000
0101
1000
0010
0000
0100
0000
0010
0000
,
1010
0000
0100
0001
0010
0000
0001
0000
1010
0001
0100
0000
0010
0000
0001
0000
,
1100
0000
0010
0000
0100
0000
0001
0000
1100
0001
0010
0000
0100
0000
1000
0000
,
0011
0000
0100
0001
0010
0000
1000
0000
0011
1000
0100
0000
0010
0000
1000
0000
,
0101
1010
1001
0101
,
0011
1100
0011
1100
0011
1100
0011
1100
,
0011
0000
1100
0000
0011
0000
1100
0000
0011
0000
1100
0000
0011
0000
1100
0000
0001
0010
0100
1000
0001
0010
0100
1000
0100
0010
0001
1000
0100
0010
0001
0000
,
0000
0000
0000
0000
0000
0000
0000
0010
0100
0001
0000
0000
0110
0000
1000
0010
,
0101
0000
0010
0000
1001
0000
0100
0000
0011
0000
0100
0000
1001
0010
0000
0100
,
1001
0000
0100
0000
1010
0100
0000
0100
0011
0000
2000
0000
3200
0000
0320
0000
,
0032
0203
2300
3010
0002
0023
2230
3310
,
0002
0000
0013
0000
2200
0001
3300
0001
0110
0000
1001
0000
1001
0000
0100
0001
,
1010
0001
0110
1000
0101
0010
1001
0100
,
1010
0000
0100
0000
0011
0100
0000
0010
1001
0000
0020
0000
0230
0000
2300
0000
,
3002
0023
0230
0310
2000
3200
0322
0133
,
2000
0000
3100
0000
0022
0100
1033
0100
0010
1000
0100
0010
0002
0000
1000
0100
,
0010
0000
0100
0000
2013
0000
0100
0000
0011
0000
0010
0000
3200
0000
0001
0010
,
0001
0000
1000
0000
0302
1000
0000
1000
0110
0000
1000
0000
0023
0000
1000
0001
,
1000
0000
0001
0000
0230
0000
0010
0000
1001
0000
0010
0000
2300
0000
0010
0100
,
0010
0000
0100
0000
3001
0000
1000
0110
1001
0000
0110
0000
0120
0000
0000
2030
,
0001
0000
3200
0000
0321
0000
0000
0032
1100
0000
0023
0000
0230
0000
0000
0320
,
0001
0000
2030
0000
3002
0000
0000
0203
1010
0000
0301
0000
1010
0001
0000
0001
,
1100
0000
0000
0000
0001
0000
0000
0000
1000
0000
0100
0000
0010
0000
0001
0000
0010
0000
0100
0000
1000
0000
0010
0000
0100
0000
0010
0000
1000
0100
0010
0000
,
0001
0000
0100
0000
0001
0000
0010
0000
1000
0100
0010
0000
0001
0000
1000
0000
0001
0000
0100
0000
0001
0010
0100
0000
2000
0000
0000
0000
0000
0000
0000
0000
,
0000
3000
1010
0100
1010
0100
2020
3130
,
2020
3130
1010
0001
0110
0001
0220
0331
,
0220
0331
0110
1000
0101
0010
1100
0010
,
1100
0010
0101
1000
0110
1000
0011
1000
,
0101
0000
1000
0000
0110
0000
0001
0100
1010
0000
0001
0000
0110
0000
0001
0000
,
1100
0000
0001
0000
1010
0000
0100
0001
1010
0000
0100
0000
0011
0000
1000
0000
,
0110
1000
0101
0010
1001
0100
1010
0001
,
0110
1000
0202
1003
0002
0010
1000
0000
,
1313
0000
0000
0000
0200
0300
0000
0000
2000
3002
0003
0000
0220
0330
2200
3300
,
0022
0033
2002
3103
0110
0000
1000
0000
0002
0000
1103
0000
0011
0000
0100
0000
,
2000
0000
3100
0000
0011
0000
0000
0011
0200
0000
0311
0000
0001
0000
0000
0000
,
2100
3100
0011
0100
0200
0311
1100
0000
,
0002
0000
0013
0000
1100
0000
0000
1100
0020
0000
1130
0000
0100
0000
0000
0000
,
1002
1003
0110
1000
0010
1100
0011
0100
,
1000
0000
0100
0000
0011
0000
0000
0011
2000
0000
3011
0000
0001
0000
0000
0000
,
0120
0130
1001
0010
0020
0131
1010
0001
,
0200
0000
0310
0000
1002
0000
0000
1000
0010
0000
1000
0000
1003
0100
0010
0001
,
1100
0000
1000
0010
0101
0000
0010
0000
1001
0000
0100
0000
0011
0000
0100
0000
,
1001
0010
0000
0100
1001
0000
0100
0000
1010
0100
0000
0100
0011
0000
2000
0000
,
3200
0320
0032
0203
2300
3010
0002
0023
,
2230
0000
3310
0000
0002
0000
0013
0000
2200
0001
3300
0001
0110
0000
1001
0000
,
1001
0000
0100
0001
1010
0000
0001
0000
0110
0000
1000
0000
0101
0000
0010
0000
,
1001
0000
0100
0000
1010
0000
0100
0000
0011
0100
0000
0010
1001
0000
0020
0000
,
0230
2300
3002
0023
0230
0310
2000
3200
,
0322
0000
0133
0000
2000
0000
3100
0000
0022
0100
1033
0100
0010
1000
0100
0010
,
0002
0000
1000
0100
0010
0000
0100
0000
2013
0000
0100
0000
0011
0000
0010
0000
,
3200
0000
0001
0010
0001
0000
1000
0000
0302
1000
0000
1000
0110
0000
1000
0000
,
0023
0000
1000
0001
1000
0000
0001
0000
0230
0000
0010
0000
1001
0000
0010
0000
,
2300
0000
0010
0100
0010
0000
0100
0000
3001
0000
1000
0110
1001
0000
0110
0000
,
0120
0000
0000
2030
0001
0000
3200
0000
0321
0000
0000
0032
1100
0000
0023
0000
,
0230
0000
0000
0320
0001
0000
2030
0000
3002
0000
0000
0203
1010
0000
0301
0000
,
1010
0001
0000
0001
1100
0000
0001
0000
1000
0100
0010
0001
0010
0100
1000
0010
,
0100
0000
0010
0000
1000
0100
0010
0000
0001
0000
0100
0000
0001
0000
0010
0000
1000
0100
0010
0000
0001
0000
1000
0000
0001
0000
0100
0000
0001
0010
0100
0000
,
2000
3002
0203
0320
0032
0003
0002
0023
,
2230
3300
0002
0003
2200
3300
0000
0000
;

//---------------dance-single - ----------------
#NOTEDATA:;
#CHARTNAME:;
#STEPSTYPE:dance-single;
#DESCRIPTION:;
#CHARTSTYLE:;
#DIFFICULTY:Hard;
#METER:14;
#RADARVALUES:0.569826,0.750970,0.139638,1.159600,0.315703,657.000000,634.000000,23.000000,191.000000,0.000000,0.000000,0.000000,0.000000,0.000000,0.569826,0.750970,0.139638,1.159600,0.315703,657.000000,634.000000,23.000000,191.000000,0.000000,0.000000,0.000000,0.000000,0.000000;
#CREDIT:;
#DISPLAYBPM:138.000000;
#NOTES:
0000
0000
0000
0000
,
0000
0000
0000
0000
,
0000
0000
0000
0000
,
0000
0000
0000
0000
,
0000
0000
0000
0000
,
0000
0000
0000
0000
,
0000
0000
0000
0000
,
0000
0000
0000
0000
,
0000
0000
0000
0000
,
0001
1000
0001
0100
0010
1000
0001
1000
,
0010
0100
0000
0100
0010
0000
1000
0000
0001
0100
0000
0100
0001
0000
0020
0000
,
0230
2300
3200
0320
0032
0003
0002
2003
,
3020
0000
0030
0000
0200
0000
0300
0000
0020
0000
0030
1000
0010
0000
0100
0000
,
0100
0001
1000
0010
0100
0010
1000
0001
,
0100
0001
0000
0001
0100
0000
0010
0000
1000
0001
0000
0001
1000
0000
0200
0000
,
0320
0032
0023
0230
2300
3000
0020
0230
,
0302
0000
0003
0000
2000
0000
3000
0000
0002
0000
0003
0000
0100
0001
1000
0001
,
1000
0010
0100
0001
1000
0010
0100
0010
,
1000
0100
0010
0001
0200
0000
0320
0000
,
2030
3010
1000
0001
0100
0010
0100
0001
,
0002
0003
0100
0001
1000
0001
2000
0000
,
3001
1000
0002
0000
1003
0100
0020
0000
,
0031
0010
0200
0000
1300
0010
0100
0000
,
0200
0000
0300
0020
0000
0030
2000
0000
3000
0000
0001
0000
0100
0000
0010
0000
,
1000
0002
0203
0302
0023
0230
2300
3010
,
1010
0000
0100
0001
0100
0000
0010
1000
0001
0000
0100
0000
0010
0000
0100
0000
,
0002
0000
0000
0000
0103
0000
0010
1000
0010
0000
0010
0000
2000
0000
0000
0000
,
3020
0000
0100
0000
0031
0000
1000
0001
1000
0000
0001
0000
0010
0000
0001
0000
,
0200
0000
0310
1000
0001
1000
0020
0000
,
1030
0001
0200
0000
0310
1000
0002
0000
,
0103
0000
0001
0000
2000
0000
0000
0000
3010
0000
0100
0001
0100
0000
0010
0000
,
2000
0000
3000
0200
0000
0300
0020
0000
0030
0000
0001
0000
0100
0000
0010
0000
,
1000
0001
1000
0001
1000
0001
1001
0000
,
1000
0000
0100
0000
0010
0000
0001
0000
1000
0010
1000
0000
0010
0000
0100
0000
,
0001
0000
0010
0100
0001
0000
0100
0000
0010
1000
0010
0000
1000
0000
0001
0000
,
0001
0000
0100
0010
0100
0000
0010
0000
1000
0001
1000
0000
0010
0000
0100
0000
,
0010
0000
0100
0001
1000
0000
0010
0000
1000
0001
0100
0000
0010
0000
1000
0000
,
1001
1001
1001
1001
,
0100
0010
0100
0010
0100
0010
0100
0010
,
0100
0010
0100
0010
0100
0010
0100
0010
0200
0000
0320
0000
2030
0000
3002
0000
,
0000
0000
0000
0000
0000
0000
0003
0000
0000
0000
0000
0000
1010
0000
1000
0001
,
1000
0000
0010
0000
0100
0000
0001
0000
0100
0000
0010
0000
1000
0001
0000
0001
,
0100
0000
0001
0000
1000
0010
0000
0010
0100
0000
0002
0000
0023
0000
0230
0000
,
2300
3020
0230
0300
0002
2003
3020
0030
,
0200
0000
0300
0000
0020
0000
0030
0001
0100
0000
1000
0000
1000
0000
0001
0100
,
0010
0000
0100
0000
0010
0000
1000
0000
0001
0000
0100
0000
0001
1000
0000
1000
,
0010
0000
1000
0000
0010
0100
0000
0100
0001
0000
0200
0000
0320
0000
2030
0000
,
3002
2003
3002
0003
0200
0302
2003
3000
,
0020
0000
0030
0000
2000
0000
3010
0000
1000
0001
1000
0001
2000
0000
3000
0020
,
0000
0030
0200
0000
0310
0000
0010
0000
1000
0000
0010
0000
0200
0000
0300
0002
,
0000
0003
2000
0000
3010
0100
0001
0100
0010
0000
1000
0000
0002
0000
0003
0200
,
0000
0300
0020
0000
1030
0000
0001
0000
0100
0000
0010
0000
0200
0000
0300
0002
,
0000
0003
2000
0000
3010
0000
0100
0001
1000
0000
0010
0000
0200
0000
0300
0002
,
0000
0003
2000
0000
3020
0000
0030
0200
0000
0300
0002
0000
0023
0000
0030
0002
,
0000
0003
2000
0000
3020
0000
0030
0200
0000
0300
0001
0000
1000
0010
0000
0010
,
1000
0000
0001
0000
0100
0010
0100
0010
0100
0010
0100
0010
0100
0000
0001
1000
,
0010
0000
0100
0000
0010
1000
0001
1000
0001
1000
0001
1000
0002
0000
0000
0000
,
0000
0000
1003
0010
1000
0010
0220
0330
,
0220
0330
1000
0001
1000
0010
0220
0330
,
0220
0330
1000
0010
0100
0001
0200
0300
,
0100
0010
2000
3000
0200
0300
0020
0030
,
0002
0000
0003
0000
0100
0000
0000
0010
0000
0000
1000
0000
0010
0000
0000
0000
,
1001
0000
0001
0000
0001
0000
0000
0100
0000
0000
0010
0000
1000
0000
0000
0000
,
1001
0001
0100
0010
0100
0001
1000
0010
,
0010
0100
0210
0000
0010
0000
0000
0000
,
0310
0000
0000
0000
2000
0000
3000
0000
0020
0230
0000
0300
0022
0033
2002
3003
,
0220
0330
2020
3030
1000
0000
0010
0000
1000
0000
0010
0000
0200
0000
0301
0000
,
0001
0000
1000
0000
0010
0000
0100
0010
0100
0000
0010
0000
0010
0000
0000
0000
,
2002
3003
0010
0100
0100
0010
2000
3001
,
0010
0000
0100
0000
1000
0000
0010
1000
0010
0000
0100
0000
0220
0000
0330
0000
,
0202
0303
0001
0100
0001
1000
0002
0103
,
0100
0000
0010
0000
1000
0000
0010
1000
0001
0000
1000
0000
1000
0000
0000
0000
,
0010
0010
0100
0001
0001
1000
0010
0100
,
0010
1000
0020
0000
0000
0000
0030
0000
,
0101
0000
0001
1000
0001
0000
0100
0000
0010
0000
1000
0000
0010
0000
0100
0000
,
0001
1000
0000
1000
0010
0000
1000
0000
0001
0100
0000
0100
0010
0000
2000
0000
,
3200
0320
0032
0203
0320
0130
0020
2030
,
3002
0000
0103
0000
0200
0000
0310
0000
0020
0000
0130
0001
0100
0000
0001
0000
,
1001
0000
1000
0010
0100
0000
0010
0000
0100
0000
0001
0000
1000
0000
0010
0000
,
0100
0001
0000
0001
1000
0000
0001
0000
0100
0010
0000
0010
1000
0000
0020
0000
,
0230
0302
2003
3002
2003
3010
0020
2030
,
3002
0000
0103
0000
0020
0000
0130
0000
0002
0000
0103
0000
0001
1000
0001
1000
,
0002
0000
0003
0200
0000
0300
0020
0000
0130
0000
0100
0000
0001
0000
0100
0000
,
0020
0000
0030
2000
0000
3000
0002
0000
0103
0010
1000
0010
0100
0000
0001
0000
,
2000
0000
3000
0020
0000
0030
0200
0000
0301
0000
1000
0000
0010
0000
0100
0000
,
0020
0000
0030
2000
0000
3000
0002
0000
0103
0000
0010
1000
0001
0000
0100
0000
,
0200
0000
0300
0020
0000
0030
2000
0000
3200
0000
0300
0020
0000
0030
0002
0000
,
0203
0000
0300
0020
0000
0030
2000
0000
3020
0000
0030
0002
0000
0003
1000
0000
,
0001
0100
0000
0100
0001
0000
1000
0000
0010
0100
0010
0100
0010
0100
0010
0100
,
0010
0000
1000
0001
0100
0000
0010
0000
0100
0001
1000
0001
1000
0001
2000
0000
,
3200
0320
0032
0023
0230
0000
2300
3020
,
0230
0300
0002
0003
0200
0300
0000
0000
;

//---------------dance-single - ----------------
#NOTEDATA:;
#CHARTNAME:;
#STEPSTYPE:dance-single;
#DESCRIPTION:;
#CHARTSTYLE:;
#DIFFICULTY:Medium;
#METER:7;
#RADARVALUES:0.416311,0.472188,0.200350,0.042498,0.024285,480.000000,447.000000,33.000000,7.000000,0.000000,0.000000,0.000000,0.000000,0.000000,0.416311,0.472188,0.200350,0.042498,0.024285,480.000000,447.000000,33.000000,7.000000,0.000000,0.000000,0.000000,0.000000,0.000000;
#CREDIT:;
#DISPLAYBPM:138.000000;
#NOTES:
0000
0000
0000
0000
,
0000
0000
0000
0000
,
0000
0000
0000
0000
,
0000
0000
0000
0000
,
0000
0000
0000
0000
,
0000
0000
0000
0000
,
0000
0000
0000
0000
,
0000
0000
0000
0000
,
0000
0000
0000
0000
,
0001
1000
0001
0101
,
0001
0100
0001
0000
1000
0010
1000
0000
,
0001
0010
0100
1000
0010
0000
0100
0001
,
0100
0001
0010
0011
,
0100
1000
0001
0000
0100
0010
1000
0000
,
0011
1100
1001
0110
,
0001
0010
0001
0000
0100
1000
0100
0000
,
0100
1100
0010
0110
,
1001
0000
0100
1000
0001
0010
0100
0000
,
0010
1000
0001
0000
0020
0000
0130
0000
,
0100
1000
0001
0000
0010
0001
0010
0000
,
0100
1000
0010
0000
0100
0001
0010
0000
,
0100
1000
0010
0000
0001
0010
0100
0000
,
0010
1000
0001
0000
0010
0100
0010
0000
,
0001
0010
0100
1000
0001
0000
1001
0000
,
0010
1000
0001
0000
0011
0000
1100
0000
,
0010
0000
0100
1000
0001
0100
0010
0000
,
0001
0010
0100
0000
1000
0000
0001
0000
,
0010
0000
0100
1000
0010
1000
0001
0000
,
0100
0010
0001
0000
0010
1000
0001
0000
,
0010
0100
0001
0000
0100
0010
0001
0000
,
0010
0100
0001
0000
0100
0010
0001
0000
,
0010
1000
0001
0000
0010
0000
1100
0000
,
0010
0100
0010
1000
0001
0010
0100
0000
,
0001
0010
0100
0000
0110
0000
0011
0000
,
0100
1000
0001
0000
1100
0000
0110
0000
,
0001
1000
0100
0000
0011
0000
1100
0000
,
0010
0100
0001
0000
0011
0000
1100
0000
,
0001
1000
0001
0000
1001
0000
1001
0000
,
0001
1000
0001
0000
1001
0000
1001
0000
,
0100
1000
0010
0100
0001
0010
0100
1000
,
0002
0000
0000
0003
0000
0000
1000
0000
,
0010
0000
0100
0001
0100
0000
0010
1000
,
0001
0000
0001
0000
0010
0000
0100
0010
,
0001
0010
0100
0000
0010
1000
0001
0000
,
0010
0000
0100
1000
0010
0000
0001
0000
,
0100
0000
0010
1000
0001
0000
0010
0000
,
0100
0000
0001
1000
0001
0000
0010
0100
,
0010
0000
0001
1000
0001
0000
0001
0000
,
0010
0000
0100
0000
1000
0010
1000
0000
,
0010
0100
0010
0000
0001
0010
0100
0000
,
0001
1000
0010
0000
0001
1000
0100
0000
,
0001
0010
0100
0000
0010
0100
0001
0000
,
0010
0000
1000
0000
0001
0000
0000
0000
0100
0000
0010
0000
0001
0000
0000
0010
,
0000
0000
0100
0000
0001
0000
0010
0000
0000
0100
0000
0000
1000
0000
0000
0010
,
0000
0000
0100
0000
0001
0000
0000
0010
0000
0000
0100
0000
1000
0000
0010
0000
,
0100
0001
1000
0100
1000
0010
1000
0001
,
0010
0100
1000
0001
0100
0010
2000
0000
,
0000
3001
0100
0101
,
0101
0001
0010
0011
,
0011
0000
0010
1000
0001
0000
0010
0100
,
0001
0000
0100
1000
0001
0000
0100
0010
,
0001
1000
0010
0200
,
0310
0001
0010
0200
,
1300
0000
0001
0100
0010
0000
0001
1000
,
0100
0020
0000
0000
,
0030
0000
0100
0000
0000
0000
1000
0100
,
1000
0100
0010
1000
0001
0000
0010
0000
,
0100
0001
0001
0011
,
0000
0000
0100
0010
1000
0000
0010
0000
,
0100
0001
0100
0101
,
0000
0000
0010
1000
0001
0000
0010
0000
,
0100
0001
0010
0011
,
0000
0000
0100
1000
0010
0001
0010
0100
,
1000
0001
0200
0000
0000
0000
0300
0000
,
0001
0000
0100
0000
0010
1000
0010
0000
,
0100
0001
1000
0000
1000
0000
0100
0000
,
0010
0100
1000
0100
0010
0000
0100
0001
,
1000
0000
0100
0000
0010
0001
0100
0000
,
1000
0000
0010
0000
0100
0001
1000
0000
,
0100
0000
0010
0000
1000
0001
1000
0000
,
0100
0010
0100
0000
1000
0001
1000
0000
,
1000
0000
0100
0000
0010
0000
0001
0100
,
0001
0000
0100
0010
0100
0000
1000
0100
,
0010
0000
1000
0001
0100
0000
1000
0001
,
0010
0000
1000
0100
0010
0000
0100
0010
,
1000
0000
0100
0001
1000
0000
0010
0100
,
1000
0000
0000
0100
0000
0000
0010
0000
1000
0000
0000
0100
0000
0000
0010
0000
,
0001
0000
0000
0100
0000
0000
0010
0000
1000
0000
0000
0100
0000
0000
0010
0000
,
0001
0100
0010
1000
0001
0010
0001
0100
,
0001
1000
0100
0010
0001
1000
0010
0001
,
0100
0010
1000
0001
0010
0000
0100
0010
,
0001
0010
0011
0000
;

//---------------dance-single - ----------------
#NOTEDATA:;
#CHARTNAME:;
#STEPSTYPE:dance-single;
#DESCRIPTION:;
#CHARTSTYLE:;
#DIFFICULTY:Easy;
#METER:5;
#RADARVALUES:0.306162,0.333309,0.066783,0.127495,0.000000,353.000000,342.000000,11.000000,21.000000,0.000000,0.000000,0.000000,0.000000,0.000000,0.306162,0.333309,0.066783,0.127495,0.000000,353.000000,342.000000,11.000000,21.000000,0.000000,0.000000,0.000000,0.000000,0.000000;
#CREDIT:;
#DISPLAYBPM:138.000000;
#NOTES:
0000
0000
0000
0000
,
0000
0000
0000
0000
,
0000
0000
0000
0000
,
0000
0000
0000
0000
,
0000
0000
0000
0000
,
0000
0000
0000
0000
,
0000
0000
0000
0000
,
0000
0000
0000
0000
,
0000
0000
0000
0000
,
1000
0010
1000
0010
,
0100
0001
0010
0001
,
0100
1000
0001
0000
0010
0000
0100
0000
,
0001
0001
0011
0000
,
0100
1000
0010
0100
,
0001
0010
0100
1000
,
0010
0000
0100
0000
0001
0000
0010
1000
,
0001
0010
0011
0000
,
0100
0001
1000
0010
,
0001
0100
0010
0000
2000
0000
3001
0000
,
0010
0100
0001
0010
,
0100
1000
0001
0000
0100
0000
0010
0000
,
2000
3001
0002
1003
,
2000
3001
0002
1003
,
0001
0100
0001
0101
,
0001
0010
0001
0010
,
1100
0000
0010
0100
0001
0000
1000
0000
,
0100
0010
0002
1003
,
0010
0000
0100
0000
0001
1000
0100
0000
,
0010
0001
1000
0010
,
2000
3010
0020
1030
,
2000
3010
0020
1030
,
0001
0010
0001
0011
,
0100
0100
0100
1100
,
0100
1000
0100
0000
0010
0000
0010
0000
,
0010
0100
0010
0000
0001
0000
0001
0000
,
0001
0010
0001
0000
0100
0000
0100
0000
,
0010
1000
0010
0000
0001
0000
0001
0000
,
0010
0100
0010
0000
1000
0000
1000
0000
,
0001
0010
0001
0000
1000
0000
1000
0000
,
0010
0100
0010
1000
0001
0000
0100
0000
,
0010
0000
0000
1000
,
0010
0000
0100
0001
0100
0000
0010
0000
,
1000
0001
0010
0100
,
1000
0010
0100
0001
,
0001
0101
0010
1000
,
0001
0000
0010
0100
0010
0000
0001
0000
,
1000
0000
0010
0000
0100
0000
0001
1000
,
0100
0000
0001
0010
0100
0000
0010
0000
,
0010
0110
0001
1000
,
1000
0001
0001
0100
,
0100
0010
0010
1000
,
1000
0001
0001
0010
,
0010
0100
0100
1000
,
0001
0010
0010
0100
,
1000
0010
0010
0200
,
0301
0002
0013
0200
,
1300
0020
0130
0002
,
0000
0003
1000
0000
0010
0000
1000
0000
,
1000
0010
0100
0010
,
0010
0001
1000
0001
,
0010
0100
1000
0001
,
0100
0010
0010
0100
,
0001
1000
1000
0001
,
0010
0100
1000
0001
,
0100
0002
0000
0000
,
0003
0000
1000
0000
1000
0000
0010
0100
,
0001
0010
1000
0000
1000
0000
0010
0000
,
1000
0001
0001
1000
,
0000
0100
1000
0010
,
0100
0001
0001
1000
,
0000
0010
0100
0010
,
1000
0001
0001
0010
,
0000
0100
1000
0001
,
0100
0020
0000
0030
,
1000
0000
0010
0000
0100
0001
0100
0000
,
0010
1000
0001
0010
,
0100
1000
0010
0100
,
0001
0001
0101
0010
,
1000
0000
0001
0000
0010
0100
0010
0000
,
0001
1000
0010
0100
,
0001
1000
0100
0000
0001
0010
0100
0000
,
0010
0010
0110
0001
,
1000
1000
0001
0001
,
0100
0100
0010
0010
,
1000
1000
0001
0001
,
0010
0010
0100
0100
,
1000
0001
0010
0010
,
0100
1000
0010
0010
,
0200
0301
0002
0013
,
0200
1300
0020
0130
,
0001
0100
0001
0010
,
1000
1000
1010
0000
;

//---------------dance-single - ----------------
#NOTEDATA:;
#CHARTNAME:;
#STEPSTYPE:dance-single;
#DESCRIPTION:;
#CHARTSTYLE:;
#DIFFICULTY:Beginner;
#METER:2;
#RADARVALUES:0.191677,0.222206,0.006071,0.115353,0.000000,221.000000,220.000000,1.000000,19.000000,0.000000,0.000000,0.000000,0.000000,0.000000,0.191677,0.222206,0.006071,0.115353,0.000000,221.000000,220.000000,1.000000,19.000000,0.000000,0.000000,0.000000,0.000000,0.000000;
#CREDIT:;
#DISPLAYBPM:138.000000;
#NOTES:
// measure 0
0000
0000
0000
0000
,  // measure 1
0000
0000
0000
0000
,  // measure 2
0000
0000
0000
0000
,  // measure 3
0000
0000
0000
0000
,  // measure 4
0000
0000
0000
0000
,  // measure 5
0000
0000
0000
0000
,  // measure 6
0000
0000
0000
0000
,  // measure 7
0000
0000
0000
0000
,  // measure 8
0000
0000
0000
0000
,  // measure 9
1000
0001
1000
0001
,  // measure 10
0200
0000
0301
0000
,  // measure 11
0010
0001
1000
0010
,  // measure 12
0001
0001
0001
0000
,  // measure 13
0010
1000
0001
0100
,  // measure 14
0020
0000
1030
0000
,  // measure 15
0001
0100
0010
1000
,  // measure 16
0001
0100
0001
0000
,  // measure 17
0010
0001
0010
0000
,  // measure 18
0100
1000
0100
0000
,  // measure 19
0010
1000
0010
0000
,  // measure 20
0001
1000
0001
0000
,  // measure 21
0010
0001
0010
0000
,  // measure 22
0100
1000
0100
0000
,  // measure 23
0010
0100
0010
0000
,  // measure 24
0001
0000
1001
0000
,  // measure 25
0001
0010
0001
0000
,  // measure 26
0100
1000
0010
0000
,  // measure 27
0001
0010
0100
0000
,  // measure 28
1000
0010
1000
0000
,  // measure 29
0001
0001
0100
0000
,  // measure 30
0010
1000
0010
0000
,  // measure 31
0200
0000
0000
0000
,  // measure 32
0301
0000
0000
0000
,  // measure 33
1000
0001
1000
0000
,  // measure 34
0010
0100
0010
0000
,  // measure 35
1000
0100
0010
0000
,  // measure 36
0001
1000
0001
0000
,  // measure 37
1000
1000
0100
0000
,  // measure 38
0010
0100
0010
0000
,  // measure 39
1000
0001
1000
0001
,  // measure 40
2000
0000
3000
0001
,  // measure 41
0100
0001
0000
0010
,  // measure 42
1000
0010
0000
0001
,  // measure 43
0100
0001
0000
0010
,  // measure 44
0010
0010
0000
1000
,  // measure 45
0100
1000
0000
0001
,  // measure 46
0010
0100
0000
0001
,  // measure 47
1000
0010
0000
0100
,  // measure 48
0100
0100
0000
0010
,  // measure 49
1000
0001
0000
0200
,  // measure 50
0000
0310
0000
0001
,  // measure 51
0010
0001
0000
2000
,  // measure 52
0000
3100
0000
0001
,  // measure 53
0100
0010
0000
1000
,  // measure 54
0100
0010
0000
0002
,  // measure 55
0000
2003
0000
3020
,  // measure 56
0000
0230
0000
0302
,  // measure 57
0000
0003
0000
0010
,  // measure 58
0010
0000
0000
0100
,  // measure 59
0100
0000
0000
1000
,  // measure 60
0000
0001
0000
1000
,  // measure 61
0000
0010
0000
0100
,  // measure 62
0000
0010
0000
1000
,  // measure 63
0000
0001
0000
0010
,  // measure 64
0000
0200
0000
0000
,  // measure 65
0300
1000
0000
0000
,  // measure 66
0000
1000
0000
0010
,  // measure 67
0000
0001
0001
0100
,  // measure 68
0000
0010
0000
1000
,  // measure 69
0000
0100
0100
0010
,  // measure 70
0000
1000
0000
0001
,  // measure 71
0000
0010
0010
0001
,  // measure 72
0000
0100
0000
0010
,  // measure 73
0000
2000
0000
3000
,  // measure 74
0001
0100
0001
0000
,  // measure 75
0010
1000
0010
0000
,  // measure 76
0001
0100
0001
0000
,  // measure 77
0010
0010
0010
0000
,  // measure 78
1000
0100
1000
0000
,  // measure 79
0001
0010
0100
0000
,  // measure 80
0001
1000
0010
0000
,  // measure 81
0100
0100
0100
0000
,  // measure 82
0010
1000
0001
0000
,  // measure 83
0200
0000
0310
0000
,  // measure 84
0001
0010
0001
0000
,  // measure 85
2000
0000
3100
0000
,  // measure 86
0001
0100
0010
0000
,  // measure 87
1000
0100
0010
0000
,  // measure 88
0002
0000
2003
0000
,  // measure 89
3020
0000
0230
0000
,  // measure 90
0301
0100
0001
0000
,  // measure 91
0010
0100
0010
0000
;
