#VERSION:0.83;
#TITLE:Wonderland;
#SUBTITLE:;
#ARTIST:Gugudan;
#TITLETRANSLIT:;
#SUBTITLETRANSLIT:;
#ARTISTTRANSLIT:;
#GENRE:;
#ORIGIN:;
#CREDIT:;
#BANNER:AV.avi;
#BACKGROUND:bg.png;
#PREVIEWVID:;
#JACKET:jacket.jpg;
#CDIMAGE:;
#DISCIMAGE:;
#LYRICSPATH:;
#CDTITLE:;
#MUSIC:audio.ogg;
#OFFSET:-0.035000;
#SAMPLESTART:47.565060;
#SAMPLELENGTH:14.999991;
#SELECTABLE:YES;
#BPMS:0.000=125.990,
180.000=62.995,
188.000=125.990;
#STOPS:;
#DELAYS:;
#WARPS:;
#TIMESIGNATURES:0.000=4=4;
#TICKCOUNTS:0.000=4;
#COMBOS:0.000=1;
#SPEEDS:0.000=1.000=0.000=0;
#SCROLLS:0.000=1.000;
#FAKES:;
#LABELS:0.000=Song Start;
#BGCHANGES:0.000=MV.avi=0.600=1=0=1===CrossFade==,
7.000=MV.avi=1.000=0=0=1=====,
99999=-nosongbg-=1.000=0=0=0 // don't automatically add -songbackground-
;
#KEYSOUNDS:;
#ATTACKS:
;

//---------------dance-single - ----------------
#NOTEDATA:;
#CHARTNAME:;
#STEPSTYPE:dance-single;
#DESCRIPTION:;
#CHARTSTYLE:;
#DIFFICULTY:Challenge;
#METER:15;
#RADARVALUES:0.704243,0.874355,1.449911,1.128580,0.313494,629.000000,444.000000,185.000000,144.000000,0.000000,54.000000,0.000000,0.000000,0.000000,0.704243,0.874355,1.449911,1.128580,0.313494,629.000000,444.000000,185.000000,144.000000,0.000000,54.000000,0.000000,0.000000,0.000000;
#CREDIT:;
#NOTES:
// measure 0
0000
0000
0000
0000
,  // measure 1
0200
0000
0000
0000
0011
0000
0000
0300
0200
0000
0000
0320
1100
0000
0032
0000
,  // measure 2
0203
0000
0000
0000
0011
0300
0000
0000
0200
0000
0000
0320
1100
0000
0032
0000
,  // measure 3
0203
0000
0000
0000
0011
0300
0000
0000
0200
0000
0000
0320
1100
0000
0032
0000
,  // measure 4
0203
0000
0000
0020
0000
0000
2030
0000
0000
0000
0000
3000
0311
0000
0000
0000
,  // measure 5
0002
0000
0000
0000
1100
0000
0000
0000
2003
0000
0000
3020
1100
0000
0032
0000
,  // measure 6
2003
0000
0000
0000
3011
0000
0000
0000
0002
0000
0000
0203
0011
0000
0320
0000
,  // measure 7
2031
0000
0000
0000
0000
0000
0100
0010
0001
0000
0000
0000
0000
0000
0010
0100
,  // measure 8
3002
0000
0000
0000
0003
0000
0000
0000
0010
0100
0000
0100
0000
0100
0010
0000
,  // measure 9
0002
0000
0003
0010
1100
0000
0001
0000
1000
0000
0010
0000
0101
0000
0000
0000
,  // measure 10
1000
0000
0100
1000
0011
0000
0001
0000
0100
0000
0000
0000
1010
0000
0001
0000
,  // measure 11
0100
0000
0000
0100
0011
0000
0010
0000
1000
0000
0001
0000
0100
0000
0010
0000
,  // measure 12
1001
0000
0000
1001
0000
0000
0110
0000
1100
0000
0000
0000
0100
0001
0100
0000
,  // measure 13
0010
0000
0000
0001
0110
0000
1000
0000
0010
0000
0001
0000
1100
0000
0000
0000
,  // measure 14
0010
0000
0100
0010
1100
0000
0010
0000
1000
0000
0000
0000
0110
0000
0001
0000
,  // measure 15
0100
0000
0000
0100
1010
0000
0001
0000
1000
0000
0100
0000
1010
0000
0001
0000
,  // measure 16
0102
0000
0000
0003
0201
0000
0000
0000
2310
0010
0000
3001
0000
0010
0100
0000
,  // measure 17
1100
0100
0010
0011
1100
0000
0010
0001
,  // measure 18
1001
0000
0100
0000
0010
0000
1100
0000
0011
0000
1100
0000
0020
0000
0000
0030
,  // measure 19
1001
0000
0100
0000
0010
0000
0011
0000
1100
0000
0020
0000
0000
0030
0000
0000
,  // measure 20
1002
0000
0000
0003
2001
0000
0000
3000
1002
0000
0003
0011
1200
0000
0320
0000
,  // measure 21
0100
1000
0101
0001
1100
0000
0101
0031
,  // measure 22
1010
0000
0100
0000
1001
0000
0100
0000
0011
0100
0000
0100
0000
0010
1100
0001
,  // measure 23
0110
0000
0000
0000
0000
0000
0000
0000
0110
0000
0000
0000
0000
0000
1001
0000
0110
0000
0000
0000
0110
0000
0000
0000
0100
1000
0100
0010
0001
0010
0100
1000
,  // measure 24
0101
0000
0000
0000
1001
0000
0000
0000
0000
0011
1100
0000
0020
0000
0001
0130
,  // measure 25
0011
0000
1000
0000
0110
0000
0001
0000
1100
0000
1000
0100
0010
0001
0010
1000
,  // measure 26
0120
0000
0000
0000
1032
0000
0010
0000
0203
0300
0001
0000
0012
0000
0203
0000
,  // measure 27
2310
0000
0000
0000
3210
0000
0000
0000
0320
0030
0000
0000
1200
0000
0320
0000
,  // measure 28
0231
0000
1302
0000
0123
1130
0011
1000
,  // measure 29
0120
0000
0230
0000
0321
0000
0230
0000
0312
0000
0013
0100
1000
0100
0010
0001
,  // measure 30
0210
0000
0000
0000
0321
0000
0000
0000
0032
0003
0000
0000
1200
0000
0320
0000
,  // measure 31
2030
0000
3020
0000
0230
0300
1000
1000
,  // measure 32
0002
0000
0023
1130
1100
1100
1100
1002
,  // measure 33
0200
0000
0000
0000
0000
0000
0320
0000
0000
0000
0000
0000
1130
0000
0000
0003
,  // measure 34
0200
0000
0000
2300
0000
0000
3011
0100
,  // measure 35
0002
0000
0000
0203
0000
0000
0311
2000
,  // measure 36
3201
0000
0000
0300
0002
0000
1103
0000
0020
0000
0030
0000
1001
0000
0010
0000
,  // measure 37
1100
0000
0000
1000
0010
0000
0001
0000
0100
0000
0010
1000
0001
0000
0010
0000
,  // measure 38
0100
0000
0000
0001
1000
0000
0010
0000
0100
0000
0000
0001
0010
0000
1000
0000
,  // measure 39
0012
0103
2001
3100
,  // measure 40
0011
0000
0000
0000
1100
0000
0000
0000
0011
0000
0000
1001
0000
0000
0110
0000
,  // measure 41
0000
0000
0101
0000
0001
1000
0000
0011
0000
0000
1100
0000
0001
0000
0110
0000
,  // measure 42
0000
0000
1002
0000
0203
0000
0320
1001
0230
0000
0321
0000
1230
0000
0300
0000
,  // measure 43
1001
0000
1001
0000
1001
0000
1100
0010
,  // measure 44
0000
1001
1001
1001
1001
0000
0000
0000
,  // measure 45
0100
0000
0010
0000
1001
0000
0010
0000
0100
0000
0001
0000
0011
0000
0100
0000
0020
0000
0000
0000
1032
0000
0000
0000
0023
0030
0101
0000
0101
0000
1000
0000
,  // measure 46
0200
0000
0000
0000
1320
0000
0000
0000
0032
0003
0000
0000
0011
0000
0100
0000
0020
0000
0000
0000
1032
0000
0010
0000
0203
0000
0000
0010
0300
0000
0100
0000
,  // measure 47
1001
0100
0011
0100
1010
1000
0110
0010
,  // measure 48
0101
0000
0110
0000
1100
0011
0011
1000
,  // measure 49
0102
0000
0000
0000
0113
0000
0000
0000
2001
0000
0000
3000
0120
0000
0030
0000
,  // measure 50
0102
0000
0000
0003
1100
0000
0011
0000
0011
0000
0011
0000
0011
0000
0011
0000
,  // measure 51
1100
0000
0001
0000
0110
0000
1000
0000
0011
0000
0001
0010
0100
1000
0100
0001
,  // measure 52
0210
0000
0000
0000
2301
0000
0100
0000
3020
0030
1000
0000
2100
0000
3020
0000
,  // measure 53
0132
0000
0000
0000
0123
0000
0000
0000
0230
0300
0001
0010
0100
1000
0001
0100
,  // measure 54
1020
0000
2031
0000
3210
0311
1100
0001
,  // measure 55
0210
0000
0320
0000
1230
0000
0320
0000
2130
0000
3100
0010
0001
0010
0100
1000
,  // measure 56
0120
0000
0000
0000
1230
0000
0000
0000
2300
3000
0010
0001
0010
1000
0100
0010
,  // measure 57
0102
0000
1203
0000
0321
0030
0101
0001
,  // measure 58
2010
0000
3210
0311
0011
0011
0011
0011
,  // measure 59
0002
2003
3002
2003
3002
2003
3000
0010
,  // measure 60
0200
0302
0203
0300
0002
0203
0302
0003
0200
0000
0000
0000
0302
0000
0000
0003
,  // measure 61
2000
3002
2003
3002
0203
0302
0023
0032
,  // measure 62
0000
0000
0000
1003
0000
0000
1100
0000
1100
0000
1100
0000
1100
0000
1100
0010
,  // measure 63
1001
0110
0000
0110
0000
0110
0000
0110
1001
0000
1002
0000
0003
0000
0000
0000
;

//---------------dance-single - ----------------
#NOTEDATA:;
#CHARTNAME:;
#STEPSTYPE:dance-single;
#DESCRIPTION:;
#CHARTSTYLE:;
#DIFFICULTY:Hard;
#METER:9;
#RADARVALUES:0.388509,0.423854,0.297820,0.235121,0.027431,347.000000,309.000000,38.000000,30.000000,0.000000,0.000000,0.000000,0.000000,0.000000,0.388509,0.423854,0.297820,0.235121,0.027431,347.000000,309.000000,38.000000,30.000000,0.000000,0.000000,0.000000,0.000000,0.000000;
#CREDIT:;
#NOTES:
0000
0000
0000
0000
,
0000
0000
0000
0000
,
0000
0000
0000
0000
,
0000
0000
0000
0000
,
0000
0000
0000
0000
,
2000
0000
0000
0000
,
3002
0000
0000
0000
,
0023
0000
0000
0000
,
0230
0000
0300
0000
,
1001
0000
0100
1000
0001
0100
0010
0000
,
0001
0010
0100
1000
0001
0000
0001
0100
,
0010
0000
1000
0001
0010
0000
0100
1000
,
0001
0001
0001
1001
,
1000
0000
0001
1000
0010
0100
0001
0000
,
0100
1000
0001
1000
0010
0000
0011
0000
,
0001
1000
0010
0100
0001
0000
0011
0000
,
0100
0000
0100
1000
0002
0000
0013
0000
,
0100
1000
0100
1000
0200
0000
0300
0000
,
0001
1000
0001
1000
0002
0000
0003
0000
,
0010
0100
0010
0000
0001
1000
0001
0000
,
1001
1001
1001
0002
,
0103
0010
1000
0001
0010
0000
0100
0010
,
0001
1000
0010
0100
0002
0000
1003
0000
,
1100
1100
1001
0110
,
0002
0013
0000
0110
,
0100
1000
0010
1000
0001
1000
0100
0010
,
0002
0000
0013
0000
0011
0000
0100
1000
,
0002
0000
1003
0000
1001
0000
0010
0100
,
0002
0013
0012
0013
,
0100
1000
0001
1000
0100
1000
0010
0100
,
0002
0000
1003
0000
1001
0000
0010
1000
,
0002
0000
0013
0000
0011
0000
0100
1000
,
0001
0000
1000
0010
0100
0001
0010
0100
,
2000
0000
0000
3001
0000
0000
1001
0000
,
0002
0000
0000
0013
0000
0000
0011
0000
,
0200
0000
0000
1300
0000
0000
1100
0000
,
0020
0000
0000
0130
0000
0000
0110
0000
,
0001
0000
0000
1000
0001
0000
1000
0000
0010
0000
0000
0001
0010
0000
0100
0000
,
1000
0000
0000
0010
0100
0000
0001
0000
0010
0000
0000
0100
1000
0000
0001
0000
,
0020
0031
0200
1300
,
1001
0000
0000
0000
0010
0000
0000
0000
0011
0000
0000
0011
0000
0000
0100
0000
,
0000
0000
0001
0000
1000
0001
0000
1000
0000
0000
0010
0000
0100
0000
0001
0000
,
1000
0001
0100
0001
1000
0001
0010
0000
,
0011
0011
0011
0011
,
0000
0001
1000
0001
1000
0000
0000
0000
,
0001
0000
0001
0000
1000
0001
1001
0000
,
0010
0100
0110
0000
0001
0010
0011
0000
,
0001
1000
0001
1000
0010
1000
0100
1000
,
0001
0000
0010
0000
0100
0000
0001
1000
,
0010
0000
1000
0000
0001
0000
0100
0010
,
1000
0000
1000
0010
1000
0010
1000
0010
,
0101
0001
0100
0001
1000
0001
0010
0100
,
2000
0000
3100
0000
1100
0000
0010
0001
,
2000
0000
3001
0000
1001
0000
0100
0010
,
2000
3100
2100
3100
,
0010
0001
1000
0001
0010
0001
0100
0010
,
2000
0000
3001
0000
1001
0000
0100
0001
,
2000
0000
3100
0000
1100
0000
0010
0001
,
1000
0000
0001
0100
0010
1000
0100
0010
,
0001
1000
0001
1000
0001
1000
0000
0001
,
0010
0001
1000
0010
0200
0000
0310
0000
,
0100
1000
0001
1000
0010
0100
0001
0020
,
0000
0001
0100
0031
,
0001
1000
0001
1000
0001
1001
0000
0000
;

//---------------dance-single - ----------------
#NOTEDATA:;
#CHARTNAME:;
#STEPSTYPE:dance-single;
#DESCRIPTION:;
#CHARTSTYLE:;
#DIFFICULTY:Medium;
#METER:6;
#RADARVALUES:0.263111,0.324124,0.039187,0.156747,0.000000,235.000000,230.000000,5.000000,20.000000,0.000000,0.000000,0.000000,0.000000,0.000000,0.263111,0.324124,0.039187,0.156747,0.000000,235.000000,230.000000,5.000000,20.000000,0.000000,0.000000,0.000000,0.000000,0.000000;
#CREDIT:;
#NOTES:
0000
0000
0000
0000
,
0000
0000
0000
0000
,
0000
0000
0000
0000
,
0000
0000
0000
0000
,
0000
0000
0000
0000
,
2000
0000
3100
0000
,
0002
0000
0103
0000
,
2000
0000
3100
0000
,
0002
0000
0103
0000
,
0001
0000
1000
0000
0100
1000
0100
0000
,
0001
0000
0010
0000
0100
1000
0001
0000
,
0010
0000
1000
0000
0001
1000
0001
0000
,
0010
0010
0200
0300
,
1000
0000
1000
0000
0001
0100
0001
0000
,
1000
0000
0010
0000
0001
1000
0100
0000
,
0001
0000
0010
0000
0100
1000
0001
0000
,
0010
1000
0001
0000
0200
0000
0310
0000
,
0001
0001
0002
1003
,
1000
1000
2000
3001
,
0010
0100
0020
0130
,
0001
0100
1000
0100
,
0001
0010
0100
1000
,
0001
0100
0002
0013
,
0100
0100
1000
0100
,
2000
0000
0000
0000
0000
3000
0000
0000
,
1000
0010
0001
0010
,
1000
1000
0010
0010
,
1000
1000
0010
0010
,
1000
0001
0020
0031
,
0001
0100
1000
0100
,
0001
0001
0001
0100
,
1000
1000
0010
0001
,
1000
0100
0010
0010
,
0002
0000
1003
0000
,
2000
0000
3100
0000
,
0020
0000
0130
0000
,
2000
0000
3001
0000
,
0001
0010
0001
0010
,
0100
1000
0001
0100
,
0010
0010
0100
0100
,
0010
0100
0010
0100
,
0001
1000
0100
0000
0001
0000
0010
0000
,
0100
1000
0001
0000
0010
0100
0001
0000
,
1000
1000
0100
0200
,
0000
0000
0000
0300
,
2000
0000
3001
0000
0010
0100
0010
0000
,
0001
1000
0100
0000
0001
0010
0100
0000
,
0010
0100
0001
1000
,
0100
0100
0100
1000
,
0001
0010
0100
0001
,
1000
0000
0001
1000
0001
0000
0010
0000
,
0001
1000
0100
0000
0001
0010
0100
0000
,
0010
0010
0110
0001
,
1000
1000
1001
0010
,
0100
0100
0110
0001
,
0100
1000
0001
0000
0010
1000
0001
0000
,
0010
0010
0011
0100
,
1000
1000
1100
0001
,
0100
0010
1000
0001
,
0100
0100
0100
0010
,
0001
1000
0002
0013
,
1000
0100
1000
0001
,
0200
0010
0001
0310
,
1000
0000
0100
0000
0001
0001
0000
0000
;

//---------------dance-single - ----------------
#NOTEDATA:;
#CHARTNAME:;
#STEPSTYPE:dance-single;
#DESCRIPTION:;
#CHARTSTYLE:;
#DIFFICULTY:Easy;
#METER:3;
#RADARVALUES:0.144431,0.199069,0.000000,0.125398,0.000000,129.000000,129.000000,0.000000,16.000000,0.000000,0.000000,0.000000,0.000000,0.000000,0.144431,0.199069,0.000000,0.125398,0.000000,129.000000,129.000000,0.000000,16.000000,0.000000,0.000000,0.000000,0.000000,0.000000;
#CREDIT:;
#NOTES:
0000
0000
0000
0000
,
0000
0000
0000
0000
,
0000
0000
0000
0000
,
0000
0000
0000
0000
,
0000
0000
0000
0000
,
2000
0000
0000
0000
,
3002
0000
0000
0000
,
0023
0000
0000
0000
,
0032
0000
0000
0000
,
1003
0000
0010
0000
,
0100
0000
0001
0000
,
1000
0000
0001
0000
,
0010
0000
0100
0000
,
0001
0000
1000
0000
,
0010
0000
1000
0000
,
0001
0000
0010
0000
,
0100
0000
1000
0000
,
0002
0000
0000
0000
,
2003
0000
0000
0000
,
3200
0000
0000
0000
,
0320
0000
0000
0000
,
0031
0000
0001
0000
,
1000
0000
0100
0000
,
1000
0001
1000
0001
,
2000
0000
0000
0000
,
3100
0000
0001
0000
,
0100
0010
0100
0000
,
0010
0100
0010
0000
,
0100
0010
0100
0000
,
0001
0000
1000
0000
,
0001
1000
0001
0000
,
1000
0001
1000
0000
,
0001
1000
0001
0000
,
0010
0000
0100
0000
,
1000
0000
0001
0000
,
0100
0000
0001
0000
,
1000
0000
0001
0000
,
0020
0000
0031
0000
,
0200
0000
1300
0000
,
0010
0000
1000
0000
,
0001
0000
0001
0000
,
0200
0000
1300
0000
,
0002
0000
1003
0000
,
0010
0000
0020
0000
,
0000
0000
0000
0000
,
0130
0000
0001
0000
,
1000
0000
0100
0000
,
1000
0000
0010
0000
,
0100
0010
0100
0000
,
0001
1000
0001
0000
,
0100
1000
0001
1000
,
0010
0000
1000
0000
,
0001
1000
0001
0000
,
0010
1000
0010
0000
,
1000
0010
1000
0000
,
0001
0000
0100
0000
,
0001
0010
0100
0000
,
0100
1000
0001
0000
,
0010
0100
0010
0000
,
1000
0100
1000
0000
,
0001
0000
0010
0000
0002
0000
0000
0003
,
1000
0001
1000
0000
,
0010
1000
0010
0000
,
0200
0000
0310
0000
;

//---------------dance-single - ----------------
#NOTEDATA:;
#CHARTNAME:;
#STEPSTYPE:dance-single;
#DESCRIPTION:;
#CHARTSTYLE:;
#DIFFICULTY:Beginner;
#METER:1;
#RADARVALUES:0.030230,0.074063,0.000000,0.000000,0.000000,27.000000,27.000000,0.000000,0.000000,0.000000,0.000000,0.000000,0.000000,0.000000,0.030230,0.074063,0.000000,0.000000,0.000000,27.000000,27.000000,0.000000,0.000000,0.000000,0.000000,0.000000,0.000000,0.000000;
#CREDIT:;
#NOTES:
0000
0000
0000
0000
,
0000
0000
0000
0000
,
0000
0000
0000
0000
,
0000
0000
0000
0000
,
0000
0000
0000
0000
,
1000
0000
0000
0000
,
0000
0000
0000
0000
,
0000
0000
0000
0000
,
0000
0000
0000
0000
,
0010
0000
0000
0000
,
0000
0000
0000
0000
,
1000
0000
0000
0000
,
0000
0000
0000
0000
,
0001
0000
0000
0000
,
0000
0000
0000
0000
,
0010
0000
0000
0000
,
0000
0000
0000
0000
,
1000
0000
0000
0000
,
0000
0000
0000
0000
,
0001
0000
0000
0000
,
0000
0000
0000
0000
,
0010
0000
0000
0000
,
0000
0000
0000
0000
,
0100
0000
0000
0000
,
0000
0000
0000
0000
,
0001
0000
0000
0000
,
0000
0000
0000
0000
,
0000
0000
0000
0000
,
0000
0000
0000
0000
,
0001
0000
0000
0000
,
0000
0000
0000
0000
,
0000
0000
0000
0000
,
0000
0000
0000
0000
,
1000
0000
0000
0000
,
0000
0000
0000
0000
,
0001
0000
0000
0000
,
0000
0000
0000
0000
,
0010
0000
0000
0000
,
0000
0000
0000
0000
,
0100
0000
0000
0000
,
0000
0000
0000
0000
,
0001
0000
0000
0000
,
0000
0000
0000
0000
,
1000
0000
0000
0000
,
0000
0000
0000
0000
,
0001
0000
0000
0000
,
0010
0000
0000
0000
,
0100
0000
0000
0000
,
0000
0000
0000
0000
,
0001
0000
0000
0000
,
0000
0000
0000
0000
,
0010
0000
0000
0000
,
0000
0000
0000
0000
,
0000
0000
0000
0000
,
0000
0000
0000
0000
,
0001
0000
0000
0000
,
0000
0000
0000
0000
,
0001
0000
0000
0000
,
0000
0000
0000
0000
,
0001
0000
0000
0000
,
0000
0000
0000
0000
,
0100
0000
0000
0000
,
0000
0000
0000
0000
,
0001
0000
0000
0000
;
