#TITLE:Who Dis?;
#SUBTITLE:;
#ARTIST:Secret Number;
#TITLETRANSLIT:;
#SUBTITLETRANSLIT:;
#ARTISTTRANSLIT:;
#GENRE:;
#CREDIT:;
#BANNER:AV.avi;
#BACKGROUND:bg.png;
#LYRICSPATH:;
#CDTITLE:;
#MUSIC:audio.ogg;
#OFFSET:-0.202000;
#SAMPLESTART:82.760002;
#SAMPLELENGTH:15.000000;
#SELECTABLE:YES;
#DISPLAYBPM:105.000000;
#BPMS:0.000000=105.000000
,12.500000=210.000000
,13.000000=105.000000
,156.500000=210.000000
,157.000000=105.000000
,172.500000=210.000000
,173.000000=105.000000
;
#STOPS:12.500000=0.030000,
12.625000=0.030000,
12.750000=0.040000,
12.875000=0.040000,
156.500000=0.030000,
156.625000=0.030000,
156.750000=0.045000,
156.875000=0.040000,
172.500000=0.030000,
172.625000=0.030000,
172.750000=0.040000,
172.875000=0.040000
;
#BGCHANGES:0.000=MV.avi=1.000=1=0=1===CrossFade==,
78.000=MV.avi=0.800=0=0=1=====,
79.500=MV.avi=1.000=0=0=1=====,
99999=-nosongbg-=1.000=0=0=0 // don't automatically add -songbackground-
;
#KEYSOUNDS:;
#ATTACKS:;

//---------------dance-single - ----------------
#NOTES:
     dance-single:
     :
     Challenge:
     14:
     0.815484,0.884903,1.237141,1.207918,0.891326,586.000000,459.000000,127.000000,124.000000,0.000000,31.000000,0.815484,0.884903,1.237141,1.207918,0.891326,586.000000,459.000000,127.000000,124.000000,0.000000,31.000000:
// measure 0
0000
0000
2000
0000
3102
0010
0103
1000
0100
0010
1010
0100
0010
0001
1010
0100
,  // measure 1
0000
0000
0000
0000
1001
0010
0100
1000
0100
0010
1010
0100
0010
0001
1010
0100
,  // measure 2
0000
0000
1000
0101
0101
0010
0100
1000
0100
0010
1010
0100
0010
0001
1010
0100
,  // measure 3
0000
0000
0000
0000
0010
0001
0010
0100
1010
0000
0100
0000
0010
0000
0001
0000
0010
0000
0100
0000
0001
0000
0010
0000
0100
0000
1000
0000
0100
0000
0010
0000
,  // measure 4
0000
0000
0020
0000
1230
0000
1300
0100
0010
0001
1010
0100
0010
0001
1010
0100
,  // measure 5
0001
0100
0010
0000
0120
0000
0230
0000
0320
0000
1031
0000
0200
0000
0321
0000
,  // measure 6
0230
0000
0310
0011
0011
0000
1000
0100
0010
0001
1010
0100
0001
0100
1010
0001
,  // measure 7
1000
0100
0010
0000
0120
0000
0230
0000
0320
0000
0131
0000
0200
0000
0321
0000
,  // measure 8
0230
0000
0302
1010
1013
0000
0001
0100
0010
0100
1001
0010
0100
0010
1002
0000
,  // measure 9
0023
0000
0000
0000
0132
0000
1003
0100
0010
0000
0110
0000
0001
0100
1010
0000
,  // measure 10
0002
0000
0100
1010
1023
0000
1030
0100
0010
0001
1100
0010
0001
0000
1100
0000
,  // measure 11
0020
0000
0000
0000
0230
0301
0000
2000
3001
0010
0200
0300
1000
0020
0030
0000
,  // measure 12
0002
0000
0000
0013
0000
0000
0200
0000
0000
0300
0000
0000
1002
0000
0000
0000
0010
0000
0000
0000
0100
0000
0000
0000
0010
0000
0000
0000
1000
0000
0000
0000
0100
0000
0000
0000
0010
0000
0000
0000
1000
0000
0000
0000
0010
0000
0000
0000
,  // measure 13
0100
1000
0010
2003
0100
0010
0001
0010
0100
0001
0010
0100
,  // measure 14
0001
0100
0010
3200
0000
0000
0000
0000
0000
0000
0000
0000
,  // measure 15
0300
0002
0023
0000
0000
0000
0032
0000
,  // measure 16
0003
0000
0000
1001
0100
0010
1001
0010
1000
0011
0100
0010
,  // measure 17
1001
0100
0010
1001
0100
0010
1001
0010
0100
1010
0001
1000
,  // measure 18
0011
0000
0100
0000
0001
0000
0200
0000
0000
0010
0000
0000
1000
0000
0000
0010
0000
0000
1000
0000
0000
0010
0000
0000
,  // measure 19
1000
0000
0310
0000
0011
0011
0000
0110
0110
0000
1001
1001
0110
0000
0000
0110
,  // measure 20
0000
0000
0102
0000
0123
0000
0032
0003
0000
0000
0102
0003
0000
0000
0102
0003
,  // measure 21
2000
3000
0120
0030
0120
0030
0000
0000
0200
0300
0012
0003
0000
0000
0012
0003
,  // measure 22
0210
0300
0021
0030
1002
0003
0000
0000
0002
0003
0120
0030
0000
0000
0120
0030
,  // measure 23
0012
0003
0120
0030
1001
0000
0000
1001
0000
0000
1001
0000
0000
1001
0000
0000
,  // measure 24
1010
0000
1001
0000
0000
0000
2000
3000
0100
0000
0021
0030
0100
0000
0021
0130
,  // measure 25
0000
0000
2001
3010
1001
0010
0200
0300
0001
0000
2010
3000
0001
0000
0120
1030
,  // measure 26
0000
0000
1002
1003
1001
0000
0200
0301
1000
0100
1020
0031
1000
0010
1200
0301
,  // measure 27
0010
0100
0012
1003
0020
0000
0000
0000
0000
0000
0000
0000
0000
0000
0000
0000
,  // measure 28
0000
0030
0020
0000
0230
0000
0300
0000
0002
0000
0003
0000
0020
0000
0000
0230
,  // measure 29
0000
0000
0302
0000
0003
0000
0000
0000
0020
0000
2030
0000
3002
0000
0000
0203
,  // measure 30
0000
0000
0320
0000
0100
0030
0000
0000
2000
0000
3200
0000
0320
0000
0000
0031
,  // measure 31
0010
0200
0000
0300
1000
1000
0020
0001
0230
0000
1000
0301
1200
0000
0000
0311
,  // measure 32
1000
0002
0120
0000
1233
0000
0300
0000
0012
0000
0003
0000
2100
0000
0000
3020
,  // measure 33
0101
0000
0230
0000
0311
0000
2000
0000
3021
0000
2030
0000
3102
0000
2003
3020
,  // measure 34
0131
0000
0200
0000
1001
0000
0320
0000
0132
0000
0023
0000
1230
0000
0000
0320
,  // measure 35
1001
0030
0100
0000
0002
0013
0000
0200
0310
0001
2000
3000
0100
0020
0030
0000
,  // measure 36
0202
0300
0023
0000
0132
0010
0103
1000
0100
0010
1010
0100
0010
0001
1010
0100
,  // measure 37
0010
0000
0100
0010
1001
0010
0100
1000
0100
0010
1010
0100
0010
0001
1010
0100
,  // measure 38
0020
0000
2030
0101
3102
0010
0103
1000
0100
0010
1010
0100
0010
0001
1010
0100
,  // measure 39
0001
0000
0000
0000
0010
0001
0010
0100
1010
0000
0100
0000
0010
0000
0001
0000
0010
0000
0100
0000
0101
0000
0010
0000
0100
0000
1000
0000
0102
0000
0010
0000
,  // measure 40
0203
0000
0320
0101
0132
0010
0103
1000
0100
0010
1010
0100
0010
0001
1010
0100
,  // measure 41
0010
0000
0100
0010
1001
0010
0100
1000
0100
0010
1010
0100
0010
0001
1010
0100
,  // measure 42
0010
0000
2000
0101
3102
0010
0103
1000
0100
0010
1010
0100
0010
0001
1010
0100
,  // measure 43
0001
0000
0000
0000
0010
0001
0010
0100
1010
0000
0100
0000
0010
0000
0001
0000
0010
0000
0100
0000
0101
0000
0010
0000
0100
0000
1000
0000
0101
0000
0010
0000
,  // measure 44
0002
0000
0013
0200
0000
0300
0000
0000
0000
0000
0000
0000
0000
0000
0000
0000
;

//---------------dance-single - ----------------
#NOTES:
     dance-single:
     :
     Hard:
     9:
     0.434182,0.538053,0.146119,0.340945,0.272756,312.000000,297.000000,15.000000,35.000000,0.000000,0.000000,0.434182,0.538053,0.146119,0.340945,0.272756,312.000000,297.000000,15.000000,35.000000,0.000000,0.000000:
0000
0000
0000
0000
,
0000
0000
0000
0000
,
0000
0000
0000
0000
1000
0000
0001
0000
1000
0000
0001
0000
0010
0001
0010
0000
,
0001
0000
0000
0000
1000
0000
0001
0000
0010
0000
0001
0000
1000
0001
1000
0000
,
0010
0000
0000
0000
1000
0000
0100
0000
0010
0000
0001
0000
1000
0001
1000
0000
,
0010
0100
0002
0023
0230
0300
0200
0320
,
0032
0000
0003
0000
1000
0000
0010
0000
0100
0000
0001
0000
1000
0001
1000
0000
,
0100
0010
0002
2003
3020
0030
0020
2030
,
3002
0000
2003
0000
3001
0000
0100
0000
0001
0000
0100
0000
0001
0010
0001
0000
,
2000
0000
3010
0100
1001
1001
0001
1000
,
0002
0000
0000
0000
0013
0000
0001
0000
1000
0000
0010
0000
0100
0010
0100
0000
,
0002
0000
0000
0000
0013
0000
0000
0010
0000
0000
0010
0000
0001
0000
1000
0000
,
0002
0000
0000
1003
0001
0100
0001
0100
0001
0010
0001
0010
,
0001
0010
0001
1000
0001
1000
0001
1000
0001
0100
0001
0010
,
0001
1000
0010
0200
0000
0000
0010
0000
0000
0001
0000
0000
,
0310
0002
0013
2000
,
3100
0000
0000
0001
1000
0100
1000
0001
1000
0001
0010
0100
,
1000
0001
1000
0001
0010
0100
1000
0001
1000
0100
0010
0001
,
1000
0010
0100
0002
0000
0000
0010
0000
0000
1000
0000
0000
,
0103
0000
0000
0000
0001
1000
0000
0001
0100
0000
0100
0001
0100
0000
0000
0100
,
0002
0000
1003
0001
0010
0001
1000
0001
,
1001
0000
0001
0010
0100
1000
0001
0100
,
0101
0000
0001
0010
0001
1000
0010
0100
,
0110
0000
0000
0000
0001
0000
0000
0001
0000
0000
0001
0000
0000
0001
0000
0000
,
0001
1000
0001
0010
0100
1000
0001
0100
,
0101
0000
0010
1000
0001
0010
0100
1000
,
1100
0000
0001
0100
0010
1000
0001
0010
,
0011
2000
0000
0000
,
3100
1002
0010
1000
,
0103
2000
0100
0010
,
3001
0200
0010
1000
,
0301
2000
0100
0010
,
3001
1002
0013
0102
,
0100
0000
0010
0003
2001
0000
0000
0000
3010
0000
0000
0000
0102
0000
0000
0000
,
0100
0013
0012
0000
0013
0000
2100
0000
,
3100
0000
0000
0000
0010
0000
0000
0010
0000
0000
0010
0000
0000
0010
0000
0000
,
0010
0000
0200
0000
0320
0000
1030
0000
0001
0000
1000
0000
0001
1000
0001
0000
,
0010
0000
0000
0000
0001
0000
1000
0000
0010
0000
0100
0000
0010
0100
0010
0000
,
1000
0000
0000
0000
0001
0000
0010
0000
0100
0000
1000
0000
0001
1000
0001
0000
,
1000
0000
0000
0000
0010
0000
0100
0000
0001
0000
0010
0000
0001
1000
0001
0000
,
0100
0000
0000
0000
0001
0000
0010
0000
0100
0000
1000
0000
0001
1000
0001
0000
,
0100
0000
0000
0000
0010
0000
1000
0000
0001
0000
0010
0000
0100
0010
0100
0000
,
1000
0000
0000
0000
0001
0000
0100
0000
0010
0000
1000
0000
0001
1000
0001
0000
,
1000
0000
0000
0000
0100
0000
0010
0000
0001
0000
1000
0000
0001
0100
0001
0000
,
0010
0000
0001
1000
0000
0000
0000
0000
0000
0000
0000
0000
0000
0000
0000
0000
;

//---------------dance-single - ----------------
#NOTES:
     dance-single:
     :
     Medium:
     5:
     0.250490,0.278600,0.155860,0.175343,0.000000,180.000000,164.000000,16.000000,18.000000,0.000000,0.000000,0.250490,0.278600,0.155860,0.175343,0.000000,180.000000,164.000000,16.000000,18.000000,0.000000,0.000000:
0000
0000
0000
0000
,
0000
0000
0000
0000
,
0000
0000
0000
0000
,
0000
0000
0000
0000
,
0000
1000
0001
1000
,
0001
0000
0100
0010
0100
0000
0010
0100
,
0010
0001
1000
0010
,
0100
0000
0001
0100
0001
0000
0100
0001
,
0100
0000
0001
0000
1000
0000
0001
1000
,
0002
0013
0001
1000
,
2000
0000
3010
0100
0001
0000
0001
0010
,
0100
2000
3001
0020
,
0130
0001
1001
1000
,
1001
0001
1001
1000
,
1001
0002
0013
0000
,
0000
2000
3100
0200
,
0300
0001
0101
0100
,
0101
0001
0101
0100
,
0101
0002
0000
0000
,
1003
0100
0100
0100
,
0110
0001
1000
0001
,
1001
0001
0010
0001
,
0011
1000
0100
1000
,
1100
0010
0010
0010
,
0110
0001
1000
0001
,
1001
0001
0010
0001
,
0011
1000
0100
1000
,
1100
0002
0000
0000
,
0000
2003
0000
3200
,
0000
0302
0000
0023
,
0000
0032
0000
0023
,
0000
0030
0200
0000
0000
0000
0302
0000
,
0000
1003
0100
1000
,
0001
0010
0100
1000
,
0010
0100
0001
1000
,
0100
0020
0000
0000
,
0000
0000
0031
1000
0001
0000
0001
1000
,
0001
0000
0100
1000
0100
0000
1000
0100
,
1000
0000
0010
0100
0010
0000
0001
0010
,
0001
0000
0100
1000
0100
0000
0010
0100
,
0010
0000
0001
1000
0001
0000
0100
0010
,
0100
0000
0001
1000
0001
0000
0010
1000
,
0010
0000
0100
1000
0001
0000
0010
1000
,
0001
0000
0100
0010
0001
0000
0010
1000
,
0001
0000
0000
0000
;

//---------------dance-single - ----------------
#NOTES:
     dance-single:
     :
     Easy:
     3:
     0.112720,0.191781,0.048706,0.155860,0.000000,81.000000,76.000000,5.000000,16.000000,0.000000,0.000000,0.112720,0.191781,0.048706,0.155860,0.000000,81.000000,76.000000,5.000000,16.000000,0.000000,0.000000:
0000
0000
0000
0000
,
0000
0000
0000
0000
,
0000
0000
0000
0000
,
0000
0000
0000
0000
,
0000
0001
0000
1000
,
0000
0002
0003
2000
,
3000
0001
0000
0010
,
0000
0200
0300
0002
,
0003
1000
0000
0010
,
0000
0010
0000
1000
,
0000
0001
0000
1000
,
0000
0020
0000
0000
,
0000
1030
0000
1000
,
0000
0001
0000
0001
,
0000
0002
0000
0003
,
0000
2000
0000
3000
,
0000
0100
0000
0100
,
0000
0010
0000
0010
,
0000
0002
0000
0003
,
0000
0010
0000
0010
,
0000
1000
0000
1000
,
0000
0001
0000
0001
,
0000
0100
0000
0100
,
0000
0010
0000
0010
,
0000
1001
0000
1000
,
0000
0001
0000
0001
,
0000
0010
0000
0010
,
0000
0200
0000
0000
,
0000
0302
0000
0000
,
0000
2003
0000
0000
,
0000
3020
0000
0000
,
0000
0032
0000
0000
,
0000
0203
0000
0000
,
0000
0320
0000
0000
,
0000
2030
0000
0000
,
0000
3001
0000
0001
,
0000
1001
0001
0001
,
0000
1000
0001
1000
,
0000
0101
0001
0100
,
0000
1000
0001
1000
,
0000
1001
0001
0010
,
0000
0001
1000
0001
,
0000
0101
0001
1000
,
0000
0010
1000
0010
;

//---------------dance-single - ----------------
#NOTES:
     dance-single:
     :
     Beginner:
     1:
     0.057056,0.084262,0.019483,0.000000,0.000000,41.000000,39.000000,2.000000,0.000000,0.000000,0.000000,0.057056,0.084262,0.019483,0.000000,0.000000,41.000000,39.000000,2.000000,0.000000,0.000000,0.000000:
0000
0000
0000
0000
,
0000
0000
0000
0000
,
0000
0000
0000
0000
,
0000
0000
0000
0000
,
0000
0001
0000
0000
,
0000
0100
0000
0000
,
0000
0010
0000
0000
,
0000
1000
0000
0000
,
0000
0001
0000
0000
,
0000
0100
0000
0000
,
0000
0100
0000
0000
,
0000
0010
0000
0000
,
0000
1000
0000
0000
,
0000
0001
0000
0000
,
0000
0010
0000
0000
,
0000
0000
0000
0000
,
0000
1000
0000
0000
,
0000
0001
0000
0000
,
0000
0100
0000
0000
,
0000
0010
0000
0000
,
0000
1001
0000
0000
,
0000
1000
0000
0000
,
0000
0001
0000
0000
,
0000
0010
0000
0000
,
0000
0001
0000
0000
,
0000
0100
0000
0000
,
0000
1000
0000
0000
,
0000
0010
0000
0000
,
0000
0001
0000
0000
,
0000
1000
0000
0000
,
0000
0010
0000
0000
,
0000
0001
0000
0000
,
0000
0100
0000
0000
,
0000
0001
0000
0000
,
0000
1000
0000
0000
,
0000
0100
0000
0000
,
0000
0110
0000
0000
,
0000
0001
0000
0000
,
0000
0100
0000
0000
,
0000
0010
0000
0000
,
0000
1000
0000
0000
,
0000
0100
0000
0000
,
0000
0001
0000
0000
,
0000
0010
0000
0000
;
