#TITLE:What is Love?;
#SUBTITLE:;
#ARTIST:Twice;
#TITLETRANSLIT:;
#SUBTITLETRANSLIT:;
#ARTISTTRANSLIT:;
#GENRE:;
#CREDIT:;
#BANNER:AV.avi;
#BACKGROUND:jacket.jpg;
#LYRICSPATH:;
#CDTITLE:;
#MUSIC:what is love- twice.ogg;
#OFFSET:-0.345000;
#SAMPLESTART:45.060001;
#SAMPLELENGTH:15.000000;
#SELECTABLE:YES;
#BPMS:0.000000=169.979996
,126.000000=84.989998
,127.000000=169.979996
,287.000000=84.989998
,319.000000=169.979996
;
#STOPS:
;
#BGCHANGES:0.000=MV.avi=1.200=0=0=1=====,
6.000=MV.avi=1.000=0=0=1=====,
99999=-nosongbg-=1.000=0=0=0 // don't automatically add -songbackground-
;
#KEYSOUNDS:;
#ATTACKS:;

//---------------dance-single - ----------------
#NOTES:
     dance-single:
     :
     Challenge:
     15:
     1.003414,1.507699,1.791061,1.456908,0.340836,1051.000000,783.000000,268.000000,218.000000,0.000000,36.000000,1.003414,1.507699,1.791061,1.456908,0.340836,1051.000000,783.000000,268.000000,218.000000,0.000000,36.000000:
2000
3001
2000
3010
0200
1300
0001
0020
,
1030
0020
0031
0200
1300
0100
0020
2030
,
3002
0013
0002
0103
2000
3100
0001
0020
,
0031
0020
0130
2000
3001
0020
0230
2300
,
3002
0013
0002
1003
0020
0130
0001
2000
,
3200
2302
3013
0202
1303
0010
0100
0001
,
0020
0000
2000
3001
0200
0300
0001
0000
,
0230
0320
0032
0203
,
1310
0100
1001
0010
0001
1100
0011
0100
,
1001
0010
0101
1000
0000
1010
0101
0010
,
1001
0100
1010
0001
0000
1001
0110
0001
,
1100
0010
1001
0100
0000
1010
0101
1000
,
0110
0001
1010
0001
0000
0101
1010
0002
,
0100
0000
1000
0023
0000
0001
0100
0001
,
1000
0100
1000
0031
0000
0110
1001
0000
,
0120
0001
2031
0100
3020
0100
1032
0000
,
0113
0000
1001
0100
0001
0110
1001
0100
,
1010
0001
0110
1000
0000
0110
1001
0100
,
0011
0100
1010
0001
0000
0110
1001
0010
,
1100
0000
1001
0100
0000
1100
0011
1000
,
0101
0010
1001
0100
0000
1001
0110
0002
,
1000
0000
0100
0023
0000
0001
1000
0100
,
1000
0000
0101
0030
1000
0110
1001
0000
,
0010
0100
1000
0001
0010
0100
0001
1000
0010
1000
0100
0010
,
1001
0000
0000
0000
0200
0000
0301
0010
1100
0000
0000
0000
0010
0000
1000
0000
,
0010
0000
1001
0000
0100
0000
0010
0000
1001
0000
0000
0000
0010
0000
1000
0100
,
0011
0000
1000
0000
0010
0000
0100
0010
1001
0000
0010
0000
1001
0000
0100
0000
,
0001
0120
1000
0030
1002
0000
0203
0000
,
0320
0000
0001
1000
0001
0000
1000
0000
0100
0000
0001
1000
0001
0000
0100
0000
,
0001
0100
1000
0000
0100
0000
0001
0100
1000
0000
0100
0000
0001
0000
0100
0000
,
1030
0000
0000
0100
0000
0000
0010
0000
0000
0001
0000
0000
0100
0000
0000
0010
0000
0000
0001
0000
0000
0010
0000
0000
0100
0000
0000
1000
0000
0000
0100
0000
0000
0010
0001
0000
0010
0000
0100
0000
1000
0000
0100
0000
0010
0000
0001
0000
,
2000
0000
0000
0000
3000
0000
0000
0000
1000
0100
0010
0001
1010
0000
0001
0000
,
0200
0310
0002
1103
0011
1000
0120
0030
,
1002
0000
0013
0100
1000
0000
0011
0000
2100
0000
3001
0000
0110
0000
1000
0000
,
0102
0013
0200
1301
0110
1000
0012
0003
,
1200
0300
0010
0101
0020
0130
2000
3100
,
0020
0031
0200
1300
0002
0013
2000
3002
,
0010
0000
0203
0010
1000
0000
0311
0000
1001
0000
0100
0000
0012
0000
0000
0000
,
2103
0000
3020
0100
1032
0000
1023
0100
,
2031
0010
3000
0110
2001
3000
0102
1003
,
0020
0130
2000
3011
1100
0001
0210
0300
,
2001
0000
3100
0010
0001
0000
1100
0000
0012
0000
1003
0000
0110
0000
0001
0000
,
2010
3100
0020
1031
0110
0001
2100
3000
,
0021
0030
0100
1010
0201
0310
2000
3001
,
0020
0130
0002
1003
0200
0310
0002
2003
,
0100
0000
3020
0100
0001
0000
1130
0000
1001
0000
0010
0000
2000
0000
0100
0000
,
3002
0010
2003
0100
3020
0001
0230
1000
,
0302
0100
0023
1000
0130
1000
0020
0100
,
1031
0100
0010
0101
1010
0100
1001
0100
,
0011
0000
0001
0110
1001
0100
0011
0100
,
1001
0010
0100
1001
1010
0100
1001
0010
,
1100
0000
1000
0110
1001
0000
0011
0000
,
1100
0010
0100
1010
0101
0010
0101
0010
,
1001
0000
0001
0110
1001
0100
1010
0100
,
1001
0100
1000
0011
1100
0001
0110
0110
,
1001
0110
0001
0110
1001
0100
0101
1000
,
0110
0001
0100
1001
0110
0000
1001
0010
,
0101
0000
0010
1001
0110
1000
0011
0100
,
1010
0000
0100
1001
0110
0001
1010
0001
,
0110
0000
0100
1001
1010
0100
1010
0001
,
1100
0010
1000
0101
1010
0001
1010
0100
,
0011
0100
0001
1010
0101
0010
1001
0010
,
0101
0000
0000
0000
0100
0000
1010
0000
0101
0000
1000
0000
0011
0000
0100
1000
,
0001
0100
0010
1000
0011
0100
1002
0000
,
0203
0000
1000
0010
0302
0000
0000
0000
2003
0000
0000
0000
0100
0000
0010
0000
,
3001
0100
0001
0100
0010
1000
0102
0000
,
2003
0000
0100
0001
3020
0000
0000
0000
0230
0000
0000
0000
0010
0000
0001
0000
,
1300
0000
0010
0000
0001
0000
0010
0000
1000
0000
0100
0000
0011
0000
1000
0100
,
1010
0100
1001
0010
0101
0010
1100
0001
,
1010
0100
0011
1000
0110
0001
1100
0011
,
1100
0000
0011
0000
1100
0000
0011
0000
1100
0011
1100
0011
1200
0000
0000
0000
,
0300
0000
0000
0000
1000
0000
0100
0000
0010
0000
0001
0000
0200
1300
0000
0010
,
0002
1003
0200
0310
2000
3001
0200
0300
0020
0130
0002
1003
0020
1030
0002
0103
,
2000
3010
0002
0013
2000
3100
0020
0030
0002
1003
0200
0310
2002
3003
0202
0303
,
2020
3030
0202
0303
2020
3230
0302
0023
0230
0301
2000
3100
0022
0030
2203
0300
,
3022
0000
0030
0000
0223
0000
0030
0000
2302
0000
0003
0000
3200
0000
0300
0000
2000
0000
3100
0000
0020
0000
0130
0000
1001
0000
0010
0000
0200
0000
0301
1000
,
0120
0000
0030
0000
0100
0000
1000
0000
0002
0000
0113
0000
1002
0000
0003
0000
1200
0000
0301
0000
0020
0000
1030
0001
0110
0000
0001
0000
2000
0000
3100
0010
,
1002
0000
0013
0000
1200
0000
0301
0000
2000
0000
3110
0000
1002
0000
0003
0000
0120
0000
1030
0000
0200
0000
0310
0000
1002
0000
0003
0000
0200
0000
0310
1000
,
0021
0000
0030
0000
2000
0000
3000
0000
0002
0000
0113
0000
2000
0000
3010
0000
0102
0000
1003
0000
0020
0000
1030
0100
0011
0000
0100
0000
1010
0000
0100
0000
,
1001
0000
0010
0000
0101
0000
0010
0000
1100
0000
0011
0000
1100
0000
0011
0000
0100
1000
0100
0010
0001
0000
0100
0000
1002
0000
0000
0000
0103
0000
0000
0000
,
0021
1030
0002
1103
0011
0000
0021
0030
,
1200
0000
0301
0010
0100
0000
1001
0000
0210
0000
0301
0000
0110
0000
1000
0000
,
0012
0103
2000
3011
1200
0301
0120
0030
,
1002
0103
1000
0011
2100
3001
0120
1030
,
0002
1003
0020
0130
2000
3001
1200
0301
,
2010
3002
0000
0113
1020
0031
1100
0010
,
0102
0000
0000
0003
0000
0000
2000
0000
0000
3110
0000
0000
1002
0000
0000
0103
0000
0000
1000
0000
0010
0000
0100
0000
,
0010
0000
0001
0000
1000
0000
0010
0000
0001
0000
1000
0000
0100
0000
0001
0000
1000
0000
0201
0000
0000
0310
0000
0000
,
1002
0013
0200
1310
0101
0000
0002
0103
,
2010
0000
3001
0010
0100
0000
1010
0000
0201
0000
0310
0000
1100
0000
0001
0000
,
0210
1300
0020
0131
2010
3000
1002
0013
,
0201
1300
0000
0101
1020
0130
1002
0013
,
0200
1300
0002
0013
2000
3001
0210
1300
,
0021
0230
0000
1301
0012
0103
1010
0000
,
0201
0000
1300
0000
0020
0000
1031
0000
0210
0000
0300
0000
2001
0000
3100
0010
,
0001
0100
1000
0110
1001
0200
0010
0000
,
0300
0000
0000
0000
;

//---------------dance-single - Copied from----------------
#NOTES:
     dance-single:
     Copied from:
     Hard:
     11:
     0.487864,0.641574,0.247273,0.080197,0.000000,511.000000,474.000000,37.000000,12.000000,0.000000,0.000000,0.487864,0.641574,0.247273,0.080197,0.000000,511.000000,474.000000,37.000000,12.000000,0.000000,0.000000:
// measure 0
0000
0000
0000
0000
,  // measure 1
0000
0000
0000
0000
,  // measure 2
0000
0000
0000
0000
,  // measure 3
0000
0000
0000
0000
,  // measure 4
0000
0000
0000
0000
,  // measure 5
0000
0000
0000
0000
,  // measure 6
0000
0000
0000
0000
,  // measure 7
0000
0000
0000
0000
,  // measure 8
1000
0001
1000
0010
1000
0001
1000
0000
,  // measure 9
0010
1000
0001
1000
,  // measure 10
0001
1000
0001
0000
0010
0000
0001
0010
,  // measure 11
0001
1000
0010
0100
0001
1000
0010
1000
,  // measure 12
0001
0000
1000
0000
0010
0000
1000
0001
,  // measure 13
2000
0010
0001
3010
,  // measure 14
0001
0100
0010
1000
,  // measure 15
0001
0001
0001
1000
,  // measure 16
0010
1000
0001
1000
0010
0000
0001
0000
,  // measure 17
0100
0010
0100
0010
,  // measure 18
1000
0010
1000
0000
0001
0000
0100
0000
,  // measure 19
0001
1000
0001
0000
1000
0010
1000
0000
,  // measure 20
0001
0010
0001
1000
,  // measure 21
0010
0001
0010
1000
,  // measure 22
0010
0010
0100
0100
,  // measure 23
1000
1000
0001
0001
,  // measure 24
1000
0000
0020
0000
1030
0000
0001
1000
,  // measure 25
0001
1000
0001
1000
0000
0000
0010
1000
,  // measure 26
0100
1000
0010
1000
0100
1000
0010
1000
,  // measure 27
0000
0020
0000
0000
1030
0000
0001
0000
,  // measure 28
2000
0010
0100
0010
,  // measure 29
0001
0010
0100
0010
,  // measure 30
3002
1000
0010
1000
,  // measure 31
0100
0003
0000
0000
0010
0000
0001
1000
,  // measure 32
0010
1000
0001
1000
0100
1000
0010
0000
,  // measure 33
2000
0000
0001
0000
3010
0000
0001
0010
,  // measure 34
0001
1000
0010
0100
0001
1000
0010
0000
,  // measure 35
2000
0000
0001
0000
3010
1000
0001
0000
,  // measure 36
0100
0000
0001
0000
0100
0000
1000
0010
,  // measure 37
0000
0200
0000
0310
1000
0001
0010
0000
,  // measure 38
0010
0000
0001
0000
0001
0000
1000
0010
,  // measure 39
1000
0010
0000
0010
1000
0000
1000
0100
,  // measure 40
0010
0001
1000
0010
0100
0001
1000
0000
,  // measure 41
0200
0000
0001
0000
0310
0000
1000
0010
,  // measure 42
0100
0001
1000
0100
0010
0001
1000
0000
,  // measure 43
0020
0000
0100
0000
0031
1000
0010
0000
,  // measure 44
0100
0000
0010
0000
0100
0000
1000
0001
,  // measure 45
0000
0100
0000
1000
0010
0100
0001
0000
,  // measure 46
0001
1000
1000
0010
,  // measure 47
0010
0000
1000
0000
1000
0010
1000
0001
,  // measure 48
0010
0100
1000
0001
0100
0010
1000
0001
,  // measure 49
0010
0000
0001
0000
0001
0010
0001
0000
,  // measure 50
1000
0010
1000
0000
0010
0100
0010
1000
,  // measure 51
0010
0100
0101
1010
,  // measure 52
0010
1000
0010
0001
1000
0001
1000
0010
,  // measure 53
1000
0000
0001
0000
1000
0100
0010
0001
,  // measure 54
0010
0100
1000
0100
0010
0001
0100
0001
,  // measure 55
0010
0000
0100
0000
0010
0010
0010
1000
,  // measure 56
0001
1000
0010
0100
0001
0000
1000
0000
,  // measure 57
0101
0000
1001
0000
1000
0000
0001
1000
,  // measure 58
0001
0000
1000
0000
0010
0100
0001
1000
,  // measure 59
0010
0000
1000
0000
1000
0010
0001
0010
,  // measure 60
1000
0010
0001
0010
1000
0010
0001
0010
,  // measure 61
1000
0010
0000
0001
1000
0100
1000
0001
,  // measure 62
1000
0000
0010
1000
0001
0010
0100
1000
,  // measure 63
0001
0100
0000
0010
1000
0000
0001
0000
,  // measure 64
0001
1000
1000
1001
,  // measure 65
0010
0100
0001
0100
0010
1000
1001
0000
,  // measure 66
0010
0100
0010
1001
,  // measure 67
0001
0010
0100
0000
0100
0010
1001
0000
,  // measure 68
1000
1010
0010
0110
,  // measure 69
0100
0000
1001
0000
0100
0000
0001
1000
,  // measure 70
0001
1000
0001
1000
0002
0000
1003
0000
,  // measure 71
0000
0000
0000
0000
0000
0000
0010
1000
,  // measure 72
0001
0100
0010
0100
0001
1000
0001
1000
,  // measure 73
0010
0100
0010
1000
0001
0010
0100
0001
,  // measure 74
0100
0001
0100
0100
0001
1000
0100
1000
,  // measure 75
0010
0100
0001
1000
0001
0010
1001
0001
,  // measure 76
1000
0001
0100
0010
0100
0001
1001
1000
,  // measure 77
0010
0100
0010
0100
0100
0001
1010
0001
,  // measure 78
1000
0010
0100
0001
1000
0100
0011
0100
,  // measure 79
1001
0010
0001
0001
0010
1000
0010
0000
,  // measure 80
1000
1010
0001
0010
,  // measure 81
0101
0100
1000
0010
,  // measure 82
1000
1001
0010
0100
,  // measure 83
0011
0010
1000
1000
,  // measure 84
0001
1001
1000
0010
,  // measure 85
0110
0001
1000
0001
,  // measure 86
0010
0001
1000
1010
,  // measure 87
0101
1010
0101
0010
,  // measure 88
1000
1010
0001
0010
,  // measure 89
0011
0100
0110
0001
,  // measure 90
1000
1001
0010
0100
,  // measure 91
0011
0001
1001
0010
,  // measure 92
0100
0110
0001
1000
,  // measure 93
0101
0001
1010
1000
,  // measure 94
0001
0101
1000
0001
,  // measure 95
1001
0000
0010
1000
0010
2000
0000
0000
,  // measure 96
3000
0000
0000
0000
;

//---------------dance-single - Copied from----------------
#NOTES:
     dance-single:
     Copied from:
     Medium:
     8:
     0.298828,0.351028,0.006683,0.053464,0.000000,313.000000,312.000000,1.000000,8.000000,0.000000,0.000000,0.298828,0.351028,0.006683,0.053464,0.000000,313.000000,312.000000,1.000000,8.000000,0.000000,0.000000:
0000
0000
0000
0000
,
0000
0000
0000
0000
,
0000
0000
0000
0000
,
0000
0000
0000
0000
,
0000
0000
0000
0000
,
0000
0000
0000
0000
,
0000
0000
0000
0000
,
0000
0000
0000
0000
,
0001
1000
0010
1000
,
0001
0001
0001
0010
,
0001
0001
0001
1000
,
0010
0100
0001
0010
,
1000
0010
0001
0010
,
0001
0100
0010
1000
,
0001
0001
1000
1000
,
0010
0010
0010
0010
,
1000
0001
1000
0010
,
0001
1000
0100
0001
,
1000
0001
1000
0000
0010
0000
0001
1000
,
0001
1000
0010
1000
,
0001
0100
0010
1000
,
0001
0010
0001
1000
,
0010
0010
1000
1000
,
0100
0100
0010
0010
,
0000
0001
0000
0010
,
0010
0010
0000
1000
,
1000
0010
0010
1000
,
0001
1000
0010
1000
,
0001
0001
1000
1000
,
0010
0010
0100
0100
,
0001
0001
0001
0001
,
0001
0000
0000
1000
,
0010
1000
0010
1000
,
1000
0010
0010
1000
,
0001
1000
0001
1000
,
1000
0001
0001
1000
,
1000
1000
1000
0010
,
0000
0000
0000
0001
,
0001
1000
1000
0010
,
0010
1000
0000
0010
,
1000
0001
1000
0010
,
0100
0100
0010
1000
,
1000
0001
0001
1000
,
0010
0100
0010
1000
,
0001
1000
0001
1000
,
0010
0100
0001
1000
,
1000
0100
0100
1000
,
0010
1000
0001
1000
,
1000
0010
0010
0100
,
0100
0001
1000
0001
,
0001
1000
1000
0010
,
0010
1000
0001
0100
,
0100
0010
0010
1000
,
1000
0001
0001
1000
,
0010
1000
0001
0100
,
0010
0100
0010
0010
,
1000
0001
1000
0000
,
0010
1000
0001
0100
,
0100
0010
0010
1000
,
0010
1000
0001
0010
,
0010
0001
0001
1000
,
1000
0010
1000
0100
,
0100
1000
1000
0010
,
0010
1000
0001
2000
,
0000
3010
0000
0002
,
0000
0013
0000
0020
,
0000
0130
0000
2000
,
0000
3001
0000
0010
,
0010
0010
0010
0010
,
0010
0010
0010
1000
,
0001
1000
0001
1000
,
0000
0000
0000
2000
,
0000
0000
0000
3200
,
0000
0000
0000
2300
,
0000
0000
0000
3002
,
0000
0000
0000
1003
,
0010
1000
0010
0100
,
0001
0100
0001
1000
,
0010
1000
0010
0100
,
0100
0001
0001
1000
,
0001
1000
0000
0010
,
1000
0010
1000
0010
,
0100
0010
0000
0001
,
1000
0001
1000
0010
,
0100
0010
0000
1000
,
0010
1000
0001
1000
,
0100
0010
0000
0001
,
0001
1000
1000
0010
,
0100
0010
0100
0001
,
0100
0010
0000
0001
,
1000
0010
1000
0001
,
1000
0100
0000
0001
,
1000
0001
1000
0001
,
0001
1000
0000
0010
,
0100
0010
0000
0001
,
1000
0001
1001
0000
;

//---------------dance-single - ----------------
#NOTES:
     dance-single:
     :
     Easy:
     4:
     0.174714,0.223966,0.020049,0.053464,0.000000,183.000000,180.000000,3.000000,8.000000,0.000000,0.000000,0.174714,0.223966,0.020049,0.053464,0.000000,183.000000,180.000000,3.000000,8.000000,0.000000,0.000000:
0000
0000
0000
0000
,
0000
0000
0000
0000
,
0000
0000
0000
0000
,
0000
0000
0000
0000
,
0000
0000
0000
0000
,
0000
0000
0000
0000
,
0000
0000
0000
0000
,
0000
0000
0000
0000
,
1000
0000
1000
0000
,
0001
1000
0001
0000
,
0010
1000
0010
0000
,
0001
1000
0001
0000
,
0010
0000
0010
0000
,
1000
0000
1000
0000
,
0001
1000
0001
0000
,
0100
0010
0100
0000
,
1000
0000
1000
0000
,
0001
1000
0001
0000
,
0010
0000
0100
0000
,
0010
0100
0010
0000
,
1000
0000
1000
0000
,
0001
0000
0001
0000
,
1000
0001
1000
0000
,
0010
0100
0010
0000
,
1000
0000
1000
0000
,
0100
0000
0100
0000
,
0010
0000
0010
0000
,
0001
0000
0001
0000
,
1000
0000
0001
0000
,
1000
0000
0001
0000
,
0100
0000
0100
0000
,
0010
0000
0000
1000
,
0000
1000
0000
0001
,
0000
0001
0000
1000
,
0000
1000
0000
0010
,
0000
0010
0000
1000
,
0000
1000
0000
0002
,
0000
0000
0000
1003
,
0000
0010
0000
1000
,
0000
0010
0000
1000
,
0000
1000
0000
0001
,
0000
0001
0000
0010
,
0000
0010
0000
0100
,
0000
0100
0000
1000
,
0000
1000
0000
0002
,
0000
0000
0000
1003
,
0000
1000
0000
0010
,
0000
0010
0000
1000
,
0000
1000
0000
0001
,
0000
0001
0000
0100
,
0000
0100
0000
0010
,
0000
0010
0000
1000
,
0000
0001
0000
1000
,
0000
1000
0000
0010
,
0000
0100
0000
0010
,
0000
0010
0000
1000
,
0000
1000
0000
0001
,
0000
0001
0000
1000
,
0000
0010
0000
1000
,
0000
1000
0000
0001
,
0000
0001
0000
1000
,
0000
1000
0000
0010
,
0000
0010
0000
0100
,
0000
0100
0000
0002
,
0000
0000
0000
1003
,
0000
0000
0000
2000
,
0000
0000
0000
3010
,
0000
0000
0000
0020
,
0000
0100
0000
1000
,
0000
0100
0000
1030
,
0000
0000
0000
0001
,
0000
0000
0000
1001
,
0000
0010
0000
1000
,
0000
0010
0000
0002
,
0000
1003
0000
1000
,
0000
0010
0000
1010
,
0000
0001
0000
1000
,
0000
0010
0000
1000
,
0000
0001
0000
0010
,
0000
0010
0000
1001
,
0000
0010
0000
1000
,
0000
0010
0000
1000
,
0001
1000
0000
0010
,
0000
0100
0000
0001
,
0000
0001
0000
1000
,
0000
1000
0000
0010
,
1000
0010
0000
0010
,
0100
0010
0000
1000
,
0000
1000
0000
0001
,
0000
0001
0000
1000
,
0010
1000
0000
0010
,
0000
0010
0000
0100
,
0000
0100
0000
0002
,
0000
1003
0000
0010
,
0000
0010
0000
1000
,
0000
2000
0000
3000
;

//---------------dance-single - Copied from----------------
#NOTES:
     dance-single:
     Copied from:
     Beginner:
     1:
     0.052510,0.127981,0.033415,0.000000,0.000000,55.000000,50.000000,5.000000,0.000000,0.000000,0.000000,0.052510,0.127981,0.033415,0.000000,0.000000,55.000000,50.000000,5.000000,0.000000,0.000000,0.000000:
0000
0000
0000
0000
,
0000
0000
0000
0000
,
0000
0000
0000
0000
,
0000
0000
0000
0000
,
0000
0000
0000
0000
,
0000
0000
0000
0000
,
0000
0000
0000
0000
,
0000
0000
0000
0000
,
1000
0000
0000
0000
,
0000
0000
0000
0000
,
0001
0000
0000
0000
,
0000
0000
0000
0000
,
0010
0000
0000
0000
,
0000
0000
0000
0000
,
1000
0000
0000
0000
,
0000
0000
0000
0000
,
0010
0000
0000
0000
,
0000
0000
0000
0000
,
0001
0000
0000
0000
,
0000
0000
0000
0000
,
1000
0000
0000
0000
,
0000
0000
0000
0000
,
0010
0000
0000
0000
,
0000
0000
0000
0000
,
1001
0000
0000
0000
,
0000
0000
0000
0000
,
0110
0000
0000
0000
,
0000
0000
0000
0000
,
1100
0000
0000
0000
,
0000
0000
0000
0000
,
1001
0000
0000
0000
,
0000
0000
0000
0001
,
0000
0000
0000
0000
,
0000
0000
0000
1000
,
0000
0000
0000
0000
,
0000
0000
0000
0100
,
0000
0000
0000
0000
,
0000
0000
0000
0001
,
0000
0000
0000
0000
,
0000
0000
0000
1000
,
0000
0000
0000
0000
,
0000
0000
0000
0001
,
0000
0000
0000
0000
,
0000
0000
0000
1000
,
0000
0000
0000
0000
,
0000
0000
0000
0010
,
0000
0000
0000
0000
,
0000
0000
0000
0100
,
0000
0000
0000
0000
,
0000
0000
0000
1000
,
0000
0000
0000
0000
,
0000
0000
0000
0001
,
0000
0000
0000
0000
,
0000
0000
0000
1000
,
0000
0000
0000
0000
,
0000
0000
0000
0110
,
0000
0000
0000
0000
,
0000
0000
0000
1000
,
0000
0000
0000
0000
,
0000
0000
0000
0001
,
0000
0000
0000
0000
,
0000
0000
0000
1000
,
0000
0000
0000
0000
,
0000
0000
0000
0001
,
0000
0000
0000
0000
,
0000
0000
0000
1000
,
0000
0000
0000
0000
,
0000
0000
0000
0010
,
0000
0000
0000
0010
,
0000
0000
0000
0010
,
0000
0000
0000
0000
,
0000
0000
0000
1000
,
0000
0000
0000
0001
,
0000
0000
0000
1000
,
0000
0000
0000
0010
,
0000
0000
0000
0001
,
0000
0000
0000
1000
,
0000
0000
0000
0010
,
0000
0000
0000
1000
,
0000
0000
0000
0010
,
0000
0000
0000
0000
,
0000
0000
0000
1000
,
0000
0000
0000
0000
,
0000
0000
0000
0001
,
0000
0000
0000
0000
,
0000
0000
0000
0010
,
0000
0000
0000
0000
,
0000
0000
0000
1000
,
0000
0000
0000
0000
,
0000
0000
0000
0100
,
0000
0000
0000
0000
,
0000
0000
0000
0010
,
0000
0000
0000
0000
,
0000
0000
0000
1000
,
0000
0000
0000
0000
,
0000
0000
0000
0001
;
