#VERSION:0.83;
#TITLE:We Young;
#SUBTITLE:;
#ARTIST:Chanyeol, Sehun;
#TITLETRANSLIT:;
#SUBTITLETRANSLIT:;
#ARTISTTRANSLIT:;
#GENRE:;
#ORIGIN:;
#CREDIT:;
#BANNER:AV.avi;
#BACKGROUND:BG.png;
#PREVIEWVID:;
#JACKET:JACKET.png;
#CDIMAGE:;
#DISCIMAGE:;
#LYRICSPATH:;
#CDTITLE:;
#MUSIC:audio.ogg;
#OFFSET:-0.139000;
#SAMPLESTART:46.047001;
#SAMPLELENGTH:15.000000;
#SELECTABLE:YES;
#DISPLAYBPM:82.000:164.000;
#BPMS:0.000=164.000,
96.000=77.000,
97.500=82.000,
111.500=29.960,
111.625=310.400,
112.000=164.000;
#STOPS:;
#DELAYS:;
#WARPS:;
#TIMESIGNATURES:0.000=4=4;
#TICKCOUNTS:0.000=4;
#COMBOS:0.000=1;
#SPEEDS:0.000=1.000=0.000=0;
#SCROLLS:0.000=1.000;
#FAKES:;
#LABELS:0.000=Song Start;
#BGCHANGES:0.000=MV.avi=1.400=1=0=1===CrossFade==,
5.000=MV.avi=1.000=0=0=1=====,
99999=-nosongbg-=1.000=0=0=0 // don't automatically add -songbackground-
;
#KEYSOUNDS:;
#ATTACKS:
;

//---------------dance-single - ----------------
#NOTEDATA:;
#CHARTNAME:;
#STEPSTYPE:dance-single;
#DESCRIPTION:;
#CHARTSTYLE:;
#DIFFICULTY:Challenge;
#METER:15;
#RADARVALUES:0.739390,1.211915,1.190010,0.847679,0.203769,635.000000,489.000000,146.000000,104.000000,0.000000,62.000000,0.000000,0.000000,0.000000,0.739390,1.211915,1.190010,0.847679,0.203769,635.000000,489.000000,146.000000,104.000000,0.000000,62.000000,0.000000,0.000000,0.000000;
#CREDIT:;
#NOTES:
0010
0000
1000
0000
0110
0000
0002
0003
,
0100
0010
1001
0010
,
0100
0000
0010
0000
1100
0000
0020
0030
,
1000
0000
0001
0000
0101
0000
0010
0002
,
0203
0300
0020
0030
1001
0000
0010
2000
,
3100
0000
0000
0000
0000
0000
0001
0000
0000
0000
0100
0000
1010
0000
0000
0000
0000
0000
0100
0000
0000
0002
0000
0000
,
0023
0030
0200
0300
1001
0000
0020
0030
,
0001
0100
0010
0000
1100
0010
0100
0010
,
1001
0100
0010
1100
0011
0000
2000
3001
,
0100
0000
1010
0000
0001
0100
0010
1001
,
0110
1000
0011
0000
0010
1000
0001
0100
,
0010
0100
1010
0000
1000
0101
0010
0100
,
0011
1000
0101
0020
0230
0300
2000
3020
,
0032
0003
1001
0000
0001
1000
0100
0011
,
1200
0010
0301
1010
0200
1000
0320
0100
,
0001
0100
1001
0100
1000
0132
0023
2030
,
3101
1000
0010
1100
0001
0000
0020
0000
,
0100
0000
1032
0000
0013
0000
1000
0011
,
1100
0010
1001
0010
0100
0000
1000
0000
,
0010
0100
1001
0100
0010
0101
1000
0010
,
0100
0100
0000
0000
1001
0000
0020
0000
,
0100
0000
1032
0103
0010
0000
0100
1001
,
0110
0010
0001
1100
0010
0000
0100
0000
,
0001
1000
0011
0100
0010
1001
0100
0000
,
2001
0010
0100
3010
0100
0000
1000
0001
1020
0001
0100
0030
2000
3020
0230
0000
,
1302
0100
0010
0103
0001
0000
1000
0001
0120
0001
2000
0032
0000
0000
3000
0000
,
0123
1000
0001
0130
0010
1100
0012
1000
0123
0000
0100
1032
1203
0000
1302
0000
,
0123
1000
0031
1000
0210
1000
0321
0000
0132
0000
0000
0100
2013
0100
0010
3000
,
0102
0000
0000
0000
0000
0000
0010
0000
0000
1103
0000
0000
0001
0000
0000
0000
0100
0000
2000
0000
0000
0100
0000
0000
,
0010
0000
0000
0000
0000
0000
0101
0000
0000
0000
0000
0000
3010
0000
0000
0000
0100
0000
0002
0000
0000
0110
0000
0000
,
2103
0000
0000
0000
0000
0000
3120
0000
0000
0000
0000
0000
0032
0000
0000
0003
0100
0000
2000
0000
0000
0100
0000
0000
,
0010
0000
0000
0000
0011
0000
0100
0000
0010
0000
0101
0000
0010
0000
3001
0010
,
1002
0000
0000
0000
0000
0000
1100
0000
0000
0000
0000
0000
0103
0000
0000
0000
0010
0000
2001
0000
0000
0010
0000
0000
,
0100
0000
0000
0000
0000
0000
3011
0000
0000
0000
0000
0000
0020
0000
0000
0000
1000
0000
0130
0000
0000
0011
0000
0000
,
1200
0000
0000
0000
0000
0000
0320
0000
0000
1001
0000
0000
0230
0000
0000
0300
1000
0000
0002
0000
0000
0100
0000
0000
,
0000
0000
1013
0100
2010
0101
3010
0000
,
0210
0000
0000
0000
0000
0000
0010
0000
0000
1301
0000
0000
0010
0000
0000
0000
0001
0000
0100
0000
0000
1000
0000
0000
,
0010
0000
0000
2000
0000
0000
0000
0000
0000
3000
0000
0000
0120
0000
0000
0000
0000
0000
0000
0000
0000
0000
0000
0000
0230
0000
0000
0000
0000
0000
0000
0000
1000
0000
0000
0000
0301
0000
0000
0000
0000
0000
1100
0000
0000
0000
0000
0000
,
0110
0000
0000
2000
0000
0000
0000
0000
0000
3000
0000
0000
0102
0000
0000
0000
0000
0000
0000
0000
0000
0000
0000
0000
0023
0000
0000
0000
0000
0000
0000
0000
0100
0000
0000
0000
1030
0000
0000
0000
0000
0000
0001
0000
0000
0000
0000
0000
,
0010
0200
0000
0300
2001
0000
0010
0000
3200
0000
0011
0000
1300
0000
0000
0000
,
0120
0000
0000
0000
0000
0000
1100
0000
0000
0000
0000
0000
0031
0000
0000
0000
0100
0000
0001
0000
0000
0010
0000
0000
,
0100
0000
0000
0002
0000
0000
0000
0000
0000
0003
0000
0000
0210
0000
0000
0000
0000
0000
0000
0000
0000
0000
0000
0000
0320
0000
0000
0000
0000
0000
0000
0000
0001
0000
0000
0000
1030
0000
0000
0000
0000
0000
0011
0000
0000
0000
0000
0000
,
0110
0000
0000
0002
0000
0000
0000
0000
0000
0003
0000
0000
2000
0000
0000
0000
0000
0000
0011
0000
0000
0000
0000
0000
3200
0000
0000
0000
0000
0000
0000
0000
0010
0000
0000
0000
0301
0000
0000
0000
0000
0000
0010
0000
0000
0000
0000
0000
,
0000
0000
1001
0010
0100
1010
0001
0000
,
1002
0000
0100
1010
0000
0100
0010
1000
,
0010
1000
1203
0300
0010
0000
0020
1100
,
0101
0000
1001
0000
0100
1000
0100
0001
,
1000
0001
1230
0310
0001
1010
0200
0000
,
1010
0011
1000
0020
,
0001
0000
1032
0000
1003
0000
0000
1010
,
0011
1000
0000
0011
0000
1000
0000
0000
,
0010
1000
0011
1000
0000
1001
0010
0000
,
2310
0000
0000
0101
0000
0000
0010
0100
,
0001
0010
3201
0300
0001
0000
0020
1230
,
0321
0000
1032
0000
0010
0003
0100
0001
,
1000
0010
1100
0000
0020
1001
0000
0230
,
0011
0000
0011
0300
1000
0000
0100
0010
,
1000
0100
1010
0001
0100
0010
1000
0011
,
1100
0000
1000
0011
0100
0000
1000
0001
,
0200
0000
0011
1000
0001
0011
1000
0302
,
1000
0000
0000
0000
0000
0000
0100
0000
0000
0003
0000
0000
1010
0000
0000
0000
0001
0000
0100
0000
0000
1000
0000
0000
,
0010
0000
0000
0000
0000
0000
0100
0000
0000
0000
0000
0000
1001
0000
0000
0200
0001
0000
0320
0000
0000
0032
0000
0000
,
1000
0000
0000
0000
0000
0000
0203
0000
0000
0000
0000
0000
0011
0000
0000
0300
1000
0000
0010
0000
0000
0001
0000
0000
,
0100
0002
0010
0100
1010
0100
1000
0023
,
0100
0000
0000
0000
0000
0000
0100
0000
0000
0030
0000
0000
1100
0000
0000
0000
0010
0000
0100
0000
0000
0010
0000
0000
,
1000
0000
0000
0000
0000
0000
0010
0000
0000
0000
0000
0000
1001
0000
0000
0000
0010
0000
0200
0000
0000
0001
0000
0000
,
1000
0000
0000
0000
0001
0000
0310
0000
0000
0001
0000
0000
1100
0000
0000
0000
0010
0000
1000
0000
0000
0001
0000
0000
,
0100
0000
0010
0000
1010
0000
0001
0100
,
0011
0000
1000
0101
1000
0000
0001
0100
,
0000
0010
0101
1000
0010
0000
0001
1100
,
0011
0000
1100
0000
0010
0000
0001
1000
,
0000
0010
1001
0100
0001
1100
0010
0000
,
2001
0110
0001
0010
,
0100
0000
0000
0001
0000
0000
3000
0000
0000
0000
0000
0000
0101
0000
0000
0000
0000
0000
0000
0000
0000
0000
0000
0000
0001
0000
0000
0000
0000
0000
0000
0000
0100
0000
0000
0000
0010
0000
0000
0000
0000
0000
1100
0000
0000
0000
0000
0000
,
0110
0000
0000
1000
0000
0000
0001
0000
0000
0000
0000
0000
0100
0000
0000
0000
0000
0000
1001
0000
0000
0000
0000
0000
0010
0000
0000
0000
0000
0000
0000
0000
0010
0000
0000
0000
0100
0000
0000
0000
0000
0000
1000
0000
0000
0000
0000
0000
,
0001
0000
0110
1000
0010
1001
0010
0000
,
2000
3000
0000
0000
;

//---------------dance-single - ----------------
#NOTEDATA:;
#CHARTNAME:;
#STEPSTYPE:dance-single;
#DESCRIPTION:;
#CHARTSTYLE:;
#DIFFICULTY:Hard;
#METER:9;
#RADARVALUES:0.337674,0.372897,0.179317,0.301578,0.028528,290.000000,268.000000,22.000000,37.000000,0.000000,0.000000,0.000000,0.000000,0.000000,0.337674,0.372897,0.179317,0.301578,0.028528,290.000000,268.000000,22.000000,37.000000,0.000000,0.000000,0.000000,0.000000,0.000000;
#CREDIT:;
#NOTES:
0000
0000
0000
0000
,
0000
0000
0000
0000
,
0000
0000
0000
0000
,
0000
0000
0000
0000
,
0000
0000
0000
0000
,
0000
0000
0000
0000
,
0000
0000
0000
0000
,
1000
0100
1000
0001
,
1001
0010
0100
0010
,
0100
0001
0010
0001
,
1000
1000
0010
0100
,
0001
0001
1000
0001
,
0100
0010
1000
0001
,
0020
0001
0031
1000
,
0010
0100
0001
1000
,
0010
1000
0001
0100
,
0010
0010
1000
0001
,
0020
0100
0130
0001
,
1000
0010
0100
0100
,
0010
1000
0001
0001
,
0010
0000
0011
0001
,
1000
0010
0100
0010
,
1000
1000
0001
0001
,
1000
0010
1000
1000
,
0020
0130
2002
3003
,
0002
0013
0022
0033
,
2000
3001
2020
3030
,
1010
0010
1010
0000
,
1001
0000
0010
0000
0100
0000
0001
0100
,
0001
0000
1000
0000
0001
0000
1000
0001
,
1000
0000
0010
0000
1000
0000
0010
1000
,
0010
0100
0001
1000
,
0020
0000
0100
0000
1030
0000
0001
1000
,
0001
0000
0010
0000
0001
0000
0010
0001
,
0010
0000
0001
0000
1000
0000
0010
1000
,
0010
0100
0010
1000
,
1001
0010
0100
0001
,
1000
0010
0000
0000
1000
0000
0000
0000
0020
0000
0000
0000
0130
0000
0000
0000
,
0001
0100
0000
0000
0001
0000
0000
0000
2000
0000
0000
0000
3001
0000
0000
0000
,
0010
0100
0000
0000
0001
0000
0000
0000
2000
0000
0000
0000
3010
0000
0000
0000
,
0001
0010
0001
1000
,
0010
0100
0000
0000
0010
0000
0000
0000
0200
0000
0000
0000
0310
0000
0000
0000
,
1000
0001
0000
0000
1000
0000
0000
0000
0002
0000
0000
0000
0013
0000
0000
0000
,
0001
1000
0001
0001
,
1001
0010
0100
0001
,
0100
0001
0100
0000
0010
0000
1000
0000
,
0002
1000
1003
0010
,
0100
0010
0100
0000
0001
0000
1000
0000
,
0020
0100
1030
0001
,
0020
0001
0130
0001
,
1000
0010
1000
0001
,
0100
0010
1000
0001
,
0020
0001
0130
0001
,
1000
0001
1000
0000
0010
0000
0100
0000
,
0002
1000
0013
0010
,
1000
0010
1000
0000
0001
0000
0100
0000
,
0020
1000
0130
0001
,
1000
1000
0001
0001
,
0010
0010
0001
0001
,
0022
0000
0000
0000
0000
0033
0000
0000
,
2001
0000
3001
0000
,
0120
0000
0130
0000
,
0012
0000
0013
0000
,
2010
0000
3010
0000
,
0210
0000
0310
0000
,
0012
0000
0013
0000
,
2001
0000
3001
0000
,
0120
0000
0130
0000
,
1000
0001
1000
0010
,
0100
0010
0110
0000
,
0001
1000
0001
0010
,
0001
1000
1001
0000
,
0010
0010
1000
0001
,
0001
0010
0000
0000
0010
0000
0000
0000
0002
0000
0000
0000
1003
0000
0000
0000
,
0010
1000
0000
0000
0010
0000
0000
0000
0200
0000
0000
0000
0310
0000
0000
0000
,
0001
0000
0000
0001
1000
0000
0001
0000
,
2002
3003
0000
0000
;

//---------------dance-single - ----------------
#NOTEDATA:;
#CHARTNAME:;
#STEPSTYPE:dance-single;
#DESCRIPTION:;
#CHARTSTYLE:;
#DIFFICULTY:Medium;
#METER:6;
#RADARVALUES:0.227057,0.278756,0.179317,0.228221,0.000000,195.000000,173.000000,22.000000,28.000000,0.000000,0.000000,0.000000,0.000000,0.000000,0.227057,0.278756,0.179317,0.228221,0.000000,195.000000,173.000000,22.000000,28.000000,0.000000,0.000000,0.000000,0.000000,0.000000;
#CREDIT:;
#NOTES:
0000
0000
0000
0000
,
0000
0000
0000
0000
,
0000
0000
0000
0000
,
0000
0000
0000
0000
,
0000
0000
0000
0000
,
0000
0000
0000
0000
,
0000
0000
0000
0000
,
1000
0000
0001
0000
,
1001
0000
0010
0000
,
1000
0001
1000
0000
,
0010
0100
0010
0000
,
0001
0010
0001
0000
,
2000
0000
3001
0000
,
0002
0000
1003
0000
,
0010
0100
0010
0000
,
1000
0010
1000
0000
,
0002
0000
0013
0000
,
2002
0000
3003
0000
,
0010
0000
0010
0000
,
0100
0010
0100
0000
,
0002
0000
1003
0000
,
2002
0000
3003
0000
,
0010
1000
0010
0000
,
0100
0010
0100
0000
,
0001
0000
0001
0000
,
1000
0000
1000
0000
,
0010
0000
0010
0000
,
0100
0000
0100
0000
,
0100
0000
0010
0100
,
0010
0000
0001
1000
,
0001
0000
1000
0100
,
1000
0000
0010
0000
,
1001
0000
0001
0010
,
0001
0000
0001
1000
,
0001
0000
0001
0100
,
0001
0000
1001
0000
,
0010
1000
0010
0000
,
0100
0100
0010
0000
,
0001
0001
1000
0000
,
0100
1000
0100
0000
,
0020
0000
0130
0000
,
1000
1000
0001
0000
,
0010
0100
0010
0000
,
0001
1000
0001
0000
,
2002
0000
0000
0003
3001
0000
0010
0000
,
0100
0010
0100
0000
,
0220
0030
0310
0000
,
0001
1000
0001
0000
,
0022
0003
0031
0000
,
2002
0000
0000
0003
3001
0000
0000
0000
,
0010
0100
0010
0000
,
1000
0001
1000
0000
,
2200
3000
1300
0010
,
0100
0001
0100
0000
,
2002
0003
3001
0000
,
0010
0100
0010
0000
,
0220
0000
0000
0030
0310
0000
0000
0000
,
0001
1000
0001
0010
,
0001
1000
0001
0000
,
0200
0000
0310
0000
,
0210
0000
0310
0000
,
0000
0000
1001
0000
,
0012
0000
0013
0000
,
0000
0000
1001
0000
,
2100
0000
3100
0000
,
0000
0000
0110
0000
,
0120
0000
0130
0000
,
0110
0000
1001
0000
,
0001
1000
0001
0000
,
0010
0010
0001
0000
,
1000
0001
1000
0000
,
0010
0100
0010
0000
,
1000
0001
1000
0000
,
0010
0010
0100
0000
,
0001
0001
1000
0000
,
0001
0000
1000
0000
,
1001
0000
0000
0000
;

//---------------dance-single - ----------------
#NOTEDATA:;
#CHARTNAME:;
#STEPSTYPE:dance-single;
#DESCRIPTION:;
#CHARTSTYLE:;
#DIFFICULTY:Easy;
#METER:4;
#RADARVALUES:0.133905,0.185837,0.016302,0.114111,0.000000,115.000000,113.000000,2.000000,14.000000,0.000000,0.000000,0.000000,0.000000,0.000000,0.133905,0.185837,0.016302,0.114111,0.000000,115.000000,113.000000,2.000000,14.000000,0.000000,0.000000,0.000000,0.000000,0.000000;
#CREDIT:;
#NOTES:
0000
0000
0000
0000
,
0000
0000
0000
0000
,
0000
0000
0000
0000
,
0000
0000
0000
0000
,
0000
0000
0000
0000
,
0000
0000
0000
0000
,
0000
0000
0000
0000
,
1000
0000
0010
0000
,
2000
0000
0010
0000
,
3001
0000
0000
0000
,
0002
0000
1000
0000
,
0013
0000
0000
0000
,
2000
0000
0000
0000
,
3010
0000
0000
0000
,
0020
0000
0000
0000
,
0130
0000
0000
0000
,
0002
0000
0000
0000
,
0013
0000
0000
0000
,
1000
0000
1000
0000
,
0010
0000
0010
0000
,
0002
0000
0000
0000
,
1003
0000
0000
0000
,
1000
0000
0010
0000
,
1000
0000
1000
0000
,
0001
0000
0000
0000
,
1000
0000
0000
0000
,
0010
0000
0000
0000
,
0100
0000
0000
0000
,
0000
0000
1000
0000
,
0010
1000
0010
0000
,
0000
0000
0010
0000
,
0001
1000
0001
0000
,
0000
0000
0001
0000
,
0001
0010
0001
0000
,
0000
0000
1000
0000
,
0010
1000
0010
0000
,
0000
0000
0001
0000
,
1000
0000
1000
0000
,
0010
0000
0010
0000
,
0100
0000
0100
0000
,
0001
0000
0001
0000
,
1000
0000
1000
0000
,
0010
0000
0010
0000
,
0100
0000
0100
0000
,
0110
0000
0001
0000
,
0001
0000
0001
0000
,
2000
0000
3010
0000
,
0010
0000
0001
0000
,
0200
0000
0301
0000
,
0020
0000
1030
0000
,
1000
0000
0001
0000
,
1000
0000
0001
0000
,
0020
0000
0031
0000
,
0002
0000
1003
0000
,
0010
0000
1000
0000
,
0001
0000
0100
0000
,
0020
0000
1030
0000
,
0001
0000
1000
0000
,
0010
0000
1000
0000
,
0002
0000
0000
0000
,
2000
0000
3003
0000
,
0000
0000
1001
0000
,
0000
0000
0010
0000
,
0000
0000
0010
0000
,
0000
0000
0100
0000
,
0000
0000
0100
0000
,
0000
0000
1000
0000
,
0000
0000
1000
0000
,
0010
0000
0000
0000
,
0010
0000
0010
0000
,
1000
0000
0000
0000
,
1000
0000
1000
0000
,
0001
0000
0001
0000
,
1000
0000
1000
0000
,
0010
0000
0010
0000
,
0100
0000
0100
0000
,
0010
0000
0000
0000
;

//---------------dance-single - ----------------
#NOTEDATA:;
#CHARTNAME:;
#STEPSTYPE:dance-single;
#DESCRIPTION:;
#CHARTSTYLE:;
#DIFFICULTY:Beginner;
#METER:2;
#RADARVALUES:0.064042,0.123891,0.000000,0.163015,0.000000,55.000000,55.000000,0.000000,20.000000,0.000000,0.000000,0.000000,0.000000,0.000000,0.064042,0.123891,0.000000,0.163015,0.000000,55.000000,55.000000,0.000000,20.000000,0.000000,0.000000,0.000000,0.000000,0.000000;
#CREDIT:;
#NOTES:
// measure 0
0000
0000
0000
0000
,  // measure 1
0000
0000
0000
0000
,  // measure 2
0000
0000
0000
0000
,  // measure 3
0000
0000
0000
0000
,  // measure 4
0000
0000
0000
0000
,  // measure 5
0000
0000
0000
0000
,  // measure 6
0000
0000
0000
0000
,  // measure 7
0000
0000
0000
0000
,  // measure 8
1000
0000
0000
0000
,  // measure 9
0000
0000
0000
0000
,  // measure 10
0100
0000
0000
0000
,  // measure 11
0000
0000
0000
0000
,  // measure 12
1000
0000
0000
0000
,  // measure 13
0000
0000
0000
0000
,  // measure 14
1000
0000
0000
0000
,  // measure 15
0000
0000
0000
0000
,  // measure 16
0001
0000
0000
0000
,  // measure 17
0000
0000
0000
0000
,  // measure 18
1000
0000
0000
0000
,  // measure 19
0000
0000
0000
0000
,  // measure 20
0010
0000
0000
0000
,  // measure 21
0000
0000
0000
0000
,  // measure 22
0100
0000
0000
0000
,  // measure 23
0000
0000
0000
0000
,  // measure 24
1000
0000
0000
0000
,  // measure 25
0001
0000
0000
0000
,  // measure 26
0010
0000
0000
0000
,  // measure 27
0100
0000
0000
0000
,  // measure 28
0000
0000
0000
0000
,  // measure 29
1000
0000
0000
0000
,  // measure 30
1000
0000
0000
0000
,  // measure 31
1000
0000
0000
0000
,  // measure 32
2000
3000
0000
0000
,  // measure 33
0001
0000
0000
0000
,  // measure 34
0001
0000
0000
0000
,  // measure 35
0001
0000
0000
0000
,  // measure 36
0002
0000
0003
0000
,  // measure 37
1000
0000
0000
0000
,  // measure 38
1000
0000
0000
0000
,  // measure 39
1000
0000
0000
0000
,  // measure 40
2000
0000
3000
0000
,  // measure 41
0100
0000
0000
0000
,  // measure 42
0100
0000
0000
0000
,  // measure 43
0100
0000
0000
0000
,  // measure 44
0200
0000
0300
0000
,  // measure 45
0000
0000
0010
0000
,  // measure 46
0020
0000
0030
0000
,  // measure 47
0000
0000
0001
0000
,  // measure 48
0002
0000
0003
0000
,  // measure 49
2000
0000
3000
0000
,  // measure 50
0100
0000
0000
0000
,  // measure 51
0100
0000
0000
0000
,  // measure 52
0200
0000
0300
0000
,  // measure 53
0000
0000
0000
0000
,  // measure 54
0020
0000
0030
0000
,  // measure 55
0000
0000
0000
0000
,  // measure 56
2000
0000
3000
0000
,  // measure 57
0000
0000
0000
0000
,  // measure 58
0002
0000
0003
0000
,  // measure 59
0000
0000
0000
0000
,  // measure 60
0020
0000
0030
0000
,  // measure 61
0000
0000
0000
0000
,  // measure 62
2000
0000
3000
0000
,  // measure 63
0000
0000
0000
0000
,  // measure 64
0002
0000
0003
0000
,  // measure 65
0000
0000
0000
0000
,  // measure 66
0020
0000
0030
0000
,  // measure 67
0000
0000
0000
0000
,  // measure 68
1000
0000
1000
0000
,  // measure 69
0002
0000
0003
0000
,  // measure 70
0010
0000
0010
0000
,  // measure 71
0020
0000
0030
0000
,  // measure 72
1000
0000
1000
0000
,  // measure 73
2000
0000
3000
0000
,  // measure 74
0002
0000
0003
0000
,  // measure 75
0020
0000
0000
0000
,  // measure 76
1030
0000
0000
0000
;
