#TITLE:Together;
#SUBTITLE:;
#ARTIST:Sia;
#TITLETRANSLIT:;
#SUBTITLETRANSLIT:;
#ARTISTTRANSLIT:;
#GENRE:;
#CREDIT:;
#BANNER:AV.avi;
#BACKGROUND:bg.png;
#LYRICSPATH:;
#CDTITLE:;
#MUSIC:audio.ogg;
#OFFSET:-0.247000;
#SAMPLESTART:53.588955;
#SAMPLELENGTH:15.000000;
#SELECTABLE:YES;
#BPMS:0.000000=90.055000
,76.000000=45.028000
,78.000000=90.055000
,141.500000=85.044998
,142.000000=90.044998
,173.500000=86.055000
,174.500000=90.055000
;
#STOPS:
;
#BGCHANGES:0.000=MV.avi=1.200=1=0=1===CrossFade==,
3.000=MV.avi=1.000=0=0=1=====,
99999=-nosongbg-=1.000=0=0=0 // don't automatically add -songbackground-
;
#KEYSOUNDS:;
#ATTACKS:;

//---------------dance-single - ----------------
#NOTES:
     dance-single:
     :
     Challenge:
     13:
     0.530510,0.638151,0.252676,1.431831,0.578092,485.000000,452.000000,33.000000,187.000000,0.000000,16.000000,0.530510,0.638151,0.252676,1.431831,0.578092,485.000000,452.000000,33.000000,187.000000,0.000000,16.000000:
0002
0000
0000
0000
,
0023
0000
0000
0000
,
2030
0000
0000
0000
,
3200
0000
0000
0000
0000
0000
0000
0300
,
0200
0000
0300
0000
2000
0000
3000
0000
0020
0000
0000
0032
2003
0000
3002
0000
,
0203
0302
0203
0302
0023
0030
0200
0320
0230
0000
0302
0000
0203
0000
2300
0000
,
3020
0030
0002
0000
0203
0300
0000
0200
0320
0000
0000
0230
0302
0000
0203
0000
,
0302
0003
2000
3200
0320
0030
0000
0020
0230
0300
0002
0000
0023
0000
0230
0000
,
2300
0000
3000
0000
0020
0000
0030
0000
2000
0000
0000
3020
0230
0300
0002
0003
,
0020
2030
3200
0320
0230
0000
0302
0000
0203
0000
2300
0000
3020
0030
0002
0000
,
0003
0000
0200
0000
0320
0000
0030
0000
0002
0000
0000
0203
0302
0003
2000
3000
,
0020
0030
0000
0020
0230
0300
0002
0203
0320
0000
0230
0000
2300
0000
3020
0000
,
0032
0000
0000
1000
0020
0030
0100
0000
0010
0000
0000
1000
0200
0300
0010
0003
,
2000
0000
3200
0010
0302
0000
2003
0000
3200
0000
0302
0000
2003
0000
3020
0000
,
0230
0000
0000
0001
2000
3000
0010
0000
1000
0000
0000
0010
2000
3000
0301
0000
,
0002
0000
0023
0100
2030
0000
3002
0000
0023
0000
2030
0000
3002
0000
0203
0000
,
0320
0000
0000
1000
0002
0003
0100
0000
0001
0000
0000
0100
0002
0003
1030
0000
,
2000
0000
3200
0010
0302
0000
2003
0000
3200
0000
0302
0000
2003
0000
3020
0000
,
0230
0000
0000
0001
2000
3000
0010
0000
1000
0000
0000
0010
2000
3000
0001
0300
,
0020
0000
0230
0302
0000
0000
0000
0000
0023
0000
0230
0000
1302
0000
0023
0230
,
0320
0000
0032
0000
0123
0000
0230
0000
0301
0000
2000
0000
3012
0000
0203
0320
,
0230
0000
0000
0000
0000
0000
0302
0000
0000
0003
0000
0000
0010
0000
0100
0000
1000
0000
0001
0000
0010
0000
0100
0000
2000
0000
0000
0000
0000
0000
3000
0000
0000
0100
0000
0000
0011
0000
0000
0100
0000
0000
0000
0000
0000
0000
0000
0000
,
0001
0010
0001
0010
1200
0000
0302
0000
2003
0000
3000
0200
0311
0200
0000
0300
,
0001
0000
0000
0010
0000
0000
0001
0000
0000
0010
0000
0000
0200
0000
0000
0000
0000
0000
1300
0000
0100
0000
0010
0000
0001
0000
0000
0000
0000
0000
0002
0000
0000
0000
0000
0000
0213
0000
0000
0000
0000
0000
0310
0000
0000
1000
0000
0000
,
0010
0000
0200
0000
0312
0000
0023
0000
0130
0000
0002
0000
0123
0030
1000
0001
,
1000
0000
0010
0100
0012
0000
0023
0000
2030
0000
3000
0100
0011
0100
0000
0000
,
0010
1000
0100
0010
0102
0000
0203
0000
0310
0000
0000
0002
0123
0032
0000
0003
,
1000
0000
0000
0100
0000
0000
1000
0000
0000
0100
0000
0000
0020
0000
0000
0000
0000
0000
1030
0000
0100
0000
0010
0000
0001
0000
0000
0100
0000
0000
0010
0000
0000
0001
0000
0000
0010
0000
0000
0100
0000
0000
1000
0000
0000
0100
0000
0000
,
0010
0000
0000
0010
0000
0010
0000
0100
0010
0001
0010
0100
1000
0100
0010
0001
,
0010
0100
0000
0010
0000
0010
0000
0100
0010
0001
0010
0100
1000
0100
0010
0001
,
0010
0100
1000
0100
0000
0100
0000
0100
0010
0001
0010
0100
1000
0100
0010
0001
,
0010
0100
1000
0100
0000
0100
0000
0100
0011
0100
1000
0100
0010
0100
0010
0100
,
0001
0100
0010
1000
0001
0000
0001
0000
1000
0100
0010
0001
0010
0100
1000
0100
,
1000
0000
0000
0100
0000
0000
0010
0000
0000
0001
0000
0000
0010
0000
0000
0000
0000
0000
0100
0000
0010
0000
0001
0000
0010
0000
0000
0100
0000
0000
1000
0000
0000
0100
0000
0000
0010
0000
0000
0001
0000
0000
0010
0000
0000
0100
0000
0000
,
1000
0100
0010
0001
1000
0000
1000
0000
0001
0010
0100
1000
0100
0010
0001
0010
,
0100
0000
1000
0000
0001
0000
0100
0000
0010
0000
1000
0000
0100
0000
0010
0000
0001
0000
0010
0000
0100
0000
1000
0000
0020
0000
0000
0000
0000
0000
0230
0000
0000
0000
0000
0000
1302
0000
0000
0000
0000
0000
0023
0000
0000
0230
0000
0000
,
0320
0000
0032
0000
0123
0000
0230
0000
0301
0000
2000
0000
3012
0000
0203
0320
,
0230
0000
0000
0000
0000
0000
0302
0000
0000
0003
0000
0000
0010
0000
0100
0000
1000
0000
0001
0000
0010
0000
0100
0000
2000
0000
0000
0000
0000
0000
3000
0000
0000
0100
0000
0000
0011
0000
0000
0100
0000
0000
0000
0000
0000
0000
0000
0000
,
0001
0010
0001
0010
1200
0000
0302
0000
2003
0000
3000
0200
0311
0200
0000
0300
,
0001
0000
0000
0010
0000
0000
0001
0000
0000
0010
0000
0000
0200
0000
0000
0000
0000
0000
0310
0000
0100
0000
0010
0000
1000
0000
0000
0000
0000
0000
0002
0000
0000
0000
0000
0000
0213
0000
0000
0000
0000
0000
0310
0000
0000
0001
0000
0000
,
0010
0000
0200
0000
0312
0000
0023
0000
0130
0000
0002
0000
0123
0030
1000
0001
,
1000
0000
0010
0100
0012
0000
0023
0000
2030
0000
3000
0100
0011
0100
0000
0000
,
0010
1000
0100
0010
0102
0000
0203
0000
0310
0000
0000
0002
0123
0032
0000
0003
,
1000
0000
0000
0100
0000
0000
1000
0000
0000
0100
0000
0000
0020
0000
0000
0000
0000
0000
1030
0000
0100
0000
0010
0000
0001
0000
0000
0000
0000
0000
0001
0000
0000
0000
0000
0000
1001
0000
0000
0000
0000
0000
0010
0000
0000
0000
0000
0000
,
0100
0010
1001
0010
0100
0010
1001
0010
,
0100
0010
1001
0010
0100
0010
1001
0010
,
0100
0000
0010
0000
1001
0000
0010
0000
0200
0000
0300
0001
1000
0002
0000
0003
,
0100
0010
0100
0010
0001
0000
0200
0000
0000
0000
0300
0000
0000
0000
0000
0000
;

//---------------dance-single - ----------------
#NOTES:
     dance-single:
     :
     Hard:
     9:
     0.399250,0.400070,0.053598,0.061255,0.310102,365.000000,358.000000,7.000000,8.000000,0.000000,0.000000,0.399250,0.400070,0.053598,0.061255,0.310102,365.000000,358.000000,7.000000,8.000000,0.000000,0.000000:
0000
0000
0000
0000
,
0000
0000
0000
0000
,
0000
0000
0000
0000
,
0000
0000
0000
0000
,
0002
0000
0000
0003
2000
0000
0000
3000
0100
0000
0000
1000
0100
0000
1000
0000
,
0010
0000
0100
0000
0001
0000
0010
0100
0010
0000
0001
1000
0010
0000
1000
0000
,
0100
0010
0001
0000
0001
0010
0100
1000
,
0100
0000
0010
0000
0001
0000
1000
0010
1000
0000
0001
0000
0010
0000
0100
0000
,
2000
0000
0000
3000
0002
0000
0000
0003
0010
0000
0000
0001
0100
0000
0010
0000
,
0100
1000
0001
0010
0100
0000
0001
1000
0010
0000
0001
0000
0100
0000
0010
0000
,
0000
0000
0010
0000
0100
0000
0000
0000
0100
0000
0000
0001
1000
0000
0100
0000
,
0100
0000
1000
0000
0001
0000
0010
0100
1000
0000
0010
0100
0001
0000
1000
0000
,
0100
0000
0000
0001
1000
0000
0100
0000
0010
0000
0000
0001
0010
0000
0100
0000
,
1000
0100
0010
0001
0100
0010
0100
1000
,
0010
0000
0000
0100
1000
0000
0010
0000
0100
0000
0000
0001
0010
0000
0100
0000
,
1000
0100
1000
0010
1000
0001
0010
0100
,
1000
0000
0000
1000
0100
0000
0010
0000
0001
0000
0000
0001
0010
0000
0100
0000
,
1000
0010
0100
0001
0010
0100
1000
0010
,
0100
0000
0000
0001
0100
0000
0010
0000
1000
0000
0000
0100
0010
0000
0001
0000
,
2000
0000
0000
0000
0000
0000
0000
0000
3001
0000
0100
0000
0010
0000
0001
0010
,
0100
0000
1000
0001
0100
0000
0010
0000
1000
0000
0100
0000
0010
0000
0100
1000
,
0010
0000
0010
0100
1000
0000
0010
0000
0100
0000
0000
0001
1000
0100
0000
0000
,
0100
1000
0001
1000
0010
0000
0100
0000
0001
0000
0000
0001
0010
0100
0000
0000
,
0001
1000
0010
0100
0001
0000
1000
0000
0100
0000
0100
0000
0010
0000
0001
1000
,
0010
0000
0001
0000
0010
0000
0100
0000
0000
0000
0001
0000
1000
0000
0010
1000
,
0001
0000
0100
0010
0001
0000
1000
0000
0010
0000
0000
0001
0100
0001
0000
0000
,
0100
1000
0001
1000
0010
0000
0100
0000
0001
0000
0000
0001
0010
0001
0000
0000
,
0100
1000
0001
0100
0010
0000
1000
0000
0001
0000
0000
0001
0100
0000
0001
0000
,
0100
0000
0000
0001
0010
0000
0001
0000
1000
0000
0000
0010
1000
0000
0010
0000
,
1000
0000
0000
0100
1000
0000
0001
0000
1000
0000
0000
0010
0100
0000
0001
0000
,
0010
0000
0000
0100
1000
0000
0010
0000
0100
0000
0000
0001
1000
0000
0100
0000
,
0010
0000
0000
0001
1000
0000
0010
0000
0100
0000
0000
0001
1000
0000
0100
0000
,
0010
0000
0000
0001
1000
0000
0100
0000
1000
0000
0000
0010
1000
0000
0001
0000
,
1000
0000
0000
0100
0010
0000
0001
0000
1000
0000
0000
0010
1000
0000
0001
0000
,
0010
0000
0000
0100
1000
0000
0001
0000
0100
0000
0000
0010
1000
0000
0001
0000
,
0020
0000
0000
0000
0000
0000
0000
0000
0031
0000
0010
0000
1000
0000
0100
1000
,
0100
0000
1000
0000
0010
0000
0100
0000
0001
0000
0100
0000
0010
0000
0001
1000
,
0010
0000
0100
0010
0001
0000
1000
0000
0010
0000
0000
0001
1000
0001
0000
0000
,
0100
0010
0001
1000
0010
0000
0100
0000
0001
0000
0000
0100
1000
0001
0000
0000
,
0010
0100
0001
1000
0100
0000
0010
0000
0001
0000
0100
0000
1000
0000
0010
1000
,
0001
0000
0010
0000
0100
0000
0010
0000
0000
0000
0001
0000
0010
0000
1000
0010
,
0001
0000
0100
1000
0001
0000
0010
0000
0100
0000
0000
0001
1000
0100
0000
0000
,
0001
1000
0100
0010
0001
0000
1000
0000
0010
0000
0000
0001
0100
0010
0000
0000
,
0001
0010
0100
1000
0010
0000
0100
0000
0001
0000
0000
0000
1001
0000
0000
0000
,
0001
0011
0100
1100
,
0100
0110
0001
0011
,
0001
1001
0010
1010
,
0100
1000
0001
1000
0020
0000
0230
0000
0300
0000
0000
0000
0000
0000
0000
0000
;

//---------------dance-single - ----------------
#NOTES:
     dance-single:
     :
     Medium:
     6:
     0.235175,0.235161,0.045941,0.053598,0.000000,215.000000,209.000000,6.000000,7.000000,0.000000,0.000000,0.235175,0.235161,0.045941,0.053598,0.000000,215.000000,209.000000,6.000000,7.000000,0.000000,0.000000:
0000
0000
0000
0000
,
0000
0000
0000
0000
,
0000
0000
0000
0000
,
0000
0000
0000
0000
,
0100
0000
1000
0000
0001
0010
0100
0000
,
0001
1000
0010
1000
0001
0000
0010
0000
,
0100
1000
0010
0100
,
0010
0100
0001
0000
0010
1000
0001
0000
,
0100
0010
0001
1000
,
0010
0000
0100
0000
0001
1000
0001
0000
,
0010
0000
0100
0000
0001
1000
0010
0000
,
0100
0000
0010
0000
0001
1000
0010
0000
,
0200
1000
0301
0011
,
0100
0000
0001
0000
1000
0010
1000
0000
,
0002
0010
1003
0101
,
0010
0000
1000
0000
0001
0010
0100
0000
,
0020
1000
0130
1001
,
0100
0000
0010
0000
0001
1000
0010
0000
,
0200
1000
0310
0110
,
0002
0000
1003
0010
,
0100
0001
0100
0000
0001
0000
0010
0000
,
0100
1000
0001
0100
0010
0000
1000
0000
,
0100
1000
0100
0000
0010
0000
0001
0000
,
0100
1000
0001
0000
0100
0000
0001
0000
,
0010
1000
0100
0010
,
0001
0010
0100
1000
0010
0000
0001
0000
,
1000
0100
1000
0000
0010
0000
0100
0000
,
0001
0010
0100
0000
1000
0000
1000
0000
,
0001
1000
0001
0000
0001
0000
0001
0000
,
0001
1000
0001
0000
0100
0000
0010
0000
,
0100
0010
0100
0000
0001
0000
1000
0000
,
0010
1000
0001
0000
0100
0000
0100
0000
,
0100
1000
0100
0000
0010
0000
0010
0000
,
0001
1000
0001
0000
0100
0000
0100
0000
,
0100
1000
0100
0000
0001
0000
0001
0000
,
2002
0000
3003
0001
,
0100
1000
0010
0000
0100
0000
0001
0000
,
0100
1000
0001
0000
0100
0000
0010
0000
,
0001
0010
0100
1000
0010
0000
0001
0000
,
1000
0100
0010
0001
1000
0000
0010
0000
,
0100
0001
1000
0100
,
0001
0010
0100
0000
1000
0000
0010
0000
,
0001
0100
0010
1000
0001
0000
0100
0000
,
0001
0010
0100
1000
0001
0000
0001
0000
,
0001
0100
1000
1000
,
1000
0010
0001
0001
,
0001
0100
1000
1000
,
0010
1010
0000
0000
;

//---------------dance-single - ----------------
#NOTES:
     dance-single:
     :
     Easy:
     5:
     0.201266,0.197930,0.000000,0.007657,0.000000,184.000000,184.000000,0.000000,1.000000,0.000000,0.000000,0.201266,0.197930,0.000000,0.007657,0.000000,184.000000,184.000000,0.000000,1.000000,0.000000,0.000000:
0000
0000
0000
0000
,
0000
0000
0000
0000
,
0000
0000
0000
0000
,
0000
0000
0000
0000
,
1000
0010
0100
0001
,
1000
0010
1000
0000
0001
0100
0001
0000
,
0010
1000
0100
0001
,
0010
0001
0010
0000
0100
1000
0100
0000
,
0001
1000
0010
0100
,
0001
0100
0001
0000
1000
0010
1000
0000
,
0100
0001
0010
1000
,
0100
1000
0100
0000
0001
0100
0001
0000
,
0010
1000
0010
0100
,
0001
0000
1000
0000
0010
0100
0010
0000
,
0000
0100
0010
1000
,
0100
0000
0010
0000
0001
1000
0001
0000
,
0100
0100
0010
0010
,
1000
0000
0100
0000
1000
0010
1000
0000
,
0100
0001
0010
0100
,
1000
0000
0001
0100
,
0010
1000
0001
0100
,
0001
0010
0001
0001
,
0100
0100
0001
0001
,
0100
0100
1000
0010
,
0100
0001
0100
0000
1000
0000
0010
0000
,
0100
1000
0100
0000
0001
0000
1000
0000
,
0010
0010
0100
1000
,
0010
0010
0001
0100
,
0001
0100
0001
0000
1000
0000
1000
0000
,
0010
0010
0100
0001
,
1000
0001
1000
0000
0010
0000
0100
0000
,
1000
0001
0100
0100
,
0100
0001
0010
1000
,
0010
1000
0100
0001
,
0010
0001
0100
1000
,
0020
0000
0000
0000
0000
0030
1000
0000
,
0001
0001
0010
1000
,
0100
1000
0010
0000
0100
0000
0001
0000
,
0100
0010
0100
0000
0001
0000
1000
0000
,
0100
1000
0100
0000
0010
0000
0001
0000
,
0010
0100
1000
0000
0010
0000
0001
0000
,
0100
0001
0100
0000
1000
0000
0010
0000
,
0100
1000
0100
0000
0001
0000
0010
0000
,
0100
0001
1000
0000
0010
0000
0000
0000
,
0010
0000
0100
0000
,
0100
0000
0001
0000
,
0001
0000
0100
0000
,
0100
0000
0000
0000
;

//---------------dance-single - ----------------
#NOTES:
     dance-single:
     :
     Beginner:
     1:
     0.057973,0.089968,0.000000,0.038284,0.000000,53.000000,53.000000,0.000000,5.000000,0.000000,0.000000,0.057973,0.089968,0.000000,0.038284,0.000000,53.000000,53.000000,0.000000,5.000000,0.000000,0.000000:
// measure 0
0000
0000
0000
0000
,  // measure 1
0000
0000
0000
0000
,  // measure 2
0000
0000
0000
0000
,  // measure 3
0000
0000
0000
0000
,  // measure 4
0001
0000
0000
0000
,  // measure 5
0000
0000
0000
0000
,  // measure 6
1000
0000
0000
0000
,  // measure 7
0000
0000
0000
0000
,  // measure 8
0100
0000
0000
0000
,  // measure 9
0000
0000
0000
0000
,  // measure 10
0010
0000
0000
0000
,  // measure 11
0000
0000
0000
0000
,  // measure 12
1000
0000
0001
0000
,  // measure 13
0010
0000
0000
0000
,  // measure 14
0100
0000
1000
0000
,  // measure 15
0010
0000
0000
0000
,  // measure 16
0100
0000
0001
0000
,  // measure 17
1000
0000
0000
0000
,  // measure 18
0001
0000
0010
0000
,  // measure 19
1000
0000
0001
0000
,  // measure 20
1000
0000
0100
0000
,  // measure 21
0010
0000
0100
0000
,  // measure 22
0001
0000
0100
0000
,  // measure 23
1000
0000
0010
0000
,  // measure 24
1000
0000
0100
0000
,  // measure 25
0001
0000
0010
0000
,  // measure 26
1000
0000
0100
0000
,  // measure 27
0001
0000
1000
0000
,  // measure 28
0000
0000
0000
0000
,  // measure 29
0000
0000
0000
0000
,  // measure 30
0000
0000
0000
0000
,  // measure 31
0000
0000
0001
0000
,  // measure 32
0100
0000
1000
0000
,  // measure 33
0010
0000
0100
0000
,  // measure 34
0001
0000
1000
0000
,  // measure 35
0002
0000
0000
0000
,  // measure 36
0000
0000
0000
0000
,  // measure 37
0000
0000
2003
0000
,  // measure 38
0000
3000
0000
0000
,  // measure 39
0000
0000
0002
0000
,  // measure 40
0000
0000
0000
0000
,  // measure 41
0000
0000
0203
0000
,  // measure 42
0000
0000
0302
0000
,  // measure 43
0000
0000
1003
0000
,  // measure 44
0100
0000
0001
0000
,  // measure 45
0010
0000
1000
0000
,  // measure 46
0100
0000
0001
0000
,  // measure 47
0001
0000
0000
0000
;
