#TITLE:Three Musketeers of Tea;
#SUBTITLE:;
#ARTIST:Kocha no Sanjushi~;
#TITLETRANSLIT:;
#SUBTITLETRANSLIT:;
#ARTISTTRANSLIT:;
#GENRE:;
#CREDIT:;
#BANNER:AV.avi;
#BACKGROUND:BG.png;
#LYRICSPATH:;
#CDTITLE:;
#MUSIC:Three Musketeers of Tea.mp3;
#OFFSET:-0.138000;
#SAMPLESTART:44.400002;
#SAMPLELENGTH:15.000000;
#SELECTABLE:YES;
#BPMS:0.000000=130.000000
;
#STOPS:
;
#BGCHANGES:0.000=MV.avi=1.200=1=1=1=StretchRewind==CrossFade==,
2.000=MV.avi=1.000=0=0=1=====,
99999=-nosongbg-=1.000=0=0=0 // don't automatically add -songbackground-
;
#KEYSOUNDS:;
#ATTACKS:;

//---------------dance-single - ----------------
#NOTES:
     dance-single:
     :
     Challenge:
     16:
     1.003158,1.045730,1.462939,0.780234,0.839835,648.000000,513.000000,135.000000,72.000000,0.000000,57.000000,1.003158,1.045730,1.462939,0.780234,0.839835,648.000000,513.000000,135.000000,72.000000,0.000000,57.000000:
0002
0010
1100
0023
0001
0100
1032
0010
,
0100
0023
1001
0100
2030
0100
3021
1000
,
0230
0001
1010
0302
0100
1000
0123
0001
,
1000
0230
0011
1000
0302
1000
0110
0003
,
0002
0100
1010
0203
0010
0001
1320
0001
,
0100
0032
1100
0010
0203
0001
2310
3102
,
0010
0000
0100
0003
1010
0000
0100
0000
0001
0000
0010
0000
1100
0000
0001
0000
,
1000
0010
1001
0010
1100
0011
1100
0000
,
1002
0000
0010
0000
0100
0003
0010
0000
1000
0000
0010
0000
1100
0000
0012
0000
,
0100
0000
0010
0003
1000
0000
0001
0000
0110
0000
0011
0000
1001
0000
0120
0000
,
1000
0000
0001
0030
1000
0000
0001
0000
0100
0000
0011
0000
1000
0000
0011
0000
,
1000
0000
0102
0000
0010
0000
1000
0003
0110
0000
1001
0000
1100
0000
0010
0000
,
1002
0000
0010
0000
0100
0003
0010
0000
1000
0000
0010
0000
0101
0000
2001
0000
,
0100
0000
0010
3000
0102
0000
0010
0003
1200
0000
0001
0300
1000
0000
0010
0000
,
1002
0000
0010
0003
1000
0000
0120
0000
1000
0030
0001
0000
1000
0000
0012
0000
,
1000
0000
0003
0000
0101
0000
2010
0000
0000
0000
3000
0101
1010
0000
0101
0000
,
1002
0000
0110
2003
0011
0000
3201
0320
,
1001
0000
0131
2000
0011
0000
3102
0023
,
1001
0000
1100
0000
1100
0032
1010
2003
,
0110
0000
3020
0000
1100
0000
0032
0000
0110
0000
0000
0000
1100
0000
0010
0100
,
1023
0001
1100
0032
1100
0010
2103
3020
,
1100
0001
1100
0230
1010
0001
1320
0032
,
1010
0100
0110
0100
1010
2103
0110
3002
,
1010
0000
0103
1000
0100
0010
0001
0000
1001
0000
0000
0000
0120
0000
0000
0000
,
1031
0100
0010
0001
0100
0010
0101
0010
0100
1000
0100
0010
1001
0100
0010
1000
,
0100
0001
0110
1000
0100
0001
0020
0100
1031
0010
0100
1000
0011
0100
0010
0100
,
1001
0100
0010
0001
1000
0100
1001
0010
1000
0001
0100
0001
1010
0100
0001
0010
,
0100
0001
1010
0001
0100
0010
0001
0010
1200
0000
0000
0000
1301
0000
0000
0000
,
1010
0100
0001
1000
0010
1000
0101
0010
0100
1000
0100
0010
1001
0100
0010
1000
,
0001
0100
1010
0001
0010
1000
0200
0001
1310
0001
0100
0001
1010
0001
1200
0000
,
0010
0001
1001
0310
0100
1002
0000
1023
,
0000
0000
0132
0000
0000
0000
2103
0010
0100
0010
0000
0000
3100
0001
1000
0010
,
1001
0010
0100
1000
0010
0100
1010
0100
0010
0001
0010
0100
1001
0010
0100
0001
,
0010
1000
0110
0001
0010
1000
0200
0010
1301
0100
0010
0001
1100
0010
0100
0010
,
1001
0010
0100
1000
0001
0010
1001
0100
0001
1000
0010
1000
0101
0010
1000
0100
,
0010
1000
0101
1000
0010
0100
1000
0100
0021
0000
0000
0000
1031
0000
0000
0000
,
0101
0010
1000
0001
0100
0001
1010
0100
0010
0001
0010
0100
1001
0010
0100
0001
,
1000
0010
0101
1000
0100
0001
0020
1000
0131
1000
0100
0010
0101
1000
0021
0000
,
0100
1000
0101
1030
0010
2001
0000
3201
,
0000
0000
2310
0000
0000
0000
3012
0000
1000
0010
0100
1000
0103
0000
1001
0000
,
0010
0100
1000
0001
0010
0100
0001
1000
0100
0010
0001
0100
0010
1000
0100
0010
,
0001
0010
0100
1000
0100
0010
0002
0010
1003
0100
0010
1000
0001
0100
0010
1000
,
0010
0100
0010
1000
0100
0010
0001
0100
0010
0001
0010
0100
1000
0010
0100
1000
,
0001
0100
1000
0100
0001
0010
0100
0001
1000
0100
0001
0010
0001
0100
1000
0001
,
0100
0001
0010
0100
1010
0100
0010
0001
0100
1000
0100
0010
1001
0010
0001
0100
,
0010
1000
0001
0010
1001
0100
0020
1000
0031
0100
0001
1000
0101
0010
0001
0100
,
1000
0100
0001
0010
1001
0100
1000
0100
0001
0010
0001
0100
0011
1000
0100
0010
,
0001
0100
0001
0010
2001
0000
0010
0100
0001
0000
3000
0000
1001
0000
0220
0000
,
0000
0330
0000
0000
;

//---------------dance-single - Copied from----------------
#NOTES:
     dance-single:
     Copied from:
     Hard:
     10:
     0.515512,0.575152,0.715215,0.682705,0.000000,333.000000,267.000000,66.000000,63.000000,0.000000,0.000000,0.515512,0.575152,0.715215,0.682705,0.000000,333.000000,267.000000,66.000000,63.000000,0.000000,0.000000:
0002
0000
0000
2003
0000
0000
3020
0000
,
0000
0230
0000
0000
0302
0000
2003
0000
,
3200
0000
0000
0320
0000
0000
0032
0000
,
0000
2003
0000
0000
3020
0000
0000
0030
,
2000
0000
0000
3200
0000
0000
0320
0000
,
0000
0032
0000
0000
2003
0000
3200
2300
,
0010
0000
3001
0000
0010
0100
0001
1000
,
0010
0100
0001
0010
1100
0011
1100
0000
,
1001
0010
0100
0010
1000
0001
0100
0000
,
0010
0100
0001
1000
0010
0100
0010
0000
,
0100
1000
0100
0010
0001
0010
0100
0000
,
1000
0100
0010
0001
1000
0100
0010
0100
,
1000
0010
0100
0001
1000
0100
0010
0000
,
0100
0010
0100
1000
0010
0100
0010
0000
,
1000
0100
0010
0001
0010
0100
1000
0100
,
0010
0100
0001
0100
0010
0000
1001
0000
,
2010
3001
0102
0103
,
0120
0130
1002
1003
,
2100
3001
0102
0103
,
1020
1030
0120
0130
,
1001
0100
0010
0001
0010
0100
1000
0100
,
0010
0001
0010
0100
1000
0100
0010
0001
,
1100
0011
1100
0000
0110
1001
0110
0000
,
1000
0100
0010
0001
0010
0000
1001
0000
,
2010
0001
3010
0000
0102
0010
1003
0000
,
1020
0100
1030
0000
0102
0010
1003
0000
,
0120
1000
0130
0000
1002
0100
0013
0000
,
2010
0100
3001
0000
0110
0000
1001
0000
,
0120
1000
0130
0000
1002
0100
0013
0000
,
1020
0100
0031
0000
1002
0100
1003
0000
,
0120
1000
0130
0000
0102
1000
0103
0000
,
1000
0100
0010
0001
0010
0100
1001
0000
,
0120
0000
0030
1002
0000
0003
1020
0000
,
0030
0102
0000
0003
1020
0030
0102
0003
,
1020
0000
0030
2100
0000
3000
0120
0000
,
0030
1002
0000
0003
0120
0000
0130
0000
,
1002
0000
0003
0120
0000
0030
1002
0000
,
0003
0120
0000
0030
1020
0030
0200
0320
,
0000
0000
0130
0000
0000
2001
3000
0201
,
0300
2010
3000
0102
1000
0103
0010
0000
,
1000
0100
0010
0001
1000
0010
0100
0010
,
1000
0001
0010
0100
1000
0001
1000
0010
,
0100
0001
0010
0001
0010
0100
1000
0001
,
1000
0010
0100
0001
1000
0100
0010
0001
,
1100
0001
0100
0010
1010
0001
0010
0100
,
0110
0001
1000
0001
1001
0010
0100
0001
,
0110
0001
0100
1000
1010
0001
1000
0100
,
0110
0000
2001
0000
3010
0000
0000
0102
,
0000
0003
0000
0000
;

//---------------dance-single - ----------------
#NOTES:
     dance-single:
     :
     Medium:
     6:
     0.298780,0.389101,0.065020,0.238405,0.000000,193.000000,187.000000,6.000000,22.000000,0.000000,0.000000,0.298780,0.389101,0.065020,0.238405,0.000000,193.000000,187.000000,6.000000,22.000000,0.000000,0.000000:
0000
0000
0000
0000
,
0000
0000
0000
0000
,
0000
0000
0000
0000
,
0000
0000
0000
0000
,
1000
0010
0100
0001
,
0010
0100
0010
1000
,
0010
0100
0001
0100
,
0010
0000
0000
0000
1000
0010
1000
0000
,
0010
0100
0001
1000
,
0010
0000
0100
0000
0001
1000
0001
0000
,
0100
0010
1000
0100
,
0010
0000
0100
0000
0001
0100
0001
0000
,
1000
0010
0100
0001
,
0100
0000
0010
0000
1000
0001
1000
0000
,
0010
0100
0001
0100
,
0010
1000
0010
0101
,
0010
0010
0010
0010
,
0100
0100
0100
0100
,
0001
0001
0001
0001
,
1000
1000
1000
1001
,
0010
0100
0010
0000
0001
1000
0001
0000
,
0100
0010
0100
0000
1000
0001
1000
0000
,
0010
1000
0001
1000
0010
1000
0001
0000
,
0010
0100
0010
1001
,
0002
0000
0000
0103
0000
0000
0020
0000
,
0000
1030
0000
0000
0010
0000
0100
0000
,
0002
0000
0000
1003
0000
0000
0020
0000
,
0000
0130
0000
0000
1001
0000
0000
0000
,
0020
0000
0000
1030
0000
0000
0002
0000
,
0000
0103
0000
0000
0010
0000
0100
0002
,
1000
0000
0100
0000
0013
2000
0000
3200
,
0000
0320
0000
0032
0103
0000
0000
0000
,
0020
0000
0000
1030
0000
0000
0002
0000
,
0000
0103
0000
0000
1000
0000
0010
0000
,
0200
0000
0000
0310
0000
0000
0002
0000
,
0000
1003
0000
0000
0110
0000
0000
0000
,
2000
0000
0000
3001
0000
0000
0020
0000
,
0000
0130
0000
0000
0001
0000
1000
0020
,
0100
0000
1000
0000
0100
0032
0000
2003
,
0000
3020
0000
0230
0000
0000
0300
0000
,
1000
0100
0010
0000
0001
0010
0100
0000
,
1000
0001
1000
0000
0010
0100
0001
0000
,
0100
1000
0010
0000
0001
0100
0010
0000
,
0100
0001
1000
0000
0010
0100
0001
0000
,
1000
0010
1000
0000
0001
0100
0010
0000
,
0100
0001
0100
0000
1000
0010
0100
0000
,
0001
0100
0010
0100
0001
0100
0010
0100
,
0001
0000
0000
0000
0000
0000
0000
0110
;

//---------------dance-single - ----------------
#NOTES:
     dance-single:
     :
     Easy:
     3:
     0.210539,0.259401,0.032510,0.151712,0.000000,136.000000,133.000000,3.000000,14.000000,0.000000,0.000000,0.210539,0.259401,0.032510,0.151712,0.000000,136.000000,133.000000,3.000000,14.000000,0.000000,0.000000:
0000
0000
0000
0000
,
0000
0000
0000
0000
,
0000
0000
0000
0000
,
0000
0000
0000
0000
,
1000
0010
1000
0000
,
0010
0100
0010
0000
,
0001
1000
0010
0000
,
0100
0000
0000
0000
0010
0010
0010
0000
,
0001
0100
0001
0000
,
1000
0010
1000
0000
,
0010
0100
0001
0000
,
0100
1000
0010
0000
,
0001
0100
0010
0000
,
1000
0010
1000
0000
,
0010
0100
0001
0000
,
0100
0100
0100
0000
,
0010
0001
0010
0100
,
1000
0010
0001
0100
,
0010
1000
0001
0100
,
0010
1000
0001
0100
,
0020
0000
0130
0000
,
2000
0000
3001
0000
,
0010
0100
0010
0100
,
0001
0100
0010
1001
,
0020
0000
0000
0130
0000
0000
0002
0000
,
0000
1003
0000
0000
0010
0000
0000
0000
,
0020
0000
0000
1030
0000
0000
0200
0000
,
0000
0310
0000
0000
0001
0000
0000
0000
,
0002
0000
0000
1003
0000
0000
0200
0000
,
0000
0310
0000
0000
0001
0000
0010
0000
,
0100
1000
0001
0100
,
0010
1000
0001
0000
,
0020
0000
0000
0130
0000
0000
2000
0000
,
0000
3001
0000
0000
0010
0000
0100
0000
,
0002
0000
0000
0103
0000
0000
0020
0000
,
0000
0130
0000
0000
0001
0000
0000
0000
,
0020
0000
0000
1030
0000
0000
2000
0000
,
0000
3001
0000
0000
0010
0000
0100
0000
,
0010
0001
0010
1000
,
0001
0100
0010
0000
,
1000
0100
0010
0000
,
0100
0010
0100
0000
,
0001
1000
0001
0000
,
0010
0100
0010
0000
,
1000
0000
0001
0000
,
0010
0000
0100
0000
,
0010
0000
1000
0000
,
0010
0000
1001
0000
0000
0000
0000
1001
;

//---------------dance-single - Copied from----------------
#NOTES:
     dance-single:
     Copied from:
     Beginner:
     1:
     0.164097,0.181581,0.021673,0.010837,0.000000,106.000000,104.000000,2.000000,1.000000,0.000000,0.000000,0.164097,0.181581,0.021673,0.010837,0.000000,106.000000,104.000000,2.000000,1.000000,0.000000,0.000000:
// measure 0
0000
0000
0000
0000
,  // measure 1
0000
0000
0000
0000
,  // measure 2
0000
0000
0000
0000
,  // measure 3
0000
0000
0000
0000
,  // measure 4
1000
0000
0100
0000
,  // measure 5
0010
0000
0001
0000
,  // measure 6
0100
0000
0010
0000
,  // measure 7
0200
0000
0310
0000
,  // measure 8
0001
0000
0010
0000
,  // measure 9
0100
0000
1000
0000
,  // measure 10
0010
0000
0100
0000
,  // measure 11
0001
0000
0010
0000
,  // measure 12
0100
0000
0001
0000
,  // measure 13
1000
0000
0010
0000
,  // measure 14
0100
0000
0010
0000
,  // measure 15
0100
0001
0100
0000
,  // measure 16
0010
0000
0010
0000
,  // measure 17
0001
0000
0001
0000
,  // measure 18
0100
0000
0100
0000
,  // measure 19
1000
0000
1000
0000
,  // measure 20
0010
0100
0001
1000
,  // measure 21
0000
0100
0010
1000
,  // measure 22
0000
0001
0100
0010
,  // measure 23
0000
0000
0000
1001
,  // measure 24
0010
0000
0000
0100
0000
0000
0010
0000
,  // measure 25
0000
1000
0000
0000
0001
0000
0000
0000
,  // measure 26
0100
0000
0000
0010
0000
0000
1000
0000
,  // measure 27
0000
0010
0000
0000
0100
0000
0000
0000
,  // measure 28
0001
0000
0000
0010
0000
0000
0100
0000
,  // measure 29
0000
1000
0000
0000
0010
0000
0000
0000
,  // measure 30
0100
0010
1000
0000
,  // measure 31
0010
0100
0001
0000
,  // measure 32
0010
0000
0000
0100
0000
0000
0001
0000
,  // measure 33
0000
1000
0000
0000
0010
0000
0000
0000
,  // measure 34
0001
0000
0000
0100
0000
0000
0010
0000
,  // measure 35
0000
1000
0000
0000
0010
0000
0000
0000
,  // measure 36
0100
0000
0000
0010
0000
0000
1000
0000
,  // measure 37
0000
0001
0000
0000
0100
0000
0000
0000
,  // measure 38
0010
1000
0000
0100
,  // measure 39
0010
0001
0000
0000
,  // measure 40
1000
0010
0000
0000
,  // measure 41
0001
0010
0000
0000
,  // measure 42
0100
0010
0000
0000
,  // measure 43
0001
0010
0000
0000
,  // measure 44
1000
0010
1000
0000
,  // measure 45
0001
0100
0001
0000
,  // measure 46
0010
0100
0010
0000
,  // measure 47
1000
0000
0000
0000
0000
0000
0000
1001
;
