#VERSION:0.83;
#TITLE:-The Last Page;
#SUBTITLE:;
#ARTIST:ARForest;
#TITLETRANSLIT:;
#SUBTITLETRANSLIT:;
#ARTISTTRANSLIT:;
#GENRE:;
#ORIGIN:;
#CREDIT:;
#BANNER:AV.avi;
#BACKGROUND:BG.png;
#PREVIEWVID:;
#JACKET:jacket.jpg;
#CDIMAGE:;
#DISCIMAGE:;
#LYRICSPATH:;
#CDTITLE:;
#MUSIC:The Last Page.ogg;
#OFFSET:0.107000;
#SAMPLESTART:99.919998;
#SAMPLELENGTH:15.000000;
#SELECTABLE:YES;
#DISPLAYBPM:*;
#BPMS:0.000=97.500,
50.000=195.000,
266.000=97.500,
272.000=195.000;
#STOPS:;
#DELAYS:;
#WARPS:;
#TIMESIGNATURES:0.000=4=4;
#TICKCOUNTS:0.000=4;
#COMBOS:0.000=1;
#SPEEDS:0.000=1.000=0.000=0;
#SCROLLS:0.000=1.000;
#FAKES:;
#LABELS:0.000=Song Start;
#BGCHANGES:0.250=MV.avi=1.000=1=0=1===CrossFade==,
99999=-nosongbg-=1.000=0=0=0 // don't automatically add -songbackground-
;
#KEYSOUNDS:;
#ATTACKS:
;

//---------------dance-single - ----------------
#NOTEDATA:;
#CHARTNAME:;
#STEPSTYPE:dance-single;
#DESCRIPTION:;
#CHARTSTYLE:;
#DIFFICULTY:Challenge;
#METER:18;
#RADARVALUES:1.234096,1.779171,0.500282,0.486189,1.599493,1226.000000,1155.000000,71.000000,69.000000,0.000000,12.000000,0.000000,0.000000,0.000000,1.234096,1.779171,0.500282,0.486189,1.599493,1226.000000,1155.000000,71.000000,69.000000,0.000000,12.000000,0.000000,0.000000,0.000000;
#CREDIT:;
#DISPLAYBPM:*;
#NOTES:
0000
0000
0000
0000
,
0000
0000
0000
0000
,
0000
0000
0000
0000
,
0002
0000
0000
0000
0000
0000
0000
0000
0000
0000
0000
0000
0000
0000
0000
0000
1003
0000
0000
0000
0010
1000
0100
0010
0001
0000
1000
0000
0010
0000
0000
0000
,
0001
0010
0100
1000
0010
0000
0100
0000
0001
0000
0000
0000
1000
0100
0010
0001
0100
0000
1000
0000
0100
0000
0000
0000
0001
0010
1000
0100
0010
0000
0001
0000
,
0100
0000
0000
0000
0010
0001
1000
0100
0010
0000
0001
0000
0100
0000
0000
0000
1000
0001
0010
0100
1000
0000
0001
0000
0010
0000
0000
0000
1000
0100
0001
0010
,
0100
0000
0010
0000
0100
0000
0000
0000
0001
0010
1000
0100
0001
0000
0100
0000
1010
0000
0100
0000
0001
0010
1000
0010
0100
0000
0001
0000
1010
0000
0100
0000
,
0001
0100
0010
1000
0100
0000
0010
0000
1001
0000
0010
0000
0100
0010
0001
1000
0100
0000
0001
0000
1010
0000
0001
0000
0100
0010
0100
0001
1000
0000
0010
0000
,
0101
0000
0010
0000
1000
0010
0100
0001
0100
0000
0010
0000
1001
0000
0100
0000
0010
1000
0001
0010
0100
0000
0001
0000
1010
0000
0100
0000
0001
0100
0010
1000
,
0001
0000
0010
0000
1100
0000
0001
0000
0010
0100
0020
0001
2030
0000
3200
0000
0312
0000
1000
0000
0010
0000
0100
0000
2003
0000
0100
0000
3020
0000
0001
0000
,
0230
1000
0001
1000
0302
0000
0100
0000
0023
0000
1000
0000
0001
0000
0100
0000
1000
0000
0001
0000
0230
0000
0001
0000
2300
0000
0010
0000
3002
0000
0010
0100
,
0023
0000
1000
0000
0001
0000
0100
0000
1000
0000
0001
0000
0100
0000
0001
0000
2030
0001
0100
0001
3200
0000
0010
0000
0302
0000
0010
0000
1000
0000
0100
0000
,
0010
0000
0100
0000
2003
0000
0001
0000
3200
0000
0010
0001
0320
0000
0100
0000
1031
0000
0010
0000
0100
0000
1000
0000
0010
0000
0100
0000
0010
0000
0001
0000
,
1000
0100
0010
0001
0010
0100
1000
0001
0010
0100
0010
0100
1000
0010
0100
0001
,
0010
0100
0010
1000
0100
0010
0001
0100
0010
1000
0001
0010
0100
0001
1000
0100
,
0010
1000
0001
0010
0100
0001
1000
0001
0010
0100
1000
0010
0100
0001
1000
0100
,
0010
0100
0001
0010
0100
1000
0100
0010
0001
1000
0001
1000
0010
0100
0010
0001
,
1000
0010
0100
0001
0010
1000
0100
0010
0001
1000
0010
0100
0001
0010
1000
0100
,
0010
0001
0100
0010
0100
1000
0001
0010
0200
0000
0001
0000
1000
0000
0010
0000
,
0000
0001
0010
1000
0010
0001
1000
0001
,
0320
1000
0100
1000
0000
1000
0100
0001
,
0100
1000
0001
0100
2030
0001
0010
0100
,
0000
0100
3020
0001
0100
1000
0001
1000
,
0230
0010
1000
0001
0010
1000
0302
1000
,
0100
0010
0100
1000
0013
0100
1001
0100
,
0011
0100
0001
1000
0110
0001
1100
0001
,
0010
0100
1001
0010
0101
1000
0100
0010
,
0101
1000
0011
1000
0010
0001
1100
0010
,
1001
0010
0001
0100
1010
0001
0110
0001
,
1000
0000
0000
0100
0000
0000
0011
0000
0000
0100
0000
0000
1001
0000
0000
0100
0000
0000
0001
0000
0010
0000
0001
0000
,
0010
0000
0100
0000
0010
0000
0100
0000
1000
0000
0100
0000
0012
0000
0000
0100
0000
0000
0010
0000
0000
0100
0000
0000
,
2003
0010
3002
0100
0023
0230
0001
0320
,
2030
0001
0010
0001
3010
1000
0200
0001
,
0320
1000
0032
0010
0203
1000
0320
0100
,
2030
0001
3200
0010
2300
0001
3020
0100
,
0032
0100
2003
0010
3200
0001
0320
1000
,
0032
0100
0023
1000
0230
0000
0001
0010
,
0000
1000
0010
0001
0010
1000
0001
0010
,
0302
1003
0100
0001
0020
0130
0002
0103
,
2000
3020
0230
0320
0032
0000
0100
0000
,
1000
0000
0100
0000
0010
0100
0010
1000
,
0203
0010
0001
0010
1000
0010
0301
0000
,
1000
0100
0010
0001
1000
0100
0010
0001
1100
0000
0010
0100
0001
0010
0100
1000
,
0010
0000
0100
0000
0001
0000
0010
0100
1000
0001
1000
0001
0100
0000
0010
0000
,
0100
0000
0001
0010
1000
0001
0010
0100
1000
0000
0100
0000
0010
0000
0001
0100
,
0010
1000
0001
0010
0100
1000
0010
0100
1001
0000
0010
0100
0010
1000
0001
0000
,
0100
0000
0010
0000
1000
0000
0100
0001
1000
0010
1000
0010
0100
0000
0001
0000
,
0100
0000
0010
0100
1000
0001
0010
0100
1000
0000
0010
0000
0100
0000
0001
0010
,
1000
0100
0010
0001
0010
0100
1000
0100
0011
0000
1000
0100
0010
0001
0010
0100
,
1000
0000
0011
0000
1100
0000
0001
0010
1000
0001
1000
0001
0110
0000
0100
0000
,
0011
0000
0100
1000
0100
0010
0001
0100
1000
0000
0011
0000
1100
0000
0001
0010
,
0001
1000
0100
0010
0001
0010
0100
1000
0011
0000
1000
0100
0010
0001
0010
0100
,
1000
0000
0011
0000
1100
0000
0010
0100
0001
1000
0001
1000
0110
0000
0100
0000
,
0011
0000
1000
0100
0010
1000
0001
0010
0100
0000
0011
0000
1100
0000
0001
0010
,
0100
0010
1000
0100
0001
0000
0100
0000
2000
0000
0000
0000
0000
0000
0000
0000
,
0001
3210
0321
1032
,
0213
0000
0000
0001
,
0000
0010
0000
0000
2301
0000
0000
0100
,
0000
3210
0001
1000
,
0321
0100
1000
0132
,
0010
0000
0100
0000
1013
0100
0001
0010
,
1000
0100
0010
0100
1000
0100
0010
1000
,
0010
0001
0100
0010
1000
0100
0001
0010
,
0100
0000
1000
0000
0010
0000
0100
0000
0010
0001
0100
0010
1000
0100
0001
0010
,
0100
1000
0100
0010
0001
0010
0100
1000
0001
0010
0100
1000
0010
0001
0100
0010
,
1000
0100
0010
0001
1000
0100
0010
0001
1000
0100
0010
0001
0010
0100
1000
0010
,
0100
0001
0010
0100
1000
0100
0010
0001
1100
0000
0000
0000
0000
0000
1000
0000
,
0000
0000
0000
0000
0000
0000
0000
0000
1000
0000
0000
0000
0000
0000
0000
0000
0000
0000
0000
0000
0001
1000
0001
1000
0001
1000
0001
1000
0001
0010
0100
1000
,
0011
0100
1000
0100
0010
0001
0100
0010
1000
0010
0100
0001
0010
0100
1000
0010
,
0001
0100
0010
0100
1000
0001
0010
0100
1000
0100
0010
0001
1000
0010
0100
0001
,
0100
0010
1000
0100
0001
0010
0100
1000
0100
0010
0001
0100
0010
1000
0010
0100
,
0001
0010
0100
1000
0100
0010
0001
0100
1000
0010
0100
0001
1000
0100
0010
0001
,
0010
0100
1000
0010
0100
0001
0010
0100
1000
0100
0010
0001
1000
0010
0100
0010
,
0001
0100
0010
1000
0100
0001
0010
0100
1000
0010
0100
0001
1000
0010
0100
0010
,
1000
0100
0010
0001
0010
0100
1000
0010
0100
0001
0010
1000
0100
0001
0010
0100
,
1000
0010
0001
0100
0010
1000
0010
0100
0001
0010
1000
0100
0010
0001
0100
1000
,
0010
0100
0001
0010
1000
0100
0010
0001
0010
0100
1000
0010
0100
0001
0010
0001
,
1100
0010
0001
0100
0010
1000
0001
0010
0100
1000
0010
0100
1001
0100
0010
0001
,
1000
0010
0100
0001
1000
0100
0010
0100
1001
0010
0100
1000
0001
0010
1000
0010
,
0100
0001
0010
0100
1001
0010
0100
1000
0100
0010
0001
0100
0010
1000
0100
0010
,
1001
0100
0010
0001
0100
0010
1000
0010
0100
0001
1000
0100
0010
1000
0100
0001
,
0010
0100
0010
1000
0001
0100
0010
0001
1000
0100
0010
0001
0010
0100
1000
0010
,
0100
0001
0010
1000
0100
0010
0001
0100
0010
1000
0001
0010
1000
0010
0100
0001
,
1000
0100
0010
0001
0010
0100
1000
0001
0010
0100
1000
0010
0100
0001
1000
0100
,
0010
0001
0100
0010
1000
0001
0100
1000
0010
0001
0010
0100
1000
0010
0001
0100
,
0001
0010
0100
1000
0010
0100
0010
1000
0001
0100
0010
0001
0100
0010
1000
0100
,
0011
0100
1000
0001
0010
0100
1000
0010
0100
0001
1000
0100
0010
0001
0100
0010
,
0100
1000
0010
0100
0001
0010
0100
1000
0001
0010
0100
1000
0100
0010
0001
0100
,
0010
1000
0100
0010
0001
0100
1000
0010
0100
0001
0010
1000
0100
0010
0100
0010
,
1001
0100
0010
0001
0100
0010
1000
0001
0010
0100
1000
0010
0100
0001
0010
1000
,
0100
0010
0100
0001
1000
0100
0010
0100
1001
0010
0100
1000
0001
0010
0100
0010
,
1000
0100
0010
0001
0100
0010
1000
0100
0001
0010
0100
1000
0011
1100
0011
1100
,
0012
0000
0000
0000
1000
0100
0010
0100
1000
0000
0100
0000
0010
0000
0000
0000
,
0100
0010
1000
0100
0010
0000
1000
0000
0113
0000
0000
0000
0001
1000
0001
0010
,
1000
0000
0100
0000
1001
0000
0000
0000
0010
0100
1000
0001
0010
0000
0100
0000
,
1010
0000
0000
0000
0100
0010
0001
0100
1000
0000
0010
0000
1001
0000
0000
0000
,
0010
0100
0010
1000
0001
0000
0100
0000
0011
0000
0000
0000
0100
0010
0100
0001
,
1000
0000
0010
0000
1100
0000
0000
0000
0001
1000
0001
0100
0010
0000
0200
0000
,
0000
0000
0000
0000
,
0000
0000
0000
0000
,
0000
0000
0000
0000
,
0300
0000
0000
0000
;

//---------------dance-single - ----------------
#NOTEDATA:;
#CHARTNAME:;
#STEPSTYPE:dance-single;
#DESCRIPTION:;
#CHARTSTYLE:;
#DIFFICULTY:Medium;
#METER:10;
#RADARVALUES:0.507328,0.689649,0.169109,0.063416,0.000000,504.000000,480.000000,24.000000,9.000000,0.000000,0.000000,0.000000,0.000000,0.000000,0.507328,0.689649,0.169109,0.063416,0.000000,504.000000,480.000000,24.000000,9.000000,0.000000,0.000000,0.000000,0.000000,0.000000;
#CREDIT:;
#DISPLAYBPM:*;
#NOTES:
0000
0000
0000
0000
,
0000
0000
0000
0000
,
0000
0000
0000
0000
,
0000
0000
0000
0000
1000
0100
0010
1000
,
0010
1000
0010
0100
0010
0100
0001
0100
,
0001
1000
0010
1000
0100
0001
0100
0010
,
0100
0010
1000
0001
1000
0100
0010
0100
,
0001
0010
0001
0100
1000
0100
0010
0100
,
0010
0001
0010
0001
0100
0010
0100
1000
,
0010
0100
0001
0100
1010
0100
0010
0001
,
0100
0010
1001
0010
0100
1000
0100
0010
,
0110
1000
0010
1000
0001
0100
1001
0010
,
0100
0001
1000
0010
0100
0000
0010
0000
,
1000
0001
0100
0010
,
1100
0010
0100
0001
,
0010
0100
0011
1000
,
0100
0010
1000
0001
,
0110
1000
0100
0010
,
0100
0001
1010
0100
,
0010
0100
0001
0010
,
0100
0010
1000
0100
,
0010
0001
0100
0001
,
0010
1000
1000
0010
,
0100
0001
0010
0100
,
0010
1000
0010
0100
,
0100
0001
1000
1000
,
0100
0001
0001
0100
,
0010
0010
1000
0100
,
0100
0010
0001
0001
,
0100
0010
0100
0001
,
1000
0010
1001
0100
,
0010
1000
0100
0010
,
0101
0010
1000
0001
,
0010
0100
0011
0100
,
0010
1000
0100
0010
,
0100
0010
1000
0001
,
0100
0010
1100
0010
,
0100
0010
0001
0010
,
0100
1000
0100
0010
,
0001
1000
0001
0100
0010
0000
0100
0000
,
0010
1000
0010
0100
,
0001
0100
0010
0100
,
0001
1000
0001
1000
1001
0000
0010
0000
,
0100
0010
1000
0000
0100
0000
0001
0100
,
0001
0000
0010
0000
1000
0010
0100
0000
,
0100
0000
0010
0100
0101
0000
0010
0000
,
0100
0010
1000
0000
0001
0000
0010
1000
,
0010
0000
0010
0000
0100
0010
0001
0000
,
0100
0000
0010
1000
1001
0000
0010
0000
,
0100
0001
0100
0000
0010
0000
0100
0001
,
1001
0000
0010
0000
0100
0001
1000
0000
,
0100
0010
1100
0010
,
0100
0001
1000
0000
0010
0000
1000
0010
,
0110
0000
0001
0000
1000
0100
0010
0000
,
0100
0010
1002
0000
,
0000
0023
0000
0000
,
0230
0000
0000
2300
,
0000
0000
3020
0000
,
0000
0230
0000
0000
,
0302
0000
0000
2003
,
0000
0000
3010
1000
,
0001
0100
0010
0100
,
0010
1000
0100
0010
,
0100
0010
1000
0001
,
0010
0100
1000
0100
,
0010
0100
0010
1000
,
0100
0010
0100
0010
1001
0000
0000
0010
,
0000
0000
0100
0000
0000
0010
0000
0000
,
1000
0000
0100
0001
0010
0000
0010
0000
,
0100
0001
0100
0000
0010
0000
0100
0001
,
1000
0010
0010
0100
0010
0010
1000
0001
,
0100
0000
0010
1000
0010
0000
0100
0010
,
1000
1000
0001
0100
0010
0100
0100
0010
,
1000
1000
0001
0100
0010
1000
0010
0100
,
0001
0000
0100
0010
1000
0000
0001
0000
,
1000
0010
0100
0000
0010
0000
0100
0001
,
1000
0010
0100
0010
,
1001
0100
0010
0101
,
0010
1000
0101
0010
,
1000
0000
0101
0000
0010
0100
0001
0100
,
0010
0000
0100
0001
1000
0000
0100
0000
,
0001
1000
0010
0000
0100
0000
0001
0100
,
0001
1000
1000
0010
0100
0100
0001
0010
,
0001
0000
1000
0010
0100
0000
0010
0100
,
0010
0010
1000
0001
0100
0010
0010
1000
,
0001
0001
0100
0010
1000
0100
0001
0100
,
0010
0000
0100
0010
1000
0000
0001
0000
,
0100
0010
0001
0000
0010
0000
0100
0010
,
1000
0001
0001
0100
0010
0010
0100
0001
,
1000
0100
0100
0010
0001
0001
0010
1000
,
0010
0100
0001
0010
0100
1000
0010
0100
,
0001
1000
0001
0100
0010
0100
0001
0100
,
0020
0000
0000
0000
,
0000
0000
0000
0000
0030
0000
1000
0001
,
0010
0100
1000
0000
0100
0010
0100
0001
,
1000
0000
0100
0010
0100
0010
1000
0000
,
0100
0010
0001
0010
0100
0000
1000
0100
,
0010
0100
1000
0000
0100
0010
0100
0001
;

//---------------dance-single - Copied from----------------
#NOTEDATA:;
#CHARTNAME:Copied from;
#STEPSTYPE:dance-single;
#DESCRIPTION:Copied from;
#CHARTSTYLE:;
#DIFFICULTY:Easy;
#METER:6;
#RADARVALUES:0.286882,0.445409,0.035231,0.007046,0.000000,285.000000,280.000000,5.000000,1.000000,0.000000,0.000000,0.000000,0.000000,0.000000,0.286882,0.445409,0.035231,0.007046,0.000000,285.000000,280.000000,5.000000,1.000000,0.000000,0.000000,0.000000,0.000000,0.000000;
#CREDIT:Copied from;
#DISPLAYBPM:*;
#NOTES:
0000
0000
0000
0000
,
0000
0000
0000
0000
,
0000
0000
0000
0000
,
0000
0000
0000
0000
0000
0100
1000
0000
,
0001
0010
0000
0100
1000
0000
0010
0100
,
0000
0001
0010
0000
1000
0100
0000
0010
,
0001
0000
0100
0010
0000
1000
0100
0000
,
0010
0001
0000
0100
0010
0000
0001
1000
,
0000
0100
0010
0000
1000
0100
0000
0010
,
0001
0000
0100
0010
0000
0010
0100
0000
,
1000
0001
0000
0010
0100
0000
0001
1000
,
0000
0010
0100
0000
1000
0010
0000
0001
,
0100
0000
0010
0100
1001
0000
0000
0010
,
0000
0100
0001
0100
,
0010
0000
0000
1000
0000
0000
0010
0000
,
0100
0000
0001
0000
0100
0000
0000
0010
,
0000
1000
0001
0100
,
0010
0000
0000
0001
0000
0000
0100
0000
,
0010
1000
0001
0000
,
0000
0001
0100
0010
,
0100
0000
0000
1000
,
0100
0010
0100
0000
,
0000
0001
1000
0010
,
0100
0000
0000
0010
,
1000
0001
0100
0000
,
0000
0010
0100
0001
,
1000
0000
0000
0100
,
1000
0100
0010
0000
,
0000
0001
0010
0100
,
0010
0000
0000
1000
,
0100
0000
0010
0000
1000
0000
0000
0100
,
0000
0000
0010
0000
0000
0001
0000
0000
,
0100
0000
0000
0010
0000
0000
1000
0000
,
0000
0100
0000
0000
0010
0000
0000
1000
,
0000
0000
0001
0000
0000
0100
0000
0000
,
0010
0000
0000
1000
0000
0000
0100
0000
,
0000
0010
0000
0000
1000
0000
0000
0000
,
0000
0100
0000
0000
,
0100
0000
0000
0010
,
0000
0000
0010
0000
,
0000
0000
0000
0000
,
1001
0000
0000
0000
,
0000
0000
1000
0100
,
0010
0100
0001
0010
,
0100
1000
0010
0100
,
0000
0000
1000
0010
,
0100
0001
0100
0010
,
1000
0010
0100
0001
,
0000
0000
0100
0010
,
1000
0001
0010
0100
,
0001
1000
0010
0100
,
0000
0000
0100
1000
,
0010
0100
0001
0100
,
1000
0100
0010
0100
,
0000
0000
0001
0000
,
0000
0010
0000
0000
,
0100
0000
0000
1000
,
0000
0000
0010
0000
,
0000
0100
0000
0000
,
0010
0000
0000
0100
,
0000
0000
1001
0000
,
0000
0010
0000
0000
,
0100
0000
0000
0010
,
0000
0000
1100
0000
,
0000
0010
0000
0000
,
0100
0000
0000
0010
,
0000
0000
1001
0000
,
0000
0000
0000
0000
,
0100
0000
0010
0100
,
0001
1000
0010
0100
,
1000
0100
0010
0100
,
0001
0010
0100
1000
,
0010
0100
0001
0010
,
0100
1000
0100
0010
,
1000
0100
0010
0100
,
0001
0010
0100
1000
,
0010
0100
0100
0010
,
0001
0010
0100
1000
,
0100
0010
0100
0100
,
0010
0100
0001
1000
,
0010
0100
0100
0001
,
1000
0010
0100
0001
,
0001
0100
0010
1000
,
0010
0100
0100
0010
,
1000
0010
0100
0001
,
0001
0100
0010
1000
,
0010
0100
0100
0010
,
1000
0001
0100
1000
,
1000
0100
0010
0100
,
0001
0100
0100
0010
,
1000
0010
0100
0100
,
0100
0010
0010
0010
,
0200
0000
0000
0000
,
0000
0000
0300
0000
,
0000
1000
0000
0000
,
0010
0000
0000
0100
,
0000
0000
0001
0000
,
0000
0100
0000
0000
;

//---------------dance-single - Copied from Copied f----------------
#NOTEDATA:;
#CHARTNAME:Copied from Copied f;
#STEPSTYPE:dance-single;
#DESCRIPTION:Copied from Copied f;
#CHARTSTYLE:;
#DIFFICULTY:Beginner;
#METER:3;
#RADARVALUES:0.134885,0.239836,0.042277,0.021139,0.000000,134.000000,128.000000,6.000000,3.000000,0.000000,0.000000,0.000000,0.000000,0.000000,0.134885,0.239836,0.042277,0.021139,0.000000,134.000000,128.000000,6.000000,3.000000,0.000000,0.000000,0.000000,0.000000,0.000000;
#CREDIT:Copied from Copied f;
#DISPLAYBPM:*;
#NOTES:
0000
0000
0000
0000
,
0000
0000
0000
0000
,
0000
0000
0000
0000
,
0000
0000
1000
0100
,
0000
0010
0000
0001
,
1000
0100
0000
0010
,
0001
0000
0100
1000
,
0000
0010
0001
0000
,
1000
0100
0000
0010
,
1000
0000
0100
0100
,
0000
0010
0010
0000
,
1000
1000
0000
0100
,
0100
0000
1000
0000
,
0000
1000
0000
0000
,
0100
0000
0000
0100
,
0000
0000
0010
0000
,
0000
0010
0000
0000
,
0001
0000
0000
0001
,
0000
0000
1000
0000
,
0000
1000
0000
0000
,
0100
0000
0000
0100
,
0000
0000
0010
0000
,
0000
0010
0000
0000
,
0001
0000
0000
0100
,
0000
0000
0010
0000
,
0000
1000
0000
0000
,
0100
0000
0000
0010
,
0000
0000
1000
0000
,
0000
0001
0000
0000
,
0100
0000
0000
0010
,
0000
0000
1001
0000
,
0000
1000
0000
0000
,
0100
0000
0000
0010
,
0000
0000
0100
0000
,
0000
0010
0000
0000
,
0001
0000
0000
1000
,
0000
0000
0100
0000
,
0000
0100
0000
0000
,
0010
0000
0000
0010
,
0000
0000
0001
0000
,
0000
0000
0000
0000
,
1000
0000
0000
0000
,
0000
0000
0100
0000
,
0000
0100
0000
0000
,
0010
0000
0000
0010
,
0000
0000
0001
0000
,
0000
0001
0000
0000
,
0100
0000
0000
0100
,
0000
0000
1000
0000
,
0000
1000
0000
0000
,
0100
0000
0000
0100
,
0000
0000
0010
0000
,
0000
0010
0000
0000
,
0001
0000
0000
0001
,
0000
0000
1000
0000
,
0000
0000
0000
0000
,
1000
0000
0000
0000
,
0000
0000
0100
0000
,
0000
0000
0000
0000
,
0100
0000
0000
0000
,
0000
0000
0010
0000
,
0000
0010
0000
0000
,
0100
0000
0000
0100
,
0000
0000
1000
0000
,
0000
1000
0000
0000
,
0001
0000
0000
0002
,
0000
0000
0003
0000
,
0000
0000
0000
0000
,
1000
0000
0000
1000
,
0000
0000
0100
0000
,
0000
0100
0000
0000
,
0010
0000
0000
0100
,
0000
0000
1000
0000
,
0000
1000
0000
0000
,
0001
0000
0000
0001
,
0000
0000
0100
0000
,
0000
0100
0000
0000
,
0010
0000
0000
0010
,
0000
0000
0100
0000
,
0000
0100
0000
0000
,
1001
0000
0000
0010
,
0000
0000
0001
0000
,
0000
0100
0000
0000
,
0010
0000
0000
1000
,
0000
0000
0010
0000
,
0000
0100
0000
0000
,
1001
0000
0000
0010
,
0000
0000
0100
0000
,
0000
0001
0000
0000
,
0011
0000
0000
0100
,
0000
0000
1100
0000
,
0000
0010
0000
0000
,
2002
0000
0000
0000
,
0000
0000
3003
0000
,
0000
0100
0000
0000
,
0100
0000
0000
0100
,
0000
0000
0100
0000
,
0000
0010
0000
0000
;

//---------------dance-single - ----------------
#NOTEDATA:;
#CHARTNAME:;
#STEPSTYPE:dance-single;
#DESCRIPTION:;
#CHARTSTYLE:;
#DIFFICULTY:Hard;
#METER:16;
#RADARVALUES:0.723748,1.138670,0.098647,0.577790,0.373450,719.000000,705.000000,14.000000,82.000000,0.000000,0.000000,0.000000,0.000000,0.000000,0.723748,1.138670,0.098647,0.577790,0.373450,719.000000,705.000000,14.000000,82.000000,0.000000,0.000000,0.000000,0.000000,0.000000;
#CREDIT:;
#DISPLAYBPM:*;
#NOTES:
// measure 0
0000
0000
0000
0000
,  // measure 1
0000
0000
0000
0000
,  // measure 2
0000
0000
0000
0000
,  // measure 3
0000
0000
0000
0000
0000
0000
0000
0000
0001
0000
1000
0010
0000
0100
0001
0000
,  // measure 4
1000
0010
0100
0001
0010
0000
0001
0100
0000
0100
0010
0000
0100
0001
1000
0100
,  // measure 5
0010
0000
0001
1000
0000
0100
0010
0000
0001
0100
0010
0100
0001
0000
0010
0100
,  // measure 6
0000
1000
0100
0000
0010
0001
0010
0100
1000
0010
0100
0001
0010
0100
1000
0000
,  // measure 7
0010
0001
1000
0010
0100
0000
0010
0001
1000
0100
0010
0000
0001
1000
0100
0010
,  // measure 8
0001
0000
0010
0100
0010
1000
0001
0000
0100
1000
0001
0100
0001
0000
0010
0100
,  // measure 9
0010
1000
0001
0000
1000
0100
0010
0001
1001
0000
1000
0100
0010
0001
0100
0000
,  // measure 10
0001
1000
0001
1000
0001
0000
0100
0000
0010
0000
0000
0000
0010
0000
0100
0000
0010
0000
1000
0000
0001
0000
0000
0000
0010
0000
0000
0000
0100
0000
1000
0000
,  // measure 11
1100
0000
0000
0000
0001
0000
0100
0000
0010
0000
0100
0000
0010
0000
0000
0000
0001
1000
0001
1000
0001
0000
0100
0000
0010
0000
0000
0000
0010
0000
0100
0000
,  // measure 12
0001
0000
0100
0000
0010
0000
0000
0000
0001
0000
0010
0100
0010
0000
1000
0000
1002
0000
0000
0000
0000
0000
0000
0000
1000
0000
0000
0000
0010
0000
0000
0000
,  // measure 13
0000
0010
1000
0000
0023
0000
0230
0000
,  // measure 14
2300
0000
0001
0100
0000
0100
3002
0000
,  // measure 15
0023
0230
0320
0230
,  // measure 16
2300
3200
0320
0032
,  // measure 17
2003
0000
0001
0100
0000
0100
3002
0000
,  // measure 18
1000
0000
0100
0000
1003
0001
0100
0010
,  // measure 19
0000
0010
0010
0100
0010
1000
0100
0010
,  // measure 20
0001
0010
0100
0010
0000
0001
1000
0001
,  // measure 21
0100
0010
1000
0001
0010
0100
1000
0100
,  // measure 22
0000
0010
0001
0100
0010
1000
0001
0001
,  // measure 23
0010
0100
1000
0010
0100
0001
1000
0100
,  // measure 24
0010
0001
0010
0100
1000
0000
0020
0031
,  // measure 25
0200
0301
1000
0000
0002
0013
2000
3010
,  // measure 26
1000
0000
0020
1030
0002
1003
0010
0000
,  // measure 27
0200
0310
2000
3010
0100
0000
0002
1003
,  // measure 28
0200
0310
0100
0000
0002
0103
0020
0130
,  // measure 29
1000
0001
0100
0001
0010
0100
2000
0000
,  // measure 30
0000
0000
3020
0001
,  // measure 31
2030
0000
3020
0000
0130
0200
0001
0300
,  // measure 32
0002
0100
0013
2000
,  // measure 33
3020
0230
0320
2030
,  // measure 34
3002
0203
0320
2030
,  // measure 35
3200
0302
0023
0230
,  // measure 36
2300
3200
0320
0000
,  // measure 37
0000
0000
0000
0000
,  // measure 38
1030
0001
0020
0031
0200
0301
2000
3010
,  // measure 39
0010
0100
0001
0100
0020
0000
0000
0000
,  // measure 40
0000
0000
0000
0000
,  // measure 41
0230
0000
0000
0000
0000
0000
0320
0030
,  // measure 42
0001
1000
0001
0100
0010
0100
0001
0100
0001
0000
1000
0001
1000
0000
0010
0000
,  // measure 43
0100
0000
0010
0000
1000
0000
0001
0100
0001
0000
0100
0000
0010
0000
1000
0000
,  // measure 44
0001
0000
0001
0100
0001
0000
1000
0000
0010
0000
0100
0000
0001
0000
0100
0001
,  // measure 45
0100
0000
0010
0000
0010
0000
0100
0000
0001
0000
1000
0010
1000
0000
0001
0000
,  // measure 46
1000
0000
0010
0000
0010
0000
0100
0001
0100
0000
0010
0000
1000
0000
0001
0000
,  // measure 47
0100
0000
0010
0100
0010
0000
0001
0000
1000
0000
0010
0000
0100
0000
0001
1000
,  // measure 48
0001
0000
0010
0000
0100
0000
1000
0000
1001
0000
0001
0100
0010
0000
1000
0000
,  // measure 49
0001
0000
0100
0000
0110
0000
0000
0000
0001
0100
0001
0000
1001
0000
0000
0000
,  // measure 50
1010
0000
0000
0000
1000
0010
0100
0000
0010
0000
0100
0000
0110
0000
0000
0000
,  // measure 51
1010
0000
0000
0000
1001
0000
0000
0000
0101
0000
0000
0000
1000
0010
1000
0000
,  // measure 52
0001
0000
0100
0000
0110
0000
0000
0000
1000
0001
1000
0000
1010
0000
0000
0000
,  // measure 53
0101
0000
0000
0000
0010
1000
0010
0000
0100
0000
0001
0000
0020
0000
0000
0000
,  // measure 54
0230
2300
3002
0000
,  // measure 55
2003
3200
0320
0230
,  // measure 56
2300
0000
0000
3020
,  // measure 57
0000
0230
0000
0000
0320
0000
0000
2030
,  // measure 58
0000
3002
0023
0230
,  // measure 59
2300
3200
0320
0032
,  // measure 60
0023
0000
0230
0000
1300
1000
0010
0100
,  // measure 61
0001
0100
0010
1000
1000
0010
0100
0001
,  // measure 62
0010
0001
0100
0010
1000
0010
0100
0010
,  // measure 63
0010
0100
0010
1000
0001
0100
0010
0100
,  // measure 64
0001
1000
0010
0100
0100
0001
0100
0010
,  // measure 65
0100
0010
1000
0001
0100
0010
0100
0100
,  // measure 66
0001
1000
0001
1000
0001
1000
0001
1000
0001
0000
0000
0000
0000
0000
0001
0000
,  // measure 67
0000
0000
0001
0000
0000
0200
0320
0032
,  // measure 68
1003
0010
0100
0010
0100
0001
1000
0001
,  // measure 69
0001
0010
0100
0010
0001
1000
0100
0010
,  // measure 70
0001
0000
1000
0000
0001
0000
0010
0000
0100
0000
0100
0000
1000
0000
0010
0100
,  // measure 71
0010
1000
0001
0100
0001
1000
0010
0100
,  // measure 72
0010
0010
1000
0010
0100
0001
0001
1000
,  // measure 73
0100
0000
0100
0000
0010
0000
0001
1000
0001
0000
1000
0000
0010
0000
0100
0010
,  // measure 74
0100
0001
1000
0010
1000
0001
0100
0010
,  // measure 75
1000
1000
0010
0100
0001
0100
0010
0010
,  // measure 76
1000
0010
0010
0100
0001
0001
0100
0010
,  // measure 77
0100
0000
0001
0000
0001
0000
0010
0000
0100
0000
0100
0000
1000
0000
0010
0100
,  // measure 78
0010
0000
0100
0000
0010
0000
1000
0001
1000
0000
0010
0000
0010
0000
0100
0000
,  // measure 79
0001
0000
0010
0100
0000
0100
0010
0000
0001
0000
1000
0010
0000
0010
1000
0000
,  // measure 80
0010
0100
0001
0010
0100
1000
0010
0100
,  // measure 81
0001
0001
0100
0010
0100
0001
1000
1000
,  // measure 82
0010
0000
0001
0000
0001
0000
0100
0000
0010
0000
0010
0000
1000
0000
0001
0100
,  // measure 83
0001
1000
0001
0100
0001
0010
0100
1000
,  // measure 84
0010
0010
1000
0001
0010
0001
0001
0100
,  // measure 85
0001
0000
0001
0000
1000
0000
0010
1000
0010
0000
0100
0000
0001
0000
0100
0010
,  // measure 86
0100
0000
0001
0000
1000
0000
0010
0000
0100
0000
0010
0000
0100
0000
0001
1000
,  // measure 87
0001
0000
0001
0000
0010
0000
0100
0000
1000
0000
0001
0100
0001
0000
1000
0000
,  // measure 88
0100
0010
0010
0001
1000
1000
0010
0100
,  // measure 89
0010
0000
0100
0000
0100
0000
0001
0000
1000
0000
1000
0000
0010
0000
0100
0001
,  // measure 90
0100
0000
0100
0000
0010
0000
1000
0001
0000
0001
1000
0000
0010
0100
0001
0000
,  // measure 91
1000
0000
0010
0100
0001
0100
0010
0100
0001
1000
0010
0100
0001
1000
0001
1000
,  // measure 92
0002
0000
0000
0100
,  // measure 93
0000
0000
0000
0000
0000
0000
0000
0000
1003
0000
0000
0000
0001
0100
0001
0000
,  // measure 94
1000
0000
0010
0000
1000
0000
0000
0000
0010
0100
0010
0000
1000
0000
0001
0000
,  // measure 95
1000
0000
0000
0000
0010
1000
0010
0000
0100
0000
0010
0000
0100
0000
0000
0000
,  // measure 96
0001
1000
0001
0000
0100
0000
0010
0000
0100
0000
0000
0000
1000
0010
1000
0000
,  // measure 97
0001
0000
1000
0000
0001
0000
0000
0000
0100
0010
0100
0000
0010
0000
2000
0000
,  // measure 98
0000
0000
0000
0000
,  // measure 99
0000
0000
0000
0000
,  // measure 100
0000
0000
0000
0000
,  // measure 101
3000
0000
0000
0000
;
