#TITLE:Terpesona;
#SUBTITLE:;
#ARTIST:Isyana Sarasvati, Gamaliel;
#TITLETRANSLIT:;
#SUBTITLETRANSLIT:;
#ARTISTTRANSLIT:;
#GENRE:;
#CREDIT:;
#BANNER:AV.avi;
#BACKGROUND:BG.png;
#LYRICSPATH:;
#CDTITLE:;
#MUSIC:audio.mp3;
#OFFSET:-0.280000;
#SAMPLESTART:92.400002;
#SAMPLELENGTH:20.000000;
#SELECTABLE:YES;
#DISPLAYBPM:88.000000:44.000000;
#BPMS:0.000000=88.010002
,110.000000=176.020004
,111.500000=38.560001
,111.750000=88.019997
,112.000000=88.010002
,117.500000=176.020004
,119.000000=49.419998
,119.250000=88.059998
,120.500000=88.010002
,135.000000=44.005001
,139.000000=88.010002
;
#STOPS:110.000000=0.140000,
110.500000=0.120000,
110.750000=0.120000,
111.000000=0.270000,
117.500000=0.120000,
118.000000=0.100000,
118.500000=0.120000,
118.750000=0.260000,
119.250000=0.120000
;
#BGCHANGES:0.000=MV.avi=1.200=1=1=1=StretchRewind==CrossFade==,
3.000=MV.avi=1.000=0=0=1=====,
99999=-nosongbg-=1.000=0=0=0 // don't automatically add -songbackground-
;
#KEYSOUNDS:;
#ATTACKS:;

//---------------dance-single - ----------------
#NOTES:
     dance-single:
     :
     Challenge:
     17:
     0.812043,0.849293,1.853909,1.156778,0.796721,742.000000,500.000000,242.000000,151.000000,0.000000,83.000000,0.812043,0.849293,1.853909,1.156778,0.796721,742.000000,500.000000,242.000000,151.000000,0.000000,83.000000:
0000
0000
0000
0000
,
0000
0000
0000
0000
,
1010
0000
0000
0100
1001
0000
0110
0000
0000
1000
0110
0000
1001
0000
0010
0000
,
1100
0000
0000
0010
1001
0000
1010
0000
0000
0001
1100
0000
0110
1100
0010
0000
,
0011
0000
0000
1000
0101
0000
1001
0000
0000
0100
1001
0000
0110
0000
0010
0000
,
1100
0000
0000
0000
0000
0000
0000
0000
0000
0001
0000
0000
1100
0000
0000
0000
0000
0000
0110
0000
0000
0000
0000
0000
0000
0000
0000
0010
0000
0000
1001
0000
0000
0000
0000
0000
0110
0000
0000
1001
0000
0000
0010
0000
1001
0000
0000
0000
,
0011
0000
0000
1000
0101
0000
1010
0000
0000
0001
1010
0000
0101
0000
0010
0000
,
1001
0000
0000
0010
0101
0000
0011
0000
0000
0100
1001
0000
1010
1001
0010
0000
,
0110
0000
0000
0001
1100
0000
0101
0000
0000
1000
0101
0000
1010
0000
0010
0000
,
1001
0000
0000
0000
0000
0000
0000
0000
0000
0100
0000
0000
1001
0000
0000
0000
0000
0000
1010
0000
0000
0000
0000
0000
0000
0000
0000
0010
0000
0000
0101
0000
0000
0000
0000
0000
1010
0000
0000
0101
0000
0000
0010
0000
0101
0000
0000
0000
,
1100
0000
0000
0110
0000
0000
1001
0000
0000
0110
0000
0000
0000
0000
1100
0000
,
0110
0000
0000
0000
0000
0000
0000
0000
0000
1001
0000
0000
0000
0000
0000
0000
0000
0000
0110
0000
0000
0000
0000
0000
0000
0000
0000
1001
0000
0000
0020
0000
0000
0000
0000
0000
0230
0000
0000
0000
0000
0000
0302
0000
0000
0010
0100
1000
,
0103
0000
0000
0110
0000
0000
1001
0000
0000
0110
0000
0000
0000
0002
1203
0302
,
0113
0000
0000
0000
0000
0000
0000
0000
0000
1001
0000
0000
0000
0000
0000
0000
0000
0000
0110
0000
0000
0000
0000
0000
0000
0000
0000
1001
0000
0000
0000
0000
0000
0000
0000
0000
0000
0000
0000
1100
0000
0000
0000
0000
1100
0010
0001
1000
,
0010
0000
0000
1100
0110
0000
1001
0000
0000
0101
1100
0000
0110
0101
1010
0000
,
0110
0000
0000
0000
0000
0000
0000
0000
0000
0110
0000
0000
0101
0000
0000
0000
0000
0000
0110
0000
0000
0000
0000
0000
0000
0000
0000
1100
0000
0000
0011
0000
0000
0000
0000
0000
0110
0000
0000
1100
0000
0000
1001
0000
0000
1000
0001
0010
,
0100
0000
0000
1100
0110
0000
1001
0000
0000
0110
0011
0000
1010
0110
1001
0000
,
0110
0000
0000
0000
0000
0000
0000
0000
0000
0000
0000
0000
0000
0000
0000
0000
0000
0000
0000
0000
0000
0000
0000
0000
1001
0000
0000
0000
0000
0000
0000
0000
0000
0000
0000
0000
0000
0000
0000
0000
0000
0000
0000
0000
0000
0000
0000
0000
0110
0000
0000
0000
0000
0000
0000
0000
0000
0000
0000
0000
0000
0000
0000
0000
0000
0000
0000
0000
0000
0000
0000
0000
1100
0000
0000
0000
0000
0000
0000
0000
0000
0000
0000
0000
0010
0000
0000
0000
0000
0000
1000
0000
0000
0000
0000
0000
0100
0000
0000
0000
0000
0000
0000
0000
0000
0000
0000
0000
0001
0000
0000
0000
0000
0000
0000
0000
0000
0000
0000
0000
1000
0000
0000
0000
0000
0000
0000
0000
0000
0000
0000
0000
0000
0000
0000
0000
0000
0000
0000
0000
0000
0000
0000
0000
0100
0000
0000
0000
0000
0000
0000
0000
0000
0000
0000
0000
1010
0000
0000
0000
0000
0000
0000
0000
0000
0000
0000
0000
0001
0000
0000
0000
0000
0000
0000
0000
0110
0000
0000
0000
1000
0000
0000
0000
0000
0000
0000
0000
0000
0000
0000
0000
,
0020
0000
1001
0130
2000
0000
3010
0002
0023
1000
0231
0000
2300
3020
2130
3012
,
1203
0300
1002
0010
1203
0000
0010
0000
1300
0100
1001
0000
0200
0000
0001
0320
,
1001
0000
0101
1000
0130
0000
0021
0230
0302
0010
2003
3002
2003
3002
0203
0302
,
1023
0000
0000
0000
0000
0000
0231
0000
0000
1000
0000
0000
0321
0000
0000
0000
0000
0000
1031
0000
0000
0000
0000
0000
1100
0000
0000
0000
0000
0000
1001
0000
0000
0000
0000
0000
2000
0000
0000
3210
0000
0000
0302
0000
1100
0023
0000
0000
,
2031
0000
0101
0010
3201
0000
1001
0320
2030
3001
0210
0000
1001
0311
2000
3200
,
0312
0000
0110
1000
0203
0000
1301
0020
2030
0001
3210
0000
1000
0321
0230
0320
,
0101
2030
0100
3001
1100
0002
0123
0032
0000
0203
0011
1000
0311
1100
0010
0000
,
1002
0000
0000
0000
1010
0000
0000
0000
1010
0000
0200
0000
2303
0000
3020
0000
0000
0000
0000
0000
0100
0000
1000
0000
0231
0000
1000
0000
0010
0001
1000
0001
,
1010
0000
0000
1000
0001
0000
0010
0000
1300
0000
0010
0000
1100
0000
0011
0000
1100
0000
0010
0000
1001
0000
0000
0000
0000
0000
0000
0000
0110
0000
0000
0000
,
1000
0000
0001
0100
1000
0000
0010
0000
1000
0000
0001
0000
0100
0000
0010
0000
1001
0000
0000
0000
0110
0000
0101
0000
1010
0000
0000
0000
0210
0000
0010
0001
,
1300
0001
0100
0010
1100
0011
1100
0010
1001
0000
1000
0000
0120
0000
0000
0000
,
0000
1030
0010
0100
0011
1100
0011
0000
0110
0000
0110
1001
0210
0302
0023
0000
,
1030
0100
0011
1100
0011
0000
1001
0000
0001
0010
1200
0010
1000
0000
0011
0000
,
0010
0000
0000
1300
0000
0000
0011
0000
0000
1100
0000
0000
0011
0000
0000
0000
0000
0000
1001
0000
0000
0000
0000
0000
0010
0000
0000
0110
0000
0000
0000
0000
1001
0000
0000
0000
0120
0000
0000
2030
0000
0000
3020
0000
0000
1230
0000
0000
,
0302
0000
0000
2003
0000
0000
3210
0000
0000
0302
0000
0000
2003
0000
0000
3012
0000
0000
0123
0000
0000
0230
0000
0000
2300
0000
0000
3200
0000
0000
0320
0000
0000
2030
0001
0010
3200
0000
0000
0000
0000
0000
0300
0000
0000
0011
0000
0000
,
1020
0000
0000
0000
0000
0000
0000
0000
0000
0000
0000
0000
0000
0000
0000
0000
0000
0000
0000
0000
0000
0000
0000
0000
1031
0000
0000
0000
0000
0000
0000
0000
0000
0000
0000
0000
0000
0000
0000
0000
0000
0000
0000
0000
0000
0000
0000
0000
0200
0000
0000
0000
0000
0000
0000
0000
0000
0000
0000
0000
0011
0000
0000
0000
0000
0000
0000
0000
0000
0000
0000
0000
1010
0000
0000
0000
0000
0000
0000
0000
0000
0000
0000
0000
0300
0000
0000
0000
0000
0000
0000
0000
0000
0000
0000
0000
0002
0000
0000
0000
0000
0000
0000
0000
0000
0000
0000
0000
1200
0000
0000
0000
0000
0000
0000
0000
0000
0000
0000
0000
2303
0000
0000
0000
0000
0000
0000
0000
0011
0000
0000
0000
3200
0000
0000
0000
0000
0000
0000
0000
0000
0000
0000
0000
0302
0000
0000
0000
0000
0000
0000
0000
0000
0000
0000
0000
0000
0000
0000
0000
0000
0000
0000
0000
0000
0000
0000
0000
0203
0000
0000
0000
0000
0000
0000
0000
0000
0000
0000
0000
0300
0000
0000
0000
0000
0000
2000
0000
0000
0000
0000
0000
,
3020
0000
0000
0000
0230
0000
0000
0000
2300
0000
3200
0000
0320
0000
0230
0000
0302
0000
0000
0000
2003
0000
0000
0000
3020
0000
0000
0000
0030
0000
0100
1000
0100
0000
0011
0000
1001
0000
0000
0000
2010
0000
0101
0000
0110
0000
3002
0000
0110
0000
0000
0000
0000
0000
0000
0000
1103
0000
0000
0000
0010
0000
0000
0000
,
1000
0000
0102
2003
3200
0001
0320
0230
0320
0230
2300
3200
0312
0000
2103
0010
,
3102
0000
0000
0000
0000
0000
0113
0000
0000
0000
0000
0000
1010
0000
0000
0000
0000
0000
0110
0000
0000
0000
0000
0000
0020
0000
0000
2031
0000
0000
3200
0000
1010
0302
0000
0000
1023
0000
0000
0000
0000
0000
0101
0000
0000
0001
0000
0000
,
2130
0000
0110
3002
0023
0130
2001
0000
0110
3101
0020
2030
3201
0000
1001
0010
,
2300
0000
3110
0002
0023
0100
2031
0000
0100
3021
0230
0320
1100
0032
0100
1003
,
0110
0002
0123
0032
0000
0203
0011
1000
0311
1100
0010
0000
1002
0000
1010
0000
,
1010
0000
0000
0000
0000
0000
0000
0000
0000
0000
0000
0000
0200
0000
0000
0000
0000
0000
0000
0000
0000
0000
0000
0000
2303
0000
0000
0000
0000
0000
0000
0000
0000
0000
0000
0000
3020
0000
0000
0000
0000
0000
0100
0000
0000
0000
0000
0000
0001
0000
0000
0000
0000
0000
0000
0000
0000
0000
0000
0000
0100
0000
0000
0000
0000
0000
0000
0000
0000
0000
0000
0000
0001
0000
0000
0000
0000
0000
0000
0000
0000
0000
0000
0000
1000
0000
0000
0000
0000
0000
0000
0000
0000
0000
0000
0000
0231
0000
0000
0000
0000
0000
0000
0000
0000
0000
0000
0000
1001
0000
0000
0000
0000
0000
0000
0000
0000
0000
0000
0000
0000
0000
0000
0000
0000
0000
0000
0000
0011
0000
0000
0000
0000
0000
0000
0000
0000
0000
0000
0000
0000
0000
0000
0000
0000
0000
0000
0000
0000
0000
0000
0000
0000
0000
0000
0000
0000
0000
0000
0000
0000
0000
0000
0000
0000
0000
0000
0000
0001
0000
0000
0000
0000
0000
0000
0000
0000
0000
0000
0000
0010
0000
0000
0000
0000
0000
0000
0000
0000
0000
0000
0000
,
2301
0000
0000
0000
3011
0000
0100
0000
0001
0000
0000
0000
0100
0000
0000
0000
1001
0000
1100
0000
0001
0000
0100
0001
1010
0000
0000
0000
1001
0000
0001
0000
,
0110
0000
1000
0001
0100
0000
0110
0001
2001
0000
0010
0100
3011
0000
0100
0010
,
0210
0000
1310
0001
1000
0000
0010
0000
0101
0100
0001
0000
0110
0000
1100
0001
,
1100
0000
1000
0010
1000
0000
0001
0010
2001
0000
0010
0001
3220
0000
0000
0000
,
0000
0330
0000
0000
;

//---------------dance-single - Copied from----------------
#NOTES:
     dance-single:
     Copied from:
     Hard:
     10:
     0.402738,0.467332,0.061286,0.222163,0.379209,368.000000,360.000000,8.000000,29.000000,0.000000,0.000000,0.402738,0.467332,0.061286,0.222163,0.379209,368.000000,360.000000,8.000000,29.000000,0.000000,0.000000:
// measure 0
0000
0000
0000
0000
,  // measure 1
0000
0000
0000
0000
,  // measure 2
1000
0001
1000
0001
2000
0000
3010
0010
,  // measure 3
0100
0001
0100
0010
0200
0000
0310
1000
,  // measure 4
0001
1000
0100
0010
0001
0010
0100
1000
,  // measure 5
0010
0000
0000
0010
0000
0000
0010
0000
0000
0010
0000
0000
1000
0000
0010
0000
,  // measure 6
1000
0000
0001
0000
1000
0000
0010
1000
0020
0000
0000
0000
1030
0000
0001
0000
,  // measure 7
0100
0000
0010
0000
0100
0000
0001
0100
0020
0000
0000
0000
1030
0000
0001
0000
,  // measure 8
1000
0000
0100
0000
1000
0000
0001
1000
0020
0000
0000
0000
1030
0000
0001
0000
,  // measure 9
1000
0000
0100
0000
0010
0000
0001
0010
0002
0000
0000
0000
0013
0000
0001
0000
,  // measure 10
1000
0000
0000
1000
0000
0000
1000
0000
0000
1000
0000
0000
0000
0000
0010
0000
,  // measure 11
0100
0000
0000
0100
0000
0000
0100
0000
0000
0100
0000
0000
0000
0000
0010
1000
,  // measure 12
0010
0000
0000
0010
0000
0000
0010
0000
0000
0010
0000
0000
0000
0000
1000
0000
,  // measure 13
0001
0000
0000
0000
0000
0000
0000
0000
0000
0001
0000
0000
0000
0000
0000
0000
0000
0000
0001
0000
0000
0000
0000
0000
0000
0000
0000
0001
0000
0000
0000
0000
0000
0000
0000
0000
0000
0000
0000
0010
0000
0000
0000
0000
0100
0000
0000
0000
,  // measure 14
0010
0000
0000
0010
0000
0000
0010
0000
0000
0010
0000
0000
0100
0000
0001
0000
,  // measure 15
1000
0000
0000
1000
0000
0000
1000
0000
0000
1000
0000
0000
0010
0000
1000
0000
,  // measure 16
0001
0000
0000
0001
0000
0000
0001
0000
0000
0001
0000
0000
1000
0000
0010
0000
,  // measure 17
0100
0000
0000
0000
0000
0000
0000
0000
0100
0000
0000
0000
0000
0000
0001
0010
0001
0000
0100
0000
0001
0000
0000
0000
0010
0000
0000
0000
1000
0000
0000
0000
,  // measure 18
0002
0000
0000
0000
0013
0000
0000
0001
1000
0000
0010
0000
0001
1000
0001
1000
,  // measure 19
0001
0000
0001
0000
0002
0000
0000
0000
1003
0000
0010
0000
0010
0100
0010
0100
,  // measure 20
0020
0000
0000
0000
1030
0000
0001
1000
0010
0000
1000
0100
0010
0100
1000
0100
,  // measure 21
0010
0000
0010
0000
0020
0000
0000
0000
0031
0000
0000
0000
0010
1000
0001
1000
,  // measure 22
0020
0000
0130
0000
0001
0000
1000
0010
1000
0000
0010
0000
1000
0000
0001
0010
,  // measure 23
0002
0000
0013
0000
0010
0000
0001
1000
0010
0000
1000
0000
0010
1000
0010
1000
,  // measure 24
0020
0000
1030
0000
0100
1000
0100
1000
0200
0000
1300
0000
0001
0000
1000
0000
,  // measure 25
0001
0000
0001
0000
0001
1000
0001
2000
0000
0000
0000
0000
3020
0000
0000
0000
,  // measure 26
0130
0000
0100
0000
1001
0000
0010
1000
0001
1000
0010
0000
1000
0000
0001
0000
,  // measure 27
0001
0010
0001
0000
0001
1000
0001
0000
1000
0000
0000
0000
1000
0000
0000
0000
,  // measure 28
0001
1000
0010
1000
0001
1000
0020
0000
0000
0000
1030
0000
0000
0000
0001
0000
,  // measure 29
1000
0000
0010
0000
0100
0000
0001
0000
0000
0000
0000
0000
0000
1001
0000
0000
,  // measure 30
0001
1000
0001
0000
1001
0000
0000
0000
0010
0000
0000
0000
1000
0000
0010
0000
,  // measure 31
0001
1000
0010
0000
0100
0000
0000
0000
0001
0000
0000
0010
1000
0001
1000
0100
,  // measure 32
0010
0001
1000
0010
0100
0010
0100
0001
1000
0100
0010
0001
0020
0000
0130
0000
,  // measure 33
0002
0000
1003
0000
1000
0000
0010
0000
0010
0100
0010
0100
0020
0000
1030
0000
,  // measure 34
0001
0000
1000
0000
0010
1000
0010
0000
0010
0100
0010
0000
2001
0000
0000
0000
,  // measure 35
3010
0000
0001
1000
0001
0000
0010
1000
0001
1000
0010
1000
0001
0000
0001
0000
,  // measure 36
0002
0000
0000
0000
0013
0000
0000
0000
0010
1000
0001
1000
0200
0000
0000
0000
,  // measure 37
0310
0000
0000
0001
1000
0000
0010
0000
0110
0000
0001
1000
0002
0000
0000
0000
,  // measure 38
0013
0000
0000
0010
1000
0000
0001
0000
1001
0010
0100
0010
0000
0001
0010
0001
,  // measure 39
0000
0010
1000
0001
0000
0100
0010
0100
0000
0000
0001
0000
0010
0000
0010
0000
,  // measure 40
0010
0001
1000
0020
0000
0000
0000
0000
2030
0000
0000
0000
3001
0000
0010
1000
,  // measure 41
0010
0000
1000
0010
1000
0000
0010
0000
1010
0001
1000
0010
0100
0000
0100
0010
,  // measure 42
0100
0000
0010
1000
0010
0000
0001
0000
0020
0000
0000
0000
0031
0000
0010
1000
,  // measure 43
0010
0000
1000
0010
1000
0000
0010
0000
1010
0000
0001
0100
0001
0000
0001
0100
,  // measure 44
0001
0000
0001
0100
0001
0000
0100
0000
0002
0000
0000
0000
2003
0000
0000
0000
,  // measure 45
0000
0000
0000
3000
0000
0000
0000
0000
0000
0000
0000
0000
0000
0000
0000
0000
;

//---------------dance-single - Copied from Copied f----------------
#NOTES:
     dance-single:
     Copied from Copied f:
     Medium:
     6:
     0.258278,0.241985,0.015322,0.283449,0.000000,236.000000,234.000000,2.000000,37.000000,0.000000,0.000000,0.258278,0.241985,0.015322,0.283449,0.000000,236.000000,234.000000,2.000000,37.000000,0.000000,0.000000:
0000
0000
0000
0000
,
0000
0000
0000
0000
,
1000
0000
0010
0000
1000
0010
1000
0000
,
0001
0000
1000
0000
0001
1000
0001
0000
,
0010
0001
0010
0000
0001
1000
0001
0000
,
0020
0100
1000
0130
,
0001
1000
0001
0000
0020
0000
1030
0000
,
0001
1000
0001
0000
0020
0000
0031
0000
,
0010
1000
0010
0000
0001
1000
0001
0000
,
0020
0100
1000
0130
,
0001
1000
0001
1000
0002
0000
1003
0000
,
1000
0001
1000
0001
2000
0000
3001
0000
,
0001
1000
0001
1000
0002
0000
1003
0000
,
0010
0100
0010
0100
0020
0000
0130
0000
,
1000
0000
1000
0001
2000
0000
3010
0000
,
0001
0000
0001
1000
0002
0000
0013
0000
,
0010
1000
0010
0000
0010
0100
0010
0000
,
0001
0000
0001
0000
0001
1000
0001
1000
,
0002
0000
0013
0000
1000
0010
1000
0010
,
0100
0100
0200
0000
0310
0000
0001
1000
,
0002
0000
1003
0010
1000
0010
1000
0010
,
1000
1000
2000
0000
3100
0000
0010
1000
,
0020
0000
2030
0000
3002
0000
0103
0010
,
0200
0000
0320
0000
2030
0000
3001
0100
,
0002
0000
1003
0010
2000
0000
3010
0100
,
0002
1000
0010
1000
,
0103
0010
1000
0010
1000
0000
0001
0000
,
0010
1000
0010
1000
0010
0000
0000
1000
,
0000
0010
1000
0010
0000
1000
0000
0001
,
0000
0010
1000
0010
0000
0000
0000
0000
,
0000
0000
1010
0000
0001
0000
1000
0001
,
1000
0000
0010
0000
1000
0000
0010
1000
,
0001
1000
0100
1000
0001
1000
0010
0000
,
0010
0000
0010
0000
0010
0100
0020
0000
,
1030
0002
1003
1001
,
0010
0000
1000
0010
1000
0010
1000
1000
,
2000
0000
3001
0000
0010
0100
0020
0000
,
0130
0000
0002
0000
1003
0001
2000
0000
,
3010
0000
0020
0000
0130
0000
0001
1000
,
0002
0000
1003
0001
2000
0000
3010
0000
,
0010
0000
0010
0010
0010
0000
0100
0001
,
0100
0001
0200
0000
0310
0000
0001
1000
,
0010
1000
0001
1000
0002
0000
1003
0010
,
1000
0001
2000
0000
3010
0000
0010
0100
,
0001
1000
0100
0010
0002
0000
0023
0000
,
0000
0030
0000
0000
0000
0000
0000
0000
;

//---------------dance-single - Copied from Copied f----------------
#NOTES:
     dance-single:
     Copied from Copied f:
     Easy:
     4:
     0.182764,0.207751,0.045965,0.038304,0.000000,167.000000,161.000000,6.000000,5.000000,0.000000,0.000000,0.182764,0.207751,0.045965,0.038304,0.000000,167.000000,161.000000,6.000000,5.000000,0.000000,0.000000:
0000
0000
0000
0000
,
0000
0000
0000
0000
,
1000
0001
1000
0010
,
0001
1000
0001
1000
,
0001
1000
0001
0000
0100
0010
0100
0000
,
0001
1000
0001
0010
,
0100
0001
1000
0001
,
1000
0001
1000
0000
0100
0010
0100
0000
,
0001
1000
0001
0010
,
0001
1000
0001
0000
1000
0001
1000
0000
,
0001
0001
0001
0100
,
0010
0010
0010
0010
,
0001
0001
0001
0001
,
1000
1000
1000
0001
,
0100
0001
0100
0000
1000
0001
1000
0000
,
0001
0000
0100
0000
0001
1000
0001
0000
,
0100
0000
0001
0000
1000
0001
1000
0000
,
0010
0000
0001
0000
0100
0100
0001
0000
,
1000
0001
1000
0001
,
1000
1000
1000
0000
0001
0000
1000
0000
,
0001
0010
0001
1000
,
0001
0001
0001
0000
0100
0000
0010
0000
,
0001
0001
1000
1000
,
0001
0001
0010
0010
,
0001
0001
1000
0000
0001
0001
1000
0000
,
1000
0001
1000
0000
0100
0000
0010
0000
,
1000
0000
1001
0000
,
0001
0000
0000
0000
1001
0000
0000
1000
,
0000
0000
0000
1001
0000
0000
0000
0001
,
0000
0000
0000
0110
0000
0000
1000
0000
,
0000
1001
0000
0001
,
0000
1001
0000
2000
,
0000
3001
0000
0020
,
0000
0031
0000
2000
,
0000
0000
0000
3001
,
0100
0000
0001
1000
,
0001
0000
0100
1000
,
1000
1000
0000
0001
,
0001
0001
0000
0100
,
0010
0100
0001
1000
,
1000
0002
0000
1003
,
0001
1000
0000
0010
,
0010
0010
0000
1000
,
1000
1000
0000
0001
,
0001
0001
0000
2000
,
0000
0000
0000
0000
0000
0000
0000
0000
0000
0000
0000
0000
0000
0000
0000
0000
0000
0000
0000
0000
0000
0000
0000
0000
0000
0000
0000
0000
0000
0000
0000
0000
0000
0000
0000
0000
0000
0000
3000
0000
0000
0000
0000
0000
0000
0000
0000
0000
0000
0000
0000
0000
0000
0000
0000
0000
0000
0000
0000
0000
0000
0000
0000
0000
0000
0000
0000
0000
0000
0000
0000
0000
0000
0000
0000
0000
0000
0000
0000
0000
0000
0000
0000
0000
0000
0000
0000
0000
0000
0000
0000
0000
0000
0000
0000
0000
0000
0000
0000
0000
0000
0000
0000
0000
0000
0000
0000
0000
0000
0000
0000
0000
0000
0000
0000
0000
0000
0000
0000
0000
0000
0000
0000
0000
0000
0000
0000
0000
0000
0000
0000
0000
0000
0000
0000
0000
0000
0000
0000
0000
0000
0000
0000
0000
0000
0000
0000
0000
0000
0000
0000
0000
0000
0000
0000
0000
0000
0000
0000
0000
0000
0000
0000
0000
0000
0000
0000
0000
0000
0000
0000
0000
0000
0000
0000
0000
0000
0000
0000
0000
0000
0000
0000
0000
0000
0000
0000
0000
0000
0000
0000
0000
;

//---------------dance-single - Copied from Copied f----------------
#NOTES:
     dance-single:
     Copied from Copied f:
     Beginner:
     1:
     0.134611,0.190460,0.007661,0.007661,0.000000,123.000000,122.000000,1.000000,1.000000,0.000000,0.000000,0.134611,0.190460,0.007661,0.007661,0.000000,123.000000,122.000000,1.000000,1.000000,0.000000,0.000000:
0000
0000
0000
0000
,
0000
0000
0000
0000
,
1000
0000
0001
0000
,
1000
0000
0100
0000
,
0010
0000
0001
0000
,
1000
0000
0001
0000
,
1000
1000
1000
0000
,
0001
0001
0001
0000
,
0100
0100
0100
0000
,
0001
1000
0001
0000
,
0010
0001
1000
0000
,
1000
1000
1000
0000
,
0001
0001
0001
0000
,
0100
0010
0100
0000
,
0001
1000
0001
0000
,
0100
0010
0100
0000
,
1000
0001
1000
0000
,
0001
0000
0001
0000
,
1001
1000
0001
0100
,
0010
0010
0010
0000
0001
0000
1000
0000
,
0001
0100
0010
1000
,
0001
0001
1000
0010
,
1000
0100
0001
1000
,
0010
0100
0001
1000
,
0001
0000
0001
0000
,
1000
1000
1000
0000
,
0001
0000
0100
0000
,
1000
0000
0000
0000
0001
0000
0000
1000
,
0000
0000
0000
0100
0000
0000
0000
1000
,
0000
0000
0000
0001
,
0000
1000
0000
0100
,
0000
1000
0000
0001
,
0001
0001
0001
1000
,
0000
1000
0000
0001
,
0000
0000
0000
1000
,
0001
1000
0000
0100
,
0001
0100
0000
1000
,
0001
1000
0000
0010
,
0001
0010
0000
1000
,
0001
1000
0001
0100
,
0000
0000
0000
0001
,
0001
1000
0000
0100
,
0010
0100
0000
1000
,
0001
1000
0000
0001
,
0100
0010
0001
2000
,
0000
0000
0000
0000
0000
0000
0000
0000
0000
0000
0000
0000
0000
3000
0000
0000
0000
0000
0000
0000
0000
0000
0000
0000
0000
0000
0000
0000
0000
0000
0000
0000
0000
0000
0000
0000
0000
0000
0000
0000
0000
0000
0000
0000
0000
0000
0000
0000
0000
0000
0000
0000
0000
0000
0000
0000
0000
0000
0000
0000
0000
0000
0000
0000
;
