#TITLE:Tattoos Together;
#SUBTITLE:;
#ARTIST:Lauv;
#TITLETRANSLIT:;
#SUBTITLETRANSLIT:;
#ARTISTTRANSLIT:;
#GENRE:;
#CREDIT:;
#BANNER:AV.avi;
#BACKGROUND:bg.png;
#LYRICSPATH:;
#CDTITLE:;
#MUSIC:audio.ogg;
#OFFSET:-0.052000;
#SAMPLESTART:35.087933;
#SAMPLELENGTH:15.000000;
#SELECTABLE:YES;
#BPMS:0.000000=123.000000
;
#STOPS:
;
#BGCHANGES:0.000=MV.avi=1.400=1=0=1===CrossFade==,
3.000=MV.avi=1.000=0=0=1=====,
99999=-nosongbg-=1.000=0=0=0 // don't automatically add -songbackground-
;
#KEYSOUNDS:;
#ATTACKS:;

//---------------dance-single - ----------------
#NOTES:
     dance-single:
     :
     Challenge:
     15:
     0.665848,0.652752,1.650245,1.851494,0.020125,579.000000,374.000000,205.000000,230.000000,0.000000,123.000000,0.665848,0.652752,1.650245,1.851494,0.020125,579.000000,374.000000,205.000000,230.000000,0.000000,123.000000:
0102
0000
0103
1020
0000
0000
0031
0210
,
0000
0310
0000
1000
,
0012
0100
0113
1002
0010
0100
0113
2000
,
0011
0100
3011
0101
0010
0100
1010
0001
,
1020
0000
0100
0000
1031
0000
0102
0000
0000
0000
0000
0003
1100
0000
0020
0000
,
1001
0000
0000
0030
1100
0000
0011
0000
0000
0000
0000
0000
0101
0000
0000
0000
,
2100
0010
3110
2001
0100
0010
3110
0002
,
1100
0010
1103
1010
0100
0010
0101
1000
,
0201
0000
0010
0000
1301
0000
2010
0000
0000
0000
0000
3000
0011
0000
0200
0000
,
1001
0000
0000
0300
0011
0000
1100
0000
0000
0000
0000
0000
1020
0000
0030
0000
,
1002
0003
0200
0300
0120
0030
0012
0003
0020
0030
0200
0300
2001
3000
0020
0030
,
0201
0300
2000
3000
0210
0300
0021
0030
2000
3000
0002
0003
1200
0300
0020
0030
,
0201
0300
0020
0030
1200
0300
0012
0003
0020
0030
0200
0300
2001
3000
0020
0030
,
2001
3000
0200
0300
1020
0030
0012
0003
0200
0300
0020
0030
2001
3000
0002
0003
,
1200
0300
0020
0030
0102
0003
0021
0030
2000
3000
0020
0030
1002
0003
0200
0300
,
0021
0030
2000
3000
1020
0030
0210
0300
0002
0003
0020
0030
1002
0003
0200
0300
,
1020
0030
0002
0003
0120
0030
1002
0003
0200
0300
0002
0003
1020
0030
0200
0000
,
1010
0000
0301
0020
0000
2030
0000
3000
,
1001
0000
1002
0110
0203
0000
0321
0230
,
2301
3000
0021
1230
2300
0000
3201
0320
,
1032
0000
0003
0000
0201
0000
0321
0000
2030
0000
0000
3002
0110
0000
0203
0000
,
1010
0300
0012
1100
0023
0000
1230
0302
,
0213
0300
2001
3120
2030
0000
3201
0302
,
1203
0300
0021
0132
0023
0000
1230
2300
,
3210
0000
0300
0000
0021
0000
2130
0000
3002
0000
0003
0200
1001
0300
0020
0000
,
1100
0030
0000
0000
0102
0000
1100
0000
0023
0000
0000
0000
0231
0000
0320
0000
,
1230
0300
1002
0120
0000
0000
1130
0200
,
1010
0000
2313
3120
0000
0032
1100
0023
,
2031
0000
3102
0120
0000
0000
1130
2000
,
0110
0000
3213
1320
0000
0032
1010
0203
,
2310
0000
3102
0120
0000
0000
1130
2000
,
0110
0000
3213
1320
0000
0032
1010
0023
,
1130
0000
0102
0120
0000
0000
1130
2000
,
0110
0000
3123
1001
0032
0000
0123
0032
,
2103
0000
3001
0012
0000
0000
0013
1200
,
0010
1000
0301
0001
0100
0010
0001
0000
,
0021
0000
0130
0201
0000
0300
0100
2001
,
0100
0010
3001
0001
0010
0100
0001
0000
,
1200
0000
0000
0000
0310
0000
0021
0000
0000
0000
0000
0000
0031
0000
0102
1000
,
0100
0010
1003
1000
0010
0001
0100
0010
,
2001
0000
0010
3102
0100
0010
1000
0213
,
0000
0000
0000
0010
0001
0000
1301
0000
,
0021
0000
2031
0110
3020
0000
1230
0320
,
1032
0003
1200
0321
0032
0000
1023
0230
,
2301
0000
3000
0000
1020
0000
1230
0000
0302
0000
0000
2003
0110
0000
3020
0000
,
0101
0030
2100
0011
3200
0000
0321
2030
,
3120
0030
1002
0213
0302
0000
1023
2030
,
3021
0030
1200
2310
3200
0000
0321
0032
,
0123
0000
0030
0000
1200
0000
0312
0000
2003
0000
3000
0020
1001
0030
0200
0000
,
0011
0300
0000
0000
2010
0000
0011
0000
3200
0000
0000
0000
1320
0000
0230
0000
,
0321
0030
2001
0210
0000
0000
0311
0020
,
0101
0000
3132
0213
0000
2300
0011
3200
,
1302
0000
2013
0210
0000
0000
0311
0002
,
0110
0000
3123
0231
0000
2300
0101
3020
,
0132
0000
2013
0210
0000
0000
0311
0002
,
0110
0000
3123
0231
0000
2300
0101
3200
,
0311
0000
2010
0210
0000
0000
0311
0002
,
0110
0000
3213
1001
0300
0000
1001
0000
,
0000
0000
0001
0001
0000
0000
0001
0000
,
0000
0000
1000
0010
1000
0010
1000
0010
,
1000
0000
0001
0001
0000
0000
0001
0000
,
0000
0000
1000
0010
1000
0010
1000
0010
,
1000
0000
0000
0001
0000
0000
0000
0000
;

//---------------dance-single - ----------------
#NOTES:
     dance-single:
     :
     Hard:
     9:
     0.410549,0.424234,0.160999,0.281749,0.016100,357.000000,337.000000,20.000000,35.000000,0.000000,0.000000,0.410549,0.424234,0.160999,0.281749,0.016100,357.000000,337.000000,20.000000,35.000000,0.000000,0.000000:
0000
0000
0000
0000
,
0000
0000
0000
0000
,
0010
1000
0100
1000
0001
1000
0100
1000
,
0010
1000
0100
1000
0001
1000
0100
1000
,
0001
0010
0100
1000
0000
0000
0001
0000
,
1000
0000
0001
1000
0000
0000
0010
0000
,
0001
0010
0100
0010
0001
0010
0100
0010
,
0001
0010
0100
0010
0001
0010
0100
0010
,
0001
1000
0010
0100
0000
0000
0001
0010
,
0100
0000
0001
1000
0000
0000
1001
0000
,
0001
0010
0100
1000
0002
0100
0013
0000
,
0100
1000
0010
0100
0020
1000
0031
0000
,
0001
1000
0010
1000
0002
0010
0103
0000
,
0010
1000
0100
1000
0002
0010
1003
0000
,
0010
0100
0001
1000
0200
0010
0301
0000
,
0100
1000
0001
0010
0200
1000
0310
0000
,
0001
1000
0010
0100
0001
1000
0100
0000
,
1100
0000
0000
0000
,
1001
0000
0100
1000
0002
0000
0103
0010
,
2000
0000
3010
1000
0200
0000
0301
0010
,
0200
0000
0000
0000
0310
0000
1000
0000
0010
0000
0000
1000
0000
0000
0001
0000
,
0100
0000
0001
0010
0200
0000
1300
0001
,
0100
0000
0010
1000
0002
0000
0013
0100
,
1000
0000
0010
0100
0002
0000
0013
0100
,
1000
0000
0000
0000
0010
0000
0100
0000
0001
0000
0000
1000
0000
0000
0010
0000
,
0100
0000
0001
0010
0200
0000
1300
0001
,
0100
0000
0020
1000
0100
0000
1000
0000
,
0031
0000
0001
1000
0100
0000
1100
0000
,
1001
0000
0100
0010
0002
0000
1000
0000
,
0103
0000
0010
1000
0001
0000
0011
0000
,
1100
0000
0001
1000
0200
0000
0010
0000
,
1300
0000
0010
0100
0011
0000
1100
0000
,
1001
0000
0100
1000
0002
0000
0010
0000
,
0103
0000
0010
1000
0200
0000
1300
0000
,
0000
0000
0001
0001
0000
0000
0001
0000
,
1000
0100
1000
0001
1000
0010
1000
0000
,
0001
0000
0100
0100
0000
0000
0100
0000
,
0001
0010
0100
1000
0001
0100
0010
0000
,
1000
0000
0001
0001
0000
0000
0001
0000
,
0100
1000
0010
1000
0001
0010
0100
1000
,
0002
0000
0000
0203
0000
0000
0000
0302
,
0000
0000
0000
0000
0000
0003
1010
0000
,
0101
0000
0010
0001
2000
0000
3010
0100
,
0002
0000
0103
0001
0020
0000
1030
0100
,
0020
0000
0000
0000
0130
0000
0001
0000
0100
0000
0000
0001
0000
0000
1000
0000
,
0010
0000
1000
0100
0020
0000
0031
1000
,
0010
0000
0100
0001
2000
0000
3100
0010
,
0001
0000
0100
0010
2000
0000
3100
0010
,
0001
0000
0000
0000
0100
0000
0010
0000
1000
0000
0000
0001
0000
0000
0100
0000
,
0010
0000
1000
0100
0020
0000
0031
1000
,
0010
0000
0200
0001
0010
0000
0001
0000
,
1300
0000
1000
0001
0010
0000
0011
0000
,
1001
0000
0010
0100
2000
0000
0001
0000
,
3010
0000
0100
0001
1000
0000
1100
0000
,
0011
0000
1000
0001
0020
0000
0100
0000
,
0031
0000
0100
0010
0110
0000
0011
0000
,
1001
0000
0010
0001
2000
0000
0100
0000
,
3010
0000
0100
0001
0020
0000
0031
0000
,
1001
0001
1000
0001
,
1000
0000
0001
1000
0001
1000
0001
1000
,
0001
1000
0100
0010
,
0001
0000
1000
0001
1000
0001
1000
0001
,
1000
0000
0000
0000
;

//---------------dance-single - ----------------
#NOTES:
     dance-single:
     :
     Medium:
     6:
     0.308199,0.324414,0.072450,0.144900,0.000000,268.000000,259.000000,9.000000,18.000000,0.000000,0.000000,0.308199,0.324414,0.072450,0.144900,0.000000,268.000000,259.000000,9.000000,18.000000,0.000000,0.000000:
0000
0000
0000
0000
,
0000
0000
0000
0000
,
0100
1000
0001
0000
0010
0100
0001
0000
,
0100
0010
0001
0000
0010
0100
0001
0000
,
0100
0010
0001
0000
0000
0000
0001
0000
,
1000
0000
0001
1000
0000
0000
0001
0000
,
0100
0010
0001
0000
0100
1000
0001
0000
,
0010
0100
0001
0000
0100
1000
0001
0000
,
0100
0010
0001
1000
,
0010
1000
0001
1000
,
0100
1000
0200
0000
0310
0000
1000
0000
,
0001
0100
0020
0000
1030
0000
0001
0000
,
0010
0100
0010
0000
0001
1000
0001
0000
,
0200
0001
0010
0301
,
0100
1000
0001
0000
0020
0000
0130
0000
,
0001
1000
0001
0000
2000
0000
3100
0000
,
0010
1000
0001
0010
,
0001
0000
0000
0000
,
1001
0000
0001
0000
0002
0000
1003
0001
,
1000
0000
0001
0000
0010
0000
0100
0010
,
0100
0000
1000
0001
1000
0000
0010
0000
,
0100
0000
0001
0000
1000
0000
0001
1000
,
0001
0000
0010
0000
0100
0000
1000
0100
,
1000
0000
0001
0000
0100
0000
0001
0100
,
0001
1000
0001
0010
,
0100
0000
1000
0000
1000
0000
0100
1000
,
0100
0002
0010
1000
,
0103
0010
1000
0001
,
0011
0200
1000
0010
,
0301
0001
1000
0010
,
1010
0002
0010
1000
,
0103
0010
1000
0100
,
0110
0002
1000
0100
,
0013
0100
1000
0010
,
1000
1000
0001
0001
,
0100
0000
0001
0000
1000
0001
1000
0000
,
0001
0010
0100
1000
,
0010
1000
0010
0000
0100
0000
0001
0000
,
1000
0100
0010
0001
,
0010
0001
0010
0000
0100
0000
1000
0000
,
0020
0130
0002
1003
,
0200
0000
0000
1300
,
1100
0000
0100
0000
0200
0000
0310
0100
,
0010
0000
0100
0000
0001
0000
1000
0001
,
1000
0000
0010
0100
0010
0000
0001
0000
,
1000
0000
0100
0000
0010
0000
0100
0010
,
0100
0000
0001
0000
1000
0000
0010
1000
,
0010
0000
0100
0000
1000
0000
0100
1000
,
0100
0010
0100
0001
,
1000
0000
0010
0000
0010
0000
1000
0010
,
1000
0200
0001
0010
,
1300
0001
0010
0100
,
0101
2000
0010
0001
,
3100
0100
0010
0001
,
0011
0200
0001
0010
,
1300
0001
0010
1000
,
1001
0200
0010
1000
,
0301
1000
0010
0001
,
1000
0000
1000
0000
,
0001
0000
0001
0000
,
1000
0000
1000
0000
,
0001
0000
0001
0000
,
1001
0000
0000
0000
;

//---------------dance-single - ----------------
#NOTES:
     dance-single:
     :
     Easy:
     4:
     0.234599,0.224594,0.000000,0.000000,0.000000,204.000000,204.000000,0.000000,0.000000,0.000000,0.000000,0.234599,0.224594,0.000000,0.000000,0.000000,204.000000,204.000000,0.000000,0.000000,0.000000,0.000000:
0000
0000
0000
0000
,
0000
0000
0000
0000
,
1000
1000
1000
0000
,
0001
0010
0001
0000
,
0100
1000
0100
0000
,
0010
0100
0010
0000
,
1000
0001
0010
0000
,
0100
0010
0001
0000
,
1000
0010
0100
0000
,
0001
1000
0001
0000
,
0010
0010
0001
0001
,
1000
0100
1000
0000
,
0010
0010
0100
0100
,
0001
1000
0001
0000
,
0010
0100
0010
0100
,
1000
0001
0100
0000
,
0010
1000
0001
0010
,
0100
0000
0000
0000
,
0000
0001
0001
0001
,
1000
0100
0100
0100
,
1000
0010
0100
0010
,
1000
0001
0001
0010
,
0100
1000
1000
0010
,
0100
0001
0001
0010
,
0100
1000
0001
1000
,
0010
0100
0100
0001
,
1000
0100
0010
0001
,
0010
0100
1000
1000
,
1000
0001
0100
0001
,
0100
0001
0001
0001
,
0010
0100
1000
0001
,
1000
1000
0010
0010
,
0100
0001
0100
0100
,
0001
0001
1000
1000
,
0001
1000
0001
0000
,
0010
0001
1000
0000
,
0100
1000
0010
0000
,
0001
1000
0010
0000
,
0001
0010
0100
0000
,
0001
1000
0001
0000
,
0100
0000
0100
0000
,
0100
0000
0100
0000
,
1000
0001
0001
0001
,
1000
0100
0100
0100
,
1000
0010
0100
0010
,
1000
0001
0001
0010
,
0100
1000
1000
0010
,
0100
0001
0001
0010
,
0100
1000
0001
1000
,
0010
0100
0100
0001
,
1000
0100
0010
0001
,
0010
0100
1000
1000
,
1000
0001
0100
0001
,
0100
0001
0001
0001
,
0010
0100
1000
0001
,
1000
1000
0010
0010
,
0100
0001
0100
0100
,
0001
0001
1000
1000
,
0001
0000
0000
0000
,
1000
0000
0000
0000
,
0010
0000
0000
0000
,
0100
0000
0000
0000
,
1000
0000
0000
0000
;

//---------------dance-single - ----------------
#NOTES:
     dance-single:
     :
     Beginner:
     1:
     0.035650,0.049910,0.000000,0.000000,0.000000,31.000000,31.000000,0.000000,0.000000,0.000000,0.000000,0.035650,0.049910,0.000000,0.000000,0.000000,31.000000,31.000000,0.000000,0.000000,0.000000,0.000000:
// measure 0
0000
0000
0000
0000
,  // measure 1
0000
0000
0000
0000
,  // measure 2
1000
0000
0000
0000
,  // measure 3
0000
0000
0000
0000
,  // measure 4
0001
0000
0000
0000
,  // measure 5
0000
0000
0000
0000
,  // measure 6
0010
0000
0000
0000
,  // measure 7
0000
0000
0000
0000
,  // measure 8
0100
0000
0000
0000
,  // measure 9
0000
0000
0000
0000
,  // measure 10
1000
0000
0000
0000
,  // measure 11
0000
0000
0000
0000
,  // measure 12
0001
0000
0000
0000
,  // measure 13
0000
0000
0000
0000
,  // measure 14
0010
0000
0000
0000
,  // measure 15
0000
0000
0000
0000
,  // measure 16
0100
0000
0000
0000
,  // measure 17
0000
0000
0000
0000
,  // measure 18
1000
0000
0000
0000
,  // measure 19
0000
0000
0000
0000
,  // measure 20
0001
0000
0000
0000
,  // measure 21
0000
0000
0000
0000
,  // measure 22
1000
0000
0000
0000
,  // measure 23
0000
0000
0000
0000
,  // measure 24
0010
0000
0000
0000
,  // measure 25
0000
0000
0000
0000
,  // measure 26
0001
0000
0000
0000
,  // measure 27
0000
0000
0000
0000
,  // measure 28
0010
0000
0000
0000
,  // measure 29
0000
0000
0000
0000
,  // measure 30
0100
0000
0000
0000
,  // measure 31
0000
0000
0000
0000
,  // measure 32
1000
0000
0000
0000
,  // measure 33
0000
0000
0000
0000
,  // measure 34
0001
0000
0000
0000
,  // measure 35
0000
0000
0000
0000
,  // measure 36
0010
0000
0000
0000
,  // measure 37
0000
0000
0000
0000
,  // measure 38
1000
0000
0000
0000
,  // measure 39
0000
0000
0000
0000
,  // measure 40
0100
0000
0000
0000
,  // measure 41
0000
0000
0000
0000
,  // measure 42
0001
0000
0000
0000
,  // measure 43
0000
0000
0000
0000
,  // measure 44
1000
0000
0000
0000
,  // measure 45
0000
0000
0000
0000
,  // measure 46
0100
0000
0000
0000
,  // measure 47
0000
0000
0000
0000
,  // measure 48
0010
0000
0000
0000
,  // measure 49
0000
0000
0000
0000
,  // measure 50
0010
0000
0000
0000
,  // measure 51
0000
0000
0000
0000
,  // measure 52
0001
0000
0000
0000
,  // measure 53
0000
0000
0000
0000
,  // measure 54
0100
0000
0000
0000
,  // measure 55
0000
0000
0000
0000
,  // measure 56
0010
0000
0000
0000
,  // measure 57
0000
0000
0000
0000
,  // measure 58
1000
0000
0000
0000
,  // measure 59
0000
0000
0000
0000
,  // measure 60
0001
0000
0000
0000
,  // measure 61
0000
0000
0000
0000
,  // measure 62
0100
0000
0000
0000
;
