#TITLE:Tarts;
#SUBTITLE:;
#ARTIST:Erutan;
#TITLETRANSLIT:;
#SUBTITLETRANSLIT:;
#ARTISTTRANSLIT:;
#GENRE:;
#CREDIT:;
#BANNER:AV.avi;
#BACKGROUND:bg.png;
#LYRICSPATH:;
#CDTITLE:;
#MUSIC:Tarts.ogg;
#OFFSET:0.006000;
#SAMPLESTART:51.120003;
#SAMPLELENGTH:15.000000;
#SELECTABLE:YES;
#BPMS:0.000000=112.800003
,16.000000=113.000000
,33.000000=56.750000
,40.000000=56.049999
,49.000000=113.500000
,78.000000=112.800003
,80.000000=111.800003
,87.000000=113.000000
,189.000000=103.000000
,189.333328=83.000000
,189.666672=71.000000
,189.833328=65.000000
,190.000000=59.000000
,190.250000=49.700001
;
#STOPS:
;
#BGCHANGES:0.000=MV.avi=1.000=1=1=1=StretchRewind==CrossFade==,
99999=-nosongbg-=1.000=0=0=0 // don't automatically add -songbackground-
;
#KEYSOUNDS:;
#ATTACKS:;

//---------------dance-single - ----------------
#NOTES:
     dance-single:
     :
     Challenge:
     13:
     0.630102,0.903242,0.993848,0.878857,0.854216,537.000000,416.000000,121.000000,107.000000,0.000000,46.000000,0.630102,0.903242,0.993848,0.878857,0.854216,537.000000,416.000000,121.000000,107.000000,0.000000,46.000000:
0000
0000
0000
1001
0000
1001
0100
0000
1100
0010
0000
0010
,
0001
0000
0010
1100
0000
1100
0010
0000
0011
1000
0000
1000
,
0010
0000
0010
1100
0000
1100
0001
0000
0011
0100
0000
0100
,
0010
0000
0000
0000
0000
0000
0000
0000
0000
0000
0000
0000
0000
0000
0000
0000
1000
0000
0000
0000
0000
0000
0000
0000
0000
0000
0000
0000
0000
0000
0000
0000
0001
0000
0000
0000
0000
0000
0000
0000
0000
0000
0000
0000
0000
0000
0000
0000
1100
0000
0000
0000
0000
0000
0000
0000
0000
0000
0000
0000
0000
0000
0000
0000
0000
0000
0000
0000
0000
0000
0000
0000
0000
0000
0000
0000
0000
0000
0000
0000
1100
0000
0000
0000
0000
0000
0000
0000
0000
0000
0000
0000
0000
0000
0000
0000
0010
0000
0000
0000
0000
0000
0000
0000
0000
0000
0000
0000
0000
0000
0000
0000
0000
0000
0000
0000
0000
0000
0000
0000
0000
0000
0000
0000
0000
0000
0000
0000
1001
0000
0000
0000
0000
0000
0000
0000
0000
0000
0000
0000
0000
0000
0000
0000
0100
0000
0000
0000
0000
0000
0000
0000
0000
0000
0000
0000
0000
0000
0000
0000
0000
0000
0000
0000
0000
0000
0000
0000
0000
0000
0000
0000
0000
0000
0000
0000
0100
0000
0000
0000
0000
0000
0000
0000
0000
0000
1000
0000
0000
0000
0000
0000
,
0010
0000
0010
1100
0000
1010
0100
0000
0011
0100
0000
0100
,
0010
0000
0100
0011
0000
0011
0100
0000
1100
0010
0000
0010
,
1000
0000
1000
0110
0000
0110
1000
0000
1100
0001
0000
0001
,
0100
0000
0100
0011
0000
0011
1000
0000
1001
0010
0000
0000
,
0101
0000
0000
0000
0100
0000
0011
0000
1000
0011
0000
0010
1100
0000
0100
1001
0000
0010
0101
0000
0100
0011
1000
0000
,
0001
0000
0000
0000
0000
0000
0200
0000
0000
0300
0010
0000
1100
0000
0000
0000
1000
0000
0110
0000
0000
0000
0100
0000
0011
0000
0000
0000
0010
0000
1100
0000
0000
0000
0100
0000
0011
0000
0000
0000
0001
0000
1100
0000
0000
0000
1000
0000
,
0010
0000
0000
0000
0000
0000
0200
0000
0000
0300
0010
0000
1100
0000
0000
0000
1000
0000
0110
0000
0000
0000
0100
0000
1010
0000
0000
0000
0010
0000
0001
0000
0000
0000
0001
0000
1010
0000
0100
0000
0010
0000
0101
0000
1000
0000
0000
0000
,
0110
0000
0000
0000
0000
0000
0020
0000
0000
0030
0100
0000
0011
0000
0000
0000
0010
0000
1001
0000
0000
0000
0100
0000
0011
0000
0000
0000
0010
0000
1100
0000
0000
0000
1000
0000
0021
0000
0000
0000
0000
0000
2030
0000
0000
0000
0000
0000
,
3120
0000
0130
0010
0000
0010
1002
0000
0000
0000
0013
0000
2000
0000
0000
0000
3200
0000
0010
0000
0000
0000
0010
0000
,
2300
0000
0000
0000
0010
0000
3002
0000
0000
0000
0010
0000
0200
0000
0000
0300
0100
0000
0023
0000
0000
0030
0010
0000
,
0200
0000
0000
0300
0100
0000
0020
0000
0000
0030
0010
0000
2000
0000
0000
0000
3002
0000
0010
0000
0000
0000
0100
0000
,
0023
0000
0000
0000
0000
0000
0000
0000
0000
0000
0000
0000
0000
0000
0000
0000
1000
0000
0000
0000
0000
0000
0000
0000
0000
0000
0000
0000
0000
0000
0000
0000
0100
0000
0000
0000
0000
0000
0000
0000
0000
0000
0000
0000
0000
0000
0000
0000
0230
0000
0000
0000
0000
0000
0000
0000
0000
0000
0000
0000
0000
0000
0000
0000
0000
0000
0000
0000
0000
0000
0000
0000
0000
0000
0000
0000
0000
0000
0000
0000
0001
0000
0000
0000
0000
0000
0000
0000
0000
0000
0000
0000
0000
0000
0000
0000
0020
0000
0000
0000
0000
0000
0000
0000
0000
0000
0000
0000
0000
0000
0000
0000
0000
0000
0000
0000
0000
0000
0000
0000
0030
0000
0000
0000
0000
0000
0000
0000
0310
0000
0000
0000
0000
0000
0000
0000
0000
0000
0000
0000
0000
0000
0000
0000
0200
0000
0000
0000
0000
0000
0000
0000
0000
0000
0000
0000
0000
0000
0000
0000
0000
0000
0000
0000
0000
0000
0000
0000
0300
0000
0000
0000
0000
0000
0000
0000
0100
0000
0000
0000
0000
0000
0000
0000
0000
0000
1000
0000
0000
0000
0000
0000
,
0020
0000
0000
0030
0010
0000
0200
0000
0000
0300
0100
0000
0002
0000
0000
0000
0023
0000
0100
0000
0000
0000
0001
0000
,
0230
0000
0000
0000
0010
0000
0302
0000
0000
0000
1000
0000
0020
0000
0000
0030
0013
0000
0200
0000
0000
0300
0100
0000
,
0020
0000
0000
0030
0010
0000
2000
0000
0000
0000
0010
0000
0001
0000
0000
0000
0010
0000
3011
0000
0000
0000
0010
0000
,
0100
0000
0100
0010
0000
0010
1000
0000
0010
0100
0000
0000
,
1002
0003
0010
1100
0000
1100
0010
0000
0110
1000
0000
1010
,
0001
0000
0001
1100
0000
1100
0020
0000
1001
0230
0000
1010
,
0302
0000
0010
1203
0000
1010
0001
0000
0011
1000
0300
1010
,
0100
0010
0001
0011
0000
1100
0002
0000
0110
2003
0000
0110
,
3002
0000
0010
1203
0000
1001
0010
0000
0011
2300
0000
0011
,
0100
3000
0100
1010
0000
0110
0002
0000
1010
0203
0000
1010
,
0302
0000
0010
0203
0000
1001
0010
0000
1010
0001
0000
1310
,
0001
0000
0001
1100
0000
0110
1000
0000
0010
0001
0000
1000
,
0020
0000
1030
0210
0000
0301
0020
0000
2030
0001
0000
0001
,
3020
0000
0000
0000
0001
0000
0230
0000
0000
0000
0001
0000
2000
0000
0010
3000
1000
0000
0302
0000
0000
0003
0001
0000
,
2000
0000
0000
3000
1000
0000
0002
0000
0000
0003
0001
0000
0020
0000
0000
0000
0230
0000
0001
0000
0000
0000
1000
0000
,
0302
0000
0010
0000
0100
0000
2003
0000
0000
0000
0100
0000
0002
0000
0000
0003
3001
0000
2000
0000
0000
3000
1000
0000
,
0002
0000
0000
0003
0001
0000
2000
0000
0000
3000
1000
0000
0200
0000
0000
0000
0302
0000
1000
0000
0000
0000
0100
0000
,
2003
0000
0000
0000
0001
0000
3200
0000
0000
0000
0010
0000
0002
0000
0000
0003
0301
0000
2000
0000
0000
3000
1000
0000
,
0002
0000
0000
0003
0001
0000
0020
0000
0000
0000
0001
0000
0200
0000
0000
0000
0302
0000
1130
0000
0000
0000
0013
0000
,
1000
0000
1000
0020
0000
0001
0230
0000
0302
1000
0000
0003
,
0200
0000
0301
0210
0000
1010
0001
0000
1001
0320
0000
0101
,
1000
0000
0100
1230
0000
1010
0302
0000
0110
2003
0000
0011
,
3200
0000
0001
2310
0000
0011
0100
0000
0101
3020
0000
1001
,
0100
0001
1000
0132
0000
1010
0203
0000
1001
0320
0000
1001
,
0230
0000
0001
2310
0000
0110
0001
0000
0101
3020
0000
0101
,
1000
0000
1000
0132
0000
1010
0203
0000
0011
2300
0000
0011
,
3200
0000
0001
2300
0000
0110
0001
0000
0011
3100
0000
0011
,
0100
0000
0100
1010
0000
1001
0010
0000
0011
1200
0000
0010
,
0301
0000
0000
0000
0001
0000
2010
0000
0000
3000
0010
0000
0100
0000
0000
0000
1000
0000
0210
0000
0300
0000
0010
0000
,
0100
0000
0000
0000
0001
0000
2100
0000
0000
0000
0010
0000
3100
0000
0000
0000
0001
0000
1020
0000
0000
0030
0001
0000
,
0100
0000
0000
0000
0010
0000
2100
0000
0000
3000
0010
0000
0100
0000
0000
0000
0001
0000
2010
0000
0000
0000
3001
0000
,
0100
0000
0000
0000
0000
0000
0000
0000
0010
0000
0000
0000
1002
0000
0000
0000
0000
0000
0010
0000
0003
0000
0100
0000
0000
0000
0010
0000
0000
0000
2000
0000
0000
0000
0000
0000
0000
0000
0000
0000
0000
0000
0000
0000
0000
0200
3000
0000
,
0000
0000
0320
0000
0000
0000
0000
0030
;

//---------------dance-single - Copied from----------------
#NOTES:
     dance-single:
     Copied from:
     Hard:
     9:
     0.423588,0.356676,0.016427,0.008214,0.669410,361.000000,359.000000,2.000000,1.000000,0.000000,0.000000,0.423588,0.356676,0.016427,0.008214,0.669410,361.000000,359.000000,2.000000,1.000000,0.000000,0.000000:
0000
0000
0000
1000
0000
1000
0100
0000
0100
0010
0000
0010
,
0001
0000
0001
0010
0000
0010
0100
0000
0100
1000
0000
1000
,
0001
0000
0001
0100
0000
0100
0010
0000
0010
1000
0000
1000
,
0001
0010
0100
1000
0000
1000
0001
0000
0001
0100
0000
0100
,
0010
0000
0010
1000
0000
1000
0100
0000
0100
0010
0000
0010
,
0001
0000
0001
0010
0000
0010
0100
0000
0100
1000
0000
1000
,
0100
0000
0100
1000
0000
1000
0100
0000
0100
0010
0000
0010
,
0100
0000
0100
1000
0000
1000
0001
0000
0001
0100
0000
0000
,
1001
0000
0010
0010
1000
0000
0010
0010
,
0100
0000
0001
0001
1000
0000
0100
0100
,
0010
0000
0001
1000
0001
0000
0010
0100
,
0010
0000
1000
0001
1000
0000
1000
0100
,
0010
0000
0000
0001
0000
0000
0001
0000
0000
0000
0100
0000
0010
0000
0000
0000
0010
0000
1000
0000
0000
0000
1000
0000
,
0100
0000
0100
0010
0000
0010
0001
0000
0001
1000
0000
1000
,
0001
0000
0001
0100
0000
0100
0010
0000
0010
1000
0000
1000
,
0100
0010
0001
1000
0000
1000
0001
0000
0001
0100
0000
0100
,
0010
0000
0010
1000
0000
1000
0001
0000
0001
0010
0000
0010
,
0100
0000
0100
1000
0000
1000
0001
0000
0001
0100
0000
0100
,
0010
0000
0010
1000
0000
1000
0001
0000
0001
1000
0000
1000
,
0100
0000
0100
0010
0000
0010
0001
0000
0100
1000
0000
0000
,
1001
0000
0000
0100
0000
0100
1000
0000
1000
0100
0000
0100
,
0010
0000
0010
0001
0000
0001
1000
0000
1000
0001
0000
0000
,
0000
0000
0000
0001
0000
0001
1000
0000
1000
0010
0000
0010
,
0100
0000
0100
0010
0000
0010
1000
0000
1000
0001
0000
0000
,
0000
0000
0000
0100
0000
0100
1000
0000
1000
0001
0000
0001
,
0010
0000
0010
0100
0000
0100
1000
0000
1000
0001
0000
0000
,
0000
0000
0000
1000
0000
1000
0100
0000
0100
0010
0000
0010
,
0001
0000
0001
1000
0000
0000
0001
0000
0000
1000
0000
0010
,
0100
0000
0010
0100
0000
0001
1000
0000
0100
1000
0000
0001
,
1000
0000
0100
0010
0000
0001
0010
0000
0100
1000
0000
0001
,
1000
0000
0010
0100
0000
0001
0010
0000
0100
1000
0000
0001
,
0100
0010
1000
0001
0000
0001
1000
0000
1000
0100
0000
0100
,
0010
0000
0010
0001
0000
0001
1000
0000
1000
0010
0000
0010
,
1000
0000
1000
0100
0000
0100
0010
0000
0010
0001
0000
0001
,
0100
0000
0100
0010
0000
0010
1000
0000
1000
0100
0000
0100
,
1000
0000
1000
0001
0000
0001
0010
0000
0010
0100
0000
0100
,
1000
0000
1000
0100
0000
0100
0010
0000
0010
0001
0000
0001
,
1000
0000
1000
0010
0000
0010
0100
0000
0100
0001
0000
0001
,
1000
0000
1000
0010
0000
0010
0100
0000
0100
0001
0000
1000
,
0100
0010
0001
1000
0000
1000
0010
0000
0010
0100
0000
0100
,
0001
0000
0001
0010
0000
0010
0100
0000
0100
1000
0000
1000
,
0001
0000
0001
1000
0000
1000
0010
0000
0010
0100
0000
0100
,
0001
0000
0001
1000
0000
1000
0001
0000
0001
0100
0000
0100
,
0010
0000
0010
1000
0000
0100
1000
0000
0001
0010
0000
0000
,
0100
0000
0000
0001
0000
0001
0100
0000
0100
1000
0000
1000
,
0100
0000
0100
0010
0000
0010
0001
0000
0001
0010
0000
0010
,
0100
0000
0100
1000
0000
1000
0100
0000
0100
0010
0000
0010
,
0001
0000
0000
0000
0001
0000
1000
0000
0000
0000
0000
0010
0000
0000
0000
0200
0000
0000
0000
0000
0000
0000
0000
0000
,
0000
0300
0000
0000
;

//---------------dance-single - Copied from Copied f----------------
#NOTES:
     dance-single:
     Copied from Copied f:
     Medium:
     5:
     0.200647,0.180648,0.000000,0.164272,0.000000,171.000000,171.000000,0.000000,20.000000,0.000000,0.000000,0.200647,0.180648,0.000000,0.164272,0.000000,171.000000,171.000000,0.000000,20.000000,0.000000,0.000000:
0000
1000
1000
0100
,
0100
1000
1000
0010
,
0010
0100
0100
0001
,
1000
0001
0001
0010
,
0010
0100
0100
1000
,
1000
0001
0001
0100
,
0100
0001
0001
0100
,
0100
1000
0010
1000
,
0000
0100
0100
1000
,
1000
0010
0010
0100
,
0100
0001
0001
1000
,
1000
0010
0010
0100
,
0010
1000
1000
0100
,
0100
0010
0010
0001
,
0001
0010
0010
0100
,
0100
1000
0001
1000
,
1000
0010
0010
0100
,
0100
0001
0001
1000
,
1000
0010
0010
0100
,
0100
0001
1000
0001
,
0000
0100
0100
1000
,
1000
0010
0010
1000
,
0000
0100
0100
1000
,
1000
0001
0001
0010
,
0000
1000
1000
0100
,
0100
0010
0010
0001
,
0000
1000
1000
0010
,
0010
0100
0001
0100
,
0001
1000
1000
0100
,
0100
0010
0000
0010
,
0000
0001
0001
1000
,
1000
0100
0000
0100
,
0000
0010
0010
0001
,
0001
1000
0000
1000
,
0000
0100
0100
0010
,
0000
0100
0100
1000
,
0000
0000
0000
2000
0000
0000
0100
3000
0000
0020
0000
0000
,
0130
0002
0010
1000
,
0103
0020
1030
2000
,
3100
0002
0010
1000
,
0103
0020
0130
0002
,
1003
2000
0100
0010
,
3001
0002
0103
2000
,
3010
0010
0100
0002
,
1003
2000
3000
0200
,
0300
0020
0030
0002
,
0003
0200
0300
0020
,
0030
0000
0000
0000
0000
0000
2000
0000
0000
0000
3000
0000
0000
0000
0000
0200
0000
0000
0000
0000
0000
0000
0000
0000
,
0000
0000
0000
0000
0000
0000
0000
0300
;

//---------------dance-single - Copied from Copied f----------------
#NOTES:
     dance-single:
     Copied from Copied f:
     Easy:
     3:
     0.117337,0.120432,0.000000,0.221768,0.000000,100.000000,100.000000,0.000000,27.000000,0.000000,0.000000,0.117337,0.120432,0.000000,0.221768,0.000000,100.000000,100.000000,0.000000,27.000000,0.000000,0.000000:
0000
1000
1000
1000
,
0000
0100
0000
0100
,
0000
0001
0001
0001
,
0000
0010
0000
0010
,
0000
1000
1000
1000
,
0000
0100
0000
0100
,
0000
0010
0010
0010
,
0000
1000
0000
1000
,
0000
0100
0000
0100
,
0000
0100
0000
0010
,
0000
0010
0000
0001
,
0000
0001
0000
0001
,
0000
1000
0000
1000
,
0000
0200
0000
0301
,
0000
0010
0000
0010
,
0000
2000
0000
3001
,
0000
0100
0000
0100
,
0000
0002
0000
1003
,
0000
0020
0000
0031
,
0000
0200
0000
0301
,
0000
1000
0000
1000
,
0000
0200
0000
0301
,
0000
0010
0000
0010
,
0000
2000
0000
3001
,
0000
0100
0000
0100
,
0000
0002
0000
1003
,
0000
0010
0000
0010
,
0000
0200
0000
0301
,
0000
2000
0000
0001
,
0000
3010
0000
0100
,
0000
0002
0000
1000
,
0000
0103
0000
1000
,
0000
0020
0000
0100
,
0000
0031
0000
1000
,
0000
2000
0000
3100
,
0000
0002
0000
0013
,
0000
2000
0000
0100
,
0000
3010
0000
0010
,
0000
0002
0000
0010
,
0000
1003
0000
0100
,
0000
2000
0000
0010
,
0000
0100
0000
3001
,
0000
0002
0000
0013
,
0000
0200
0000
0301
,
0000
0000
0000
2000
0000
0000
3000
0000
0000
0200
0000
0300
,
0000
0000
0000
0020
0000
0030
0000
0000
0000
0002
0000
0003
,
0000
0000
0000
0020
0000
0030
0000
0000
0000
0200
0000
0000
,
0300
0000
0000
0000
0000
0000
2000
0000
0000
0000
3000
0000
0000
0000
0000
0200
0000
0000
0000
0000
0000
0000
0000
0000
,
0000
0000
0000
0000
0000
0000
0000
0300
;

//---------------dance-single - Copied from Copied f----------------
#NOTES:
     dance-single:
     Copied from Copied f:
     Beginner:
     1:
     0.085656,0.138707,0.000000,0.197127,0.000000,73.000000,73.000000,0.000000,24.000000,0.000000,0.000000,0.085656,0.138707,0.000000,0.197127,0.000000,73.000000,73.000000,0.000000,24.000000,0.000000,0.000000:
// measure 0
0000
1000
0000
1000
,  // measure 1
0000
1000
0000
0000
,  // measure 2
0000
0001
0000
0001
,  // measure 3
0000
0001
0000
0000
,  // measure 4
0000
0010
0000
0010
,  // measure 5
0000
0010
0000
0000
,  // measure 6
0000
0001
0000
0001
,  // measure 7
0000
0001
0000
0000
,  // measure 8
0000
1000
1000
1000
,  // measure 9
0000
0100
0100
0100
,  // measure 10
0000
0001
0001
0001
,  // measure 11
0000
1000
1000
1000
,  // measure 12
0000
0100
0000
0100
,  // measure 13
0000
0200
0000
0300
,  // measure 14
0000
0001
0000
0001
,  // measure 15
0000
0002
0000
0003
,  // measure 16
0000
1000
0000
1000
,  // measure 17
0000
2000
0000
3000
,  // measure 18
0000
0010
0000
0010
,  // measure 19
0000
1000
0000
1000
,  // measure 20
0000
0001
0000
0001
,  // measure 21
0000
0002
0000
0000
,  // measure 22
0003
1000
0000
1000
,  // measure 23
0000
2000
0000
0000
,  // measure 24
3000
0100
0000
0100
,  // measure 25
0000
0200
0000
0000
,  // measure 26
0300
0010
0000
0010
,  // measure 27
0000
0020
0000
0000
,  // measure 28
0030
0002
0000
0000
,  // measure 29
0000
2003
0000
0000
,  // measure 30
0000
3020
0000
0000
,  // measure 31
0000
0230
0000
0000
,  // measure 32
0000
2300
0000
0000
,  // measure 33
0000
3002
0000
0000
,  // measure 34
0000
2003
0000
0000
,  // measure 35
3000
0200
0000
0000
,  // measure 36
0300
0002
0000
0000
,  // measure 37
0000
2003
0000
0000
,  // measure 38
0000
3020
0000
0000
,  // measure 39
0000
0032
0000
0003
,  // measure 40
0000
2000
0000
0000
,  // measure 41
0000
3020
0000
0030
,  // measure 42
0000
0002
0000
0003
,  // measure 43
0000
2000
0000
3000
,  // measure 44
0000
0001
0000
0001
,  // measure 45
0000
0001
0000
1000
,  // measure 46
0000
1000
0000
0100
,  // measure 47
0000
0000
0100
0000
0000
0200
0000
0000
,  // measure 48
0000
0300
0000
0000
;
