#TITLE:Sweet Dream;
#SUBTITLE:;
#ARTIST:Litmus;
#TITLETRANSLIT:;
#SUBTITLETRANSLIT:;
#ARTISTTRANSLIT:;
#GENRE:;
#CREDIT:;
#BANNER:AV.avi;
#BACKGROUND:bg.png;
#LYRICSPATH:;
#CDTITLE:;
#MUSIC:Sweet Dreams.mp3;
#OFFSET:0.165000;
#SAMPLESTART:38.400002;
#SAMPLELENGTH:15.000000;
#SELECTABLE:YES;
#BPMS:0.000000=102.010002
;
#STOPS:
;
#BGCHANGES:0.000=MV.avi=0.800=1=1=1=StretchRewind==CrossFade==,
1.500=MV.avi=1.000=0=0=1=====,
99999=-nosongbg-=1.000=0=0=0 // don't automatically add -songbackground-
;
#KEYSOUNDS:;
#ATTACKS:;

//---------------dance-single - ----------------
#NOTES:
     dance-single:
     :
     Challenge:
     17:
     0.902423,1.461709,1.219575,1.467871,1.120986,865.000000,698.000000,167.000000,201.000000,0.000000,23.000000,0.902423,1.461709,1.219575,1.467871,1.120986,865.000000,698.000000,167.000000,201.000000,0.000000,23.000000:
0000
0000
0000
0000
0002
0000
1000
0000
0100
0003
0002
0000
0010
0000
0100
0000
,
2003
0000
3200
0000
0320
0000
0001
0000
0100
0030
0021
0000
1000
0000
0100
0000
,
0032
0000
0023
0000
0230
0000
0001
0000
1000
0300
0200
0000
1000
0000
0301
0000
,
0020
0000
0230
0000
2300
0000
0010
0000
0001
3000
2100
0000
0020
0000
3001
0000
,
0100
0000
0001
0000
2130
3000
0000
0020
0031
0100
0002
1013
0000
0000
0000
0000
,
0020
2030
3001
2000
3120
0030
0000
0002
0013
0100
2000
3011
0000
0000
0000
0000
,
2000
3200
0320
0230
2301
3000
0000
0200
0301
1000
0020
0131
0000
0000
0000
0000
,
0020
0230
0301
0200
1320
0030
0000
0002
0013
1000
0200
0311
0000
0000
0000
0000
,
1000
0000
0100
0000
0001
0010
0100
0000
1000
0000
0010
0000
0100
0000
0001
0000
0110
0000
1000
0000
0010
0000
0100
0000
0001
0000
0010
0100
1000
0000
0010
0000
,
1001
0000
0010
0100
1000
0000
0001
0000
0100
0000
0010
0000
0001
0000
0010
0000
1100
0000
0001
0000
0010
0000
0001
0000
1000
0000
0100
0010
0001
0000
0100
0000
,
1001
0000
0100
0010
0001
0000
0010
0000
1000
0000
0100
0000
0010
0000
0001
0000
1100
0000
0010
0000
1000
0000
0100
0000
0001
0000
0010
0100
1000
0000
0010
0000
,
1001
0000
0010
0100
1000
0000
0001
0000
0010
0000
0100
0000
0010
0000
1000
0000
0101
0000
0010
0000
1000
0000
0010
0000
1000
0000
0001
0010
0100
0000
0001
0000
,
1100
0000
0001
0010
0100
0000
0001
0000
1000
0000
0000
0000
0000
0000
1000
0000
0201
0000
0000
0000
0320
0000
0000
0000
0032
0000
0100
0000
0000
0000
1003
0000
,
0120
0000
0000
0000
0230
0001
1300
0000
0010
0000
0000
0000
0000
0000
0010
0000
1002
0000
0000
0000
0203
0000
0000
0000
0320
0000
0001
0000
0000
0000
1030
0000
,
0201
0000
0010
1000
0010
0000
1300
0000
0002
0000
0000
0000
0000
0000
1000
0000
0113
0000
0000
0000
0200
0000
0000
0000
0320
0000
0001
0000
2030
0000
0000
0000
,
3011
0000
0000
0000
0200
0001
1000
0000
0320
0000
0000
0000
0031
0000
1000
0000
0102
0000
0000
0000
0023
0000
1000
0000
0230
0000
0001
0000
0000
0000
0301
0000
,
0120
0000
0001
0000
1030
0100
1000
0000
0011
0000
0000
0000
1000
0000
0100
0000
0011
0000
0000
0000
0100
0000
0000
0000
0011
0000
1000
0000
0000
0000
0000
0000
,
0011
0000
0000
0000
1000
0100
1000
0000
0011
0000
0000
0000
0001
0000
0010
0000
1100
0000
0000
0000
0001
0000
0000
0000
1100
0000
0010
0000
0000
0000
0001
0000
,
1100
0000
0001
0000
0010
0100
1000
0000
0011
0000
1000
0000
0110
0000
1000
0000
0101
0000
0010
0000
1001
0000
0010
0000
1100
0000
0001
0000
0110
0000
1000
0000
,
0101
0000
0010
0000
1001
0000
0010
0000
1100
0000
0011
0000
1100
0000
0011
0000
1100
0011
1100
0011
1100
0011
1100
0011
1000
0000
0000
0000
0100
0000
0000
0000
,
0010
0000
0001
0000
1010
0000
0100
0000
1001
0010
0100
0011
1000
0100
1001
0000
,
0110
0001
0010
0100
1001
0000
0100
0001
1010
0100
0001
1100
0010
1000
0101
1000
,
0110
0001
1100
0010
1001
0000
0010
0100
1010
0001
0100
0011
1000
0010
0101
0000
,
1001
0100
0010
0001
0110
0000
0001
1100
0011
0100
0011
0011
0100
1001
1001
0000
,
0010
0000
0100
1000
0001
1000
0010
0000
1001
0000
0010
0000
0100
0000
0001
0000
0110
0000
1000
0000
0010
0000
1100
0000
0001
0000
0010
0100
1000
0000
0010
0000
,
1001
0000
0010
0100
1000
0000
0001
0000
1100
0000
0010
0000
0100
0000
0011
0000
1100
0000
0001
0000
0010
0000
0101
0000
1000
0000
0100
0010
0001
0000
0100
0000
,
1001
0000
0100
0010
0001
0000
0010
0000
1001
0000
0100
0000
0010
0000
0001
0000
1100
0000
0001
0000
1000
0000
0110
0000
0001
0000
0010
0100
1000
0000
0010
0000
,
1001
0000
0010
0100
1000
0000
0001
0000
1010
0000
0100
0000
0001
0000
1010
0000
0101
0000
0010
0000
1000
0000
0110
0000
1000
0000
0001
0010
0100
0000
0001
0000
,
1100
0000
0001
0010
0100
0000
0001
0000
2000
0000
0000
0000
0000
0000
0010
0000
0001
0000
0000
0000
3200
0000
0000
0000
0010
0000
0000
0000
0001
0000
0000
0000
,
2300
0000
3200
0000
0320
0000
0000
1000
0100
0000
0032
0000
0100
0000
0010
0000
,
2003
0010
3002
0000
0203
0000
0000
1000
0001
0000
0320
0000
1000
0000
0001
0000
,
0230
0000
0302
0000
2003
0000
0000
0100
0001
0000
3020
0000
0100
0000
1000
0031
,
0200
0010
2300
0000
3011
0000
1000
0100
0011
0100
1000
0000
0011
1000
0100
0000
,
0011
0000
0000
0000
1000
0100
1000
0000
0011
0000
0000
0000
0001
0000
0010
0000
1100
0000
0000
0000
0001
0000
0000
0000
1100
0000
0010
0000
0001
0000
0010
0000
,
1100
0000
0001
0000
0010
0100
1000
0000
0011
0000
1000
0000
0110
0000
1000
0000
0101
0000
0010
0000
1001
0000
0010
0000
1100
0000
0001
0000
0110
0000
1000
0000
,
0101
0000
0010
0000
1001
0000
0010
0000
1100
0000
0011
0000
1100
0000
0011
0000
1100
0000
0011
0000
1100
0000
0011
0000
1100
0011
1100
0011
1100
0011
1100
0011
,
1100
0011
1100
0011
1100
0000
0011
0000
1100
0000
0000
0000
0000
0000
0000
0000
0101
0000
0000
0000
0000
0000
0000
0000
2000
0000
0000
0000
3200
0000
0000
0000
,
0320
0000
0000
0000
0032
0000
0000
0000
1003
0100
0010
0001
0010
0100
1000
0010
0202
0000
0000
0000
0303
0000
0010
0000
0202
0000
0303
0000
0000
0000
0202
0000
,
0303
0000
0000
0000
0202
0000
0303
0000
1000
0000
0001
0010
0100
0000
0010
0000
1000
0000
0100
0000
0022
0000
0033
0000
2002
0000
3003
0000
0000
0000
0220
0000
,
0330
0000
2200
3300
0010
0000
0100
0000
2000
0000
3000
0010
0022
0033
0000
0022
,
0033
0000
0000
0000
0022
0000
0033
0000
1000
0100
0001
0010
0100
0000
0010
0000
0000
0000
0001
0000
0000
0000
0100
0000
0022
0000
0033
0000
0000
0000
0220
0000
,
0330
0000
0000
0000
2020
0000
3030
0000
0001
0010
0100
1000
0100
0010
0001
1000
0200
0000
0000
0000
0300
0000
0001
0000
0022
0000
0033
0000
0000
0000
0022
0000
,
0033
0000
0000
0000
0022
0000
0033
0000
1000
0000
0001
0010
0100
0000
1000
0000
0010
0000
0100
0000
2002
0000
3003
0000
2020
0000
3030
0000
0000
0000
0220
0000
,
0330
0000
0022
0033
2000
0000
0000
3000
0020
0000
0030
0100
2200
3300
0000
2200
,
3300
0000
0000
0000
2200
0000
3300
0000
0001
0100
0010
0000
0100
0000
1000
0001
0010
1000
0100
0010
0001
0100
0010
0000
2002
0000
3003
0000
0000
0000
0220
0000
,
0330
0000
0000
0000
2020
0000
3030
0000
0001
0010
0100
1000
0100
0010
0001
1000
0200
0000
0000
0000
0000
0000
0300
0000
2002
0000
3000
0000
0023
0000
2000
0000
,
3230
0000
0000
0000
2302
0000
3000
0000
0100
0000
0010
1000
0203
0000
0001
0000
0320
0000
1000
0000
0100
0000
0031
0000
1000
0000
0100
0000
0020
0000
0000
0000
,
0032
0000
0023
0000
2030
0000
3200
0000
0302
0000
0023
0000
0002
0003
0230
0002
,
2303
0000
0000
0000
0002
0000
3103
0000
0020
0100
1000
0001
0100
0000
1000
0000
0000
0000
0001
0000
0030
0000
0001
0000
1000
0000
0100
0000
0020
0000
0000
0000
,
2030
0000
0000
0000
3002
0000
0000
0000
1003
0100
0010
0001
0010
0100
1000
0001
0200
0000
0000
0000
0000
0000
0300
0000
0022
0000
0003
0000
2030
0000
0002
0000
,
3203
0000
0000
0000
2302
0000
0003
0000
0010
0000
0001
0100
3020
0000
0001
0000
0230
0000
1000
0000
0001
0000
0310
0000
0100
0000
0010
0000
2000
0000
0000
0000
,
3020
0000
0230
0000
0302
0000
0203
0000
2300
0000
3020
0000
0002
0033
0200
0002
,
2303
0000
0000
0000
0002
0000
3103
0000
0020
0001
1000
0000
0100
0000
0001
0100
1000
0001
1000
0000
0000
0000
0100
0000
0002
0000
0003
0000
0000
0000
0002
0000
,
0003
0000
0002
0033
2000
0000
0000
0000
0010
0000
3200
0000
0010
0000
0000
0000
,
0302
0023
2030
0000
0001
3200
0001
0000
,
2300
3020
0032
0000
1000
0023
0100
0000
,
2030
3002
0203
0000
1000
0322
1000
0000
,
0100
0000
0000
0033
0000
0000
0000
0000
0000
0000
0000
0000
0000
0000
0000
0000
;

//---------------dance-single - Copied from----------------
#NOTES:
     dance-single:
     Copied from:
     Hard:
     11:
     0.496593,0.606227,0.284811,0.343234,0.423565,476.000000,437.000000,39.000000,47.000000,0.000000,0.000000,0.496593,0.606227,0.284811,0.343234,0.423565,476.000000,437.000000,39.000000,47.000000,0.000000,0.000000:
// measure 0
0000
0000
0000
0000
,  // measure 1
0000
0000
0000
0000
,  // measure 2
0000
0000
0000
0000
,  // measure 3
0000
0000
0000
0000
,  // measure 4
0000
0000
0000
0000
1001
0000
0000
0100
0010
0100
0010
1000
0000
0000
0000
0000
,  // measure 5
0010
0100
0001
0100
0010
0000
0000
0010
1000
0010
1000
0001
0000
0000
0000
0000
,  // measure 6
1001
0000
0120
0000
0130
0000
0000
0001
1000
0010
1000
0010
0000
0000
0000
0000
,  // measure 7
0100
0001
0100
0010
0100
0000
0000
0001
1000
0010
1000
0010
0000
0000
0000
0000
,  // measure 8
0001
0100
0020
0130
0001
1000
0001
0100
0010
1000
0001
0010
0100
0000
0010
0000
,  // measure 9
0001
1000
0010
0100
0001
0100
0010
1000
0010
1000
0100
1000
0001
0000
0100
0000
,  // measure 10
0100
0010
0100
1000
0100
0010
0100
0001
1000
0010
0100
0010
0100
0000
0001
0000
,  // measure 11
0001
0100
0010
0100
0001
1000
0100
0010
0001
1000
0010
0100
0001
0000
1000
0000
,  // measure 12
0100
0000
0020
0001
0130
0000
0000
0001
0000
0000
1000
0000
0000
1000
0000
0000
,  // measure 13
1000
0000
0200
0000
0310
0000
0000
0010
0000
0000
0001
0000
0000
0001
0000
0000
,  // measure 14
1000
0010
2000
0000
3010
0000
0000
0010
0000
0000
0100
0000
0000
0100
0000
0000
,  // measure 15
0001
0000
0200
0000
0301
0000
0000
0001
0000
0000
0100
0000
0000
0100
0000
0000
,  // measure 16
0010
1000
0020
0000
1030
0000
0000
0000
0100
0000
0010
0000
1000
0000
0000
0001
,  // measure 17
0100
0000
0020
0000
1030
0000
0000
0000
0010
0000
1000
0000
0100
0000
0000
0010
,  // measure 18
0001
0020
1030
0001
1000
0001
1000
0001
,  // measure 19
1000
0000
0001
0000
1000
0001
1000
0001
1000
0001
1000
0001
2000
0000
3200
0000
,  // measure 20
0320
0032
0103
0010
1000
0010
0100
0001
,  // measure 21
0100
0010
1000
0010
0100
0001
0100
0010
,  // measure 22
1000
0001
0010
0100
1000
0010
0100
0001
,  // measure 23
0010
1000
0010
0001
0010
0001
0100
0010
,  // measure 24
1000
1000
0010
0100
1001
0001
0010
0100
,  // measure 25
0110
1000
0001
1000
1001
0100
0100
0001
,  // measure 26
1001
1000
0100
0010
0110
1000
0001
1000
,  // measure 27
1010
0001
0100
0001
0101
0010
1000
0001
,  // measure 28
1001
0000
0100
0000
0010
0000
0000
0100
0000
0000
0010
0000
0000
0000
0001
0000
,  // measure 29
0200
0000
0320
0000
0032
0000
0003
0100
0000
0000
1000
0000
0000
0000
0001
0000
,  // measure 30
0020
0000
0230
0000
2300
0000
3000
0100
0000
0000
0010
0000
0000
0000
1000
0000
,  // measure 31
0020
0000
0230
0000
0320
0030
0000
0001
0000
0000
1000
0000
0000
0000
0100
0001
,  // measure 32
0100
0000
0001
0000
1001
0000
1000
0000
0001
0000
1000
0000
0010
0000
0100
0010
,  // measure 33
0100
0000
0001
0000
1001
0000
1000
0000
0100
0000
0001
0000
1000
0000
0001
0010
,  // measure 34
0100
0010
0011
0001
1000
0001
1000
0001
,  // measure 35
1000
0000
0001
0000
1000
0001
1000
0001
1000
0001
1000
0001
0200
0000
0000
0000
,  // measure 36
0000
0000
0310
0000
0110
0000
0002
0023
,  // measure 37
0230
0000
2300
0000
3001
0010
0100
1000
0020
0000
0000
0030
0100
0000
0000
0100
,  // measure 38
0000
0000
0100
0000
1000
0010
1000
0001
0100
0001
0100
0000
0010
0000
0000
0010
,  // measure 39
0000
0000
0010
0000
0100
0000
0100
0000
0002
0000
0000
0003
0100
0000
0000
0100
,  // measure 40
0000
0000
0100
0000
0001
0010
0100
1000
0010
0100
0001
0000
1000
0000
0000
1000
,  // measure 41
0000
0000
1000
0000
0001
0010
0100
1000
0020
0000
0000
0030
0001
0000
0000
0001
,  // measure 42
0000
0000
0001
0000
0010
1000
0100
0010
0001
1000
0100
0000
1000
0000
0000
1000
,  // measure 43
0000
0000
1000
0000
0020
0000
0000
0000
0230
0000
0000
0300
0010
0000
0000
0010
,  // measure 44
0000
0000
0010
0000
0100
0001
1000
0010
0100
0001
0010
0000
0001
0000
0000
0001
,  // measure 45
0000
0000
0001
0000
1000
0100
0010
0001
2000
0000
0000
3000
1100
0000
0000
1100
,  // measure 46
0000
0000
1100
0000
0010
0100
0001
0100
0010
0100
0001
0000
0101
0000
0000
0101
,  // measure 47
0000
0000
0101
0000
0200
0000
0320
0000
2030
0000
0000
3000
0110
0000
0000
0110
,  // measure 48
0000
0000
0110
0000
1000
0010
0100
0001
0100
0010
1000
0000
1001
0000
0000
1001
,  // measure 49
0000
0000
1001
0000
0001
0010
0100
1000
0002
0000
0000
0003
1001
0000
0000
1001
,  // measure 50
0000
0000
1001
0000
0010
1000
0010
0100
0001
0100
0010
0000
1001
0000
0000
1001
,  // measure 51
0000
0000
1001
0000
0200
0000
0000
0000
0302
0000
0000
0003
1010
0000
0000
1010
,  // measure 52
0000
0000
1010
0000
0010
0100
0001
0100
0010
0100
0001
0000
1010
0000
0000
1010
,  // measure 53
0000
1010
0002
0000
1000
0023
0001
0000
,  // measure 54
0100
0001
2030
0000
0010
3200
0001
0000
,  // measure 55
0010
0001
0302
0000
0100
0023
0001
0000
,  // measure 56
0130
0001
2000
0000
0000
3002
0000
0000
,  // measure 57
0000
0003
0000
0000
;

//---------------dance-single - Copied from Copied f----------------
#NOTES:
     dance-single:
     Copied from Copied f:
     Medium:
     8:
     0.371402,0.375457,0.401656,0.175268,0.000000,356.000000,301.000000,55.000000,24.000000,0.000000,0.000000,0.371402,0.375457,0.401656,0.175268,0.000000,356.000000,301.000000,55.000000,24.000000,0.000000,0.000000:
0000
0000
0000
0000
,
0000
0000
0000
0000
,
0000
0000
0000
0000
,
0000
0000
0000
0000
,
0000
0000
1001
0000
0100
0010
0200
0000
,
0310
0000
0010
0100
0001
0100
0002
0000
,
1003
0000
0100
0010
1000
0001
0100
0010
,
0200
0000
0020
0000
0000
0000
0000
0330
,
1001
0000
0110
0001
0100
0010
0100
0000
,
0010
0000
1000
0001
0100
0010
2000
0000
,
3001
0000
0010
0100
0001
0100
0020
0000
,
0130
2000
0001
0010
,
3100
0000
0110
0000
1000
0010
0200
0000
,
0301
1000
0020
0000
0130
0001
2000
0000
,
3001
0100
0020
0000
0130
0001
2000
0000
,
3100
0010
0200
0000
0310
1000
0002
0000
,
0103
0010
1100
0000
0110
0000
1001
0000
,
0011
1100
0110
1001
,
0110
0000
1000
0001
1000
0001
1000
0001
,
1000
0001
0200
0000
0010
0000
0301
0000
,
0000
0000
1000
0100
0010
0100
0010
0001
,
0010
0100
0100
0010
1000
0001
0100
0010
,
0100
0100
0010
1000
0001
0010
1000
0001
,
0100
0010
0100
0100
0010
1000
0001
0010
,
0001
0001
0100
0010
0100
0010
1000
0001
,
0010
0100
0001
0100
0010
0100
0010
0010
,
1000
1000
0100
0010
0001
0010
0100
0001
,
0100
0010
0100
0100
0010
1000
0001
0001
,
0100
0010
1100
0000
0010
0100
0002
0000
,
1003
0010
0200
0000
0310
1000
0002
0000
,
0013
0100
2000
0000
3100
0010
0200
0000
,
0310
0001
2000
0000
3010
0100
0001
0000
,
1100
0000
0010
0100
0001
0100
0010
1000
,
0001
0100
0010
0000
0100
1000
0100
0010
,
0100
0001
0100
0000
1000
0010
0100
0001
,
0100
0010
2000
0000
0100
0000
0010
0000
,
0001
3010
0010
0110
,
0000
0000
0100
0010
0100
0000
1001
0000
,
1001
0000
0100
0010
0100
0010
0011
0000
,
0011
0000
0100
0010
0100
0010
1100
0000
,
1100
0000
0001
0100
0001
0100
0011
0000
,
0011
0000
0100
0010
0100
0010
0110
0000
,
0110
0000
1000
0001
1000
0001
1001
0000
,
1001
0000
0100
0010
0100
0010
0110
0000
,
0110
0000
0100
0010
0001
0010
0110
0000
,
0110
0000
1000
0001
1001
0000
0110
0000
,
1001
0000
0100
0010
0100
0001
0101
0000
,
0101
0000
0010
0100
0010
0000
0110
0000
,
0110
0000
1000
0100
0010
0001
0110
0000
,
0110
0000
0100
0010
1000
0001
1100
0000
,
1100
0000
0010
0100
0001
0100
0011
0000
,
0011
0000
1000
0010
0100
0001
1100
0000
,
1100
0000
0010
0100
0001
0100
0011
0000
,
0011
1001
0000
1001
,
0000
0110
0000
1100
,
0000
0110
0000
0011
,
0000
0220
0000
0000
,
0000
0330
0000
0000
0000
0000
0000
0000
;

//---------------dance-single - Copied from Copied f----------------
#NOTES:
     dance-single:
     Copied from Copied f:
     Easy:
     5:
     0.271248,0.292049,0.233691,0.160663,0.000000,260.000000,228.000000,32.000000,22.000000,0.000000,0.000000,0.271248,0.292049,0.233691,0.160663,0.000000,260.000000,228.000000,32.000000,22.000000,0.000000,0.000000:
0000
0000
0000
0000
,
0000
0000
0000
0000
,
0000
0000
0000
0000
,
0000
0000
0000
0000
,
0000
1000
0100
0020
,
0130
0001
0010
2000
,
3001
0100
0010
0100
,
0010
0002
0100
1000
,
0013
0100
0010
1000
,
0001
0100
0010
2000
,
3010
0001
0100
0010
,
0100
0002
0103
2000
,
3010
0000
0010
0000
0100
0010
0200
0000
,
0310
0100
0020
0000
0130
0001
0200
0000
,
0301
0100
0002
0000
0103
1000
0002
0000
,
0103
0010
0200
0000
0310
1000
0002
0000
,
0000
0000
0103
0000
1000
0010
1000
0000
,
0100
0010
0100
0000
0001
0100
0001
0000
,
1000
0010
1000
0000
0100
0010
0100
0000
,
0001
2000
0000
0000
,
0000
3000
0100
0000
0100
0010
0000
0010
,
0100
0000
0100
0000
0010
1000
0000
1000
,
0010
0000
0100
0000
0001
0100
0000
0100
,
0010
0000
0100
0000
0001
1000
0000
1000
,
0010
0000
0100
0000
0001
0100
0000
0100
,
0010
0000
1000
0000
0001
0010
0000
0010
,
0100
0000
1000
0000
0100
0010
0000
0010
,
0100
0000
0001
0000
1000
0010
0000
0010
,
0100
0000
0010
0000
0100
0001
0100
0000
,
1000
0010
1000
0000
0100
0001
0100
0000
,
0010
1000
0010
0000
0100
0001
0100
0000
,
0010
0100
0010
0000
1000
0000
0010
0000
,
0100
0000
0010
0000
0100
0001
0100
0000
,
1000
0010
1000
0000
0100
0001
0100
0000
,
0010
0100
0010
0000
1000
0001
1000
0000
,
0010
0100
0020
0000
0100
0000
1000
0000
,
0100
0031
0000
0000
,
0000
0100
0010
0110
,
0110
1000
0010
1100
,
1100
0010
0100
0011
,
0011
0010
0100
1001
,
1001
0100
1000
0011
,
1100
0010
0100
0011
,
0011
0100
0010
1100
,
1100
0010
0100
0011
,
0011
0100
0010
1001
,
1001
0100
0010
1100
,
1100
0010
0100
0011
,
0011
0100
0010
1001
,
1001
0100
0010
1100
,
1100
0010
0100
0011
,
0011
0100
0010
1100
,
1100
0010
0100
1001
,
1001
0020
0000
0230
,
0000
0302
0000
2003
,
0000
3020
0000
0230
,
0000
0320
0000
0000
,
0000
0000
0000
0000
0000
0000
0000
0000
0000
0000
0000
0000
0000
0000
0000
0000
0000
0000
0000
0000
0000
0000
0000
0000
0000
0030
0000
0000
0000
0000
0000
0000
0000
0000
0000
0000
0000
0000
0000
0000
0000
0000
0000
0000
0000
0000
0000
0000
0000
0000
0000
0000
0000
0000
0000
0000
0000
0000
0000
0000
0000
0000
0000
0000
0000
0000
0000
0000
0000
0000
0000
0000
0000
0000
0000
0000
0000
0000
0000
0000
0000
0000
0000
0000
0000
0000
0000
0000
0000
0000
0000
0000
0000
0000
0000
0000
0000
0000
0000
0000
0000
0000
0000
0000
0000
0000
0000
0000
0000
0000
0000
0000
0000
0000
0000
0000
0000
0000
0000
0000
0000
0000
0000
0000
0000
0000
0000
0000
0000
0000
0000
0000
0000
0000
0000
0000
0000
0000
0000
0000
0000
0000
0000
0000
0000
0000
0000
0000
0000
0000
0000
0000
0000
0000
0000
0000
0000
0000
0000
0000
0000
0000
0000
0000
0000
0000
0000
0000
0000
0000
0000
0000
0000
0000
0000
0000
0000
0000
0000
0000
0000
0000
0000
0000
0000
0000
0000
0000
0000
0000
0000
0000
;

//---------------dance-single - Copied from Copied f----------------
#NOTES:
     dance-single:
     Copied from Copied f:
     Beginner:
     2:
     0.128321,0.166900,0.131451,0.058423,0.000000,123.000000,105.000000,18.000000,8.000000,0.000000,0.000000,0.128321,0.166900,0.131451,0.058423,0.000000,123.000000,105.000000,18.000000,8.000000,0.000000,0.000000:
0000
0000
0000
0000
,
0000
0000
0000
0000
,
0000
0000
0000
0000
,
0000
0000
0000
0000
,
0000
1000
0010
0010
,
0000
0100
0001
0100
,
0000
0010
1000
0010
,
0000
0002
0000
0103
,
0000
1000
0010
0100
,
0000
0001
0010
0100
,
0000
1000
0001
1000
,
0000
0020
0100
1030
,
0000
0100
0000
0100
,
0000
0010
0000
0010
,
0000
0001
0000
0001
,
0000
0100
0000
0100
,
0000
1000
0000
0010
,
0000
1000
0000
0100
,
0000
0010
0000
0001
,
0000
0020
0000
0030
,
0000
0100
0000
0100
,
0000
0010
0000
0010
,
0000
0001
0000
0001
,
0000
0100
0000
0100
,
0000
1000
0000
1000
,
0000
0100
0000
0100
,
0000
0010
0000
0010
,
0000
0100
0000
0100
,
0000
0001
0000
0001
,
0000
1000
0000
1000
,
0000
0100
0000
0100
,
0000
0010
0000
0010
,
0000
0110
0000
0001
,
0000
1000
0000
0010
,
0000
0100
0000
0100
,
0000
0200
0000
0000
,
0000
0300
0000
0000
,
0000
0001
0000
0011
,
0000
0100
0000
1100
,
0000
0010
0000
0110
,
0000
0001
0000
1001
,
0000
0010
0000
1100
,
0000
0100
0000
1001
,
0000
0010
0000
1100
,
0000
0010
0000
0011
,
0000
0100
0000
1100
,
0000
0010
0000
0011
,
0000
0100
0000
1100
,
0000
0001
0000
1001
,
0000
0010
0000
0110
,
0000
0100
0000
1100
,
0000
0010
0000
0011
,
0000
0100
0000
1001
,
0000
0120
0000
0000
,
0000
0230
0000
0000
,
0000
0302
0000
0000
,
0000
0203
0000
0000
,
0000
0000
0000
0000
0000
0000
0000
0000
0000
0000
0000
0000
0000
0000
0000
0000
0000
0000
0000
0000
0000
0000
0000
0000
0000
0000
0300
0000
0000
0000
0000
0000
0000
0000
0000
0000
0000
0000
0000
0000
0000
0000
0000
0000
0000
0000
0000
0000
0000
0000
0000
0000
0000
0000
0000
0000
0000
0000
0000
0000
0000
0000
0000
0000
0000
0000
0000
0000
0000
0000
0000
0000
0000
0000
0000
0000
0000
0000
0000
0000
0000
0000
0000
0000
0000
0000
0000
0000
0000
0000
0000
0000
0000
0000
0000
0000
0000
0000
0000
0000
0000
0000
0000
0000
0000
0000
0000
0000
0000
0000
0000
0000
0000
0000
0000
0000
0000
0000
0000
0000
0000
0000
0000
0000
0000
0000
0000
0000
0000
0000
0000
0000
0000
0000
0000
0000
0000
0000
0000
0000
0000
0000
0000
0000
0000
0000
0000
0000
0000
0000
0000
0000
0000
0000
0000
0000
0000
0000
0000
0000
0000
0000
0000
0000
0000
0000
0000
0000
0000
0000
0000
0000
0000
0000
0000
0000
0000
0000
0000
0000
0000
0000
0000
0000
0000
0000
0000
0000
0000
0000
0000
0000
;
