#TITLE:Steal My Girl;
#SUBTITLE:;
#ARTIST:One Direction;
#TITLETRANSLIT:;
#SUBTITLETRANSLIT:;
#ARTISTTRANSLIT:;
#GENRE:;
#CREDIT:;
#BANNER:AV.avi;
#BACKGROUND:bg.png;
#LYRICSPATH:;
#CDTITLE:;
#MUSIC:audio.ogg;
#OFFSET:-0.267000;
#SAMPLESTART:56.213001;
#SAMPLELENGTH:15.000000;
#SELECTABLE:YES;
#BPMS:0.000000=77.198997
,150.000000=38.598999
,151.000000=77.198997
;
#STOPS:
;
#BGCHANGES:0.000=MV.avi=1.000=1=0=1===CrossFade==,
99999=-nosongbg-=1.000=0=0=0 // don't automatically add -songbackground-
;
#KEYSOUNDS:;
#ATTACKS:;

//---------------dance-single - ----------------
#NOTES:
     dance-single:
     :
     Challenge:
     15:
     0.595993,0.620705,0.752987,1.044684,0.658015,615.000000,504.000000,111.000000,154.000000,0.000000,56.000000,0.595993,0.620705,0.752987,1.044684,0.658015,615.000000,504.000000,111.000000,154.000000,0.000000,56.000000:
// measure 0
0001
0000
1000
0000
0000
0100
0000
0000
0010
0000
0000
1000
0000
0000
0001
0100
,  // measure 1
0000
0000
0010
0000
0000
0100
0000
0000
0001
0000
0000
0100
0000
0000
0010
0100
,  // measure 2
0000
0000
0010
0000
0000
0100
0000
0000
0010
0000
0000
0100
0000
0000
0010
0100
,  // measure 3
0000
0000
0010
0000
0000
0001
0000
0000
0010
0000
0000
0100
0000
0000
0010
0100
,  // measure 4
1001
0000
0010
0000
2000
3010
0000
0101
1000
0000
0201
1000
0320
0030
0001
0100
,  // measure 5
0011
0000
1000
0000
0020
0031
0000
0011
0100
0000
0012
0100
2003
3000
0010
0100
,  // measure 6
1001
0000
0010
0000
0002
0103
0000
1100
0001
0000
2100
0001
3020
0030
0001
1000
,  // measure 7
0011
0000
0100
0000
0002
0013
0000
1100
0001
0000
1200
0001
0320
0030
1000
0001
,  // measure 8
0010
0100
0010
0000
1000
0000
1000
0010
0000
0010
0100
0000
1001
0000
0010
0100
,  // measure 9
0000
0100
0001
0000
1010
0000
0100
0010
0000
0010
1000
0000
0001
0000
0100
0010
,  // measure 10
1100
0000
0010
0000
0002
0103
0000
1100
0010
0000
1200
0001
0320
0030
0002
0203
,  // measure 11
1310
0000
0100
0000
2000
3001
0000
1010
0001
0000
2010
0000
3020
0030
0100
0010
,  // measure 12
1000
0100
0010
0000
0101
0000
0010
0100
0000
0100
0010
0000
1100
0000
0010
0100
,  // measure 13
0000
0100
0010
0000
1001
0000
0010
0100
0000
0100
0001
0000
0010
0000
0100
1000
,  // measure 14
0011
0000
0100
0000
2000
3010
0000
0011
0100
0000
0021
1000
0230
0300
2000
3020
,  // measure 15
0131
0000
0010
0000
0002
1003
0000
0101
1000
0000
0102
0000
0203
0300
0020
0032
,  // measure 16
0110
1000
0100
0010
1000
0013
0200
2300
0010
0100
0010
0001
0100
0010
3200
0302
,  // measure 17
1010
0100
1000
0100
0010
1003
0002
0203
0010
0000
0300
0010
2000
0000
0000
0000
,  // measure 18
3110
0000
0001
0100
0020
0031
0100
1001
0100
0000
1001
0000
0002
0000
0100
1000
,  // measure 19
0113
0000
0100
0001
2000
3001
0100
0011
0100
0000
1001
0000
0020
0030
1000
0100
,  // measure 20
1010
0000
1000
0100
2000
3001
0100
0011
1000
0000
0110
0000
2002
3000
0100
1000
,  // measure 21
0113
0000
0001
1000
0020
0130
0001
1100
0010
0000
1100
0000
0002
0003
0100
0001
,  // measure 22
1010
0000
0001
0100
2000
3001
0100
0011
1000
0000
0011
0000
2010
0200
0302
3203
,  // measure 23
0311
0000
0001
0100
2000
3010
0100
1010
0001
0000
1010
0000
2000
3200
0302
0203
,  // measure 24
1310
0000
0001
0100
0020
0031
1000
0011
0100
0000
0011
0000
2020
0030
0100
3001
,  // measure 25
1010
1010
0001
0100
0020
0130
1001
1001
0200
0000
2300
0010
3002
0013
0100
0001
,  // measure 26
1010
0000
0002
0000
0023
2030
0000
0101
3020
0000
0101
2030
0200
0300
3002
0203
,  // measure 27
1010
0300
2000
0000
0002
3023
0000
1001
0230
0000
1001
0320
0200
0300
0032
2003
,  // measure 28
3110
0000
0200
0000
0002
2303
0000
0011
3200
0000
1001
0320
0002
0003
2030
3002
,  // measure 29
0113
0000
0020
0000
0002
0233
0000
0300
0002
0000
2003
0000
3020
0000
0230
0002
,  // measure 30
1310
0000
0000
0000
0000
0000
1003
0020
0000
0000
0000
0000
0000
0030
1000
0100
,  // measure 31
0010
0001
0010
0100
0001
0000
0010
0200
0000
0000
0000
0300
0000
0000
1000
0020
,  // measure 32
0000
0000
0000
0000
0000
0000
0031
0200
0000
0000
0000
0000
0300
0000
0010
1000
,  // measure 33
0001
0010
1100
0001
0100
1001
0100
0010
1100
0001
0010
1100
0011
1100
0011
1100
,  // measure 34
1001
0000
1000
0100
0010
0001
1000
0010
0200
0000
0302
0000
2003
0000
0000
0000
,  // measure 35
3011
0000
0010
0100
0001
1000
0010
0100
0002
0000
0023
0000
0230
0000
0320
2030
,  // measure 36
0101
0000
0010
0100
3001
1000
0010
0100
0001
0000
1000
0000
0020
0000
0000
0000
,  // measure 37
0030
0000
2000
0000
3200
0000
0320
0000
0032
0000
0023
0000
0230
0000
0302
0000
2003
0000
3020
0000
0230
0000
2300
3002
0110
0000
0000
0000
1000
0000
0010
0000
,  // measure 38
0200
1300
0010
1100
0023
0000
1001
0000
2000
0002
0203
0302
3103
0000
0001
1000
,  // measure 39
0002
1003
0100
1100
0001
0000
1001
0000
0200
0300
0031
0010
0101
0000
0001
0010
,  // measure 40
0002
1003
0010
1100
0001
0000
0110
0000
2002
0003
0010
0001
3110
0110
1000
0001
,  // measure 41
0200
0311
1000
0011
0100
0000
0011
1000
0210
0001
0010
1000
0011
0000
2300
0010
,  // measure 42
0002
0103
0010
0101
3010
0000
1100
0000
0102
0020
2030
3023
1100
0000
0032
2003
,  // measure 43
0002
0103
0010
0101
0010
0000
0101
0000
0002
0023
0230
0320
0101
0030
0001
0010
,  // measure 44
0200
0301
0010
0101
0010
0000
0110
0000
0102
3003
0010
1000
0101
0101
1000
0010
,  // measure 45
0200
0310
1001
1001
0020
0000
0230
0000
0320
0000
0230
0302
0003
0000
0000
0000
;

//---------------dance-single - ----------------
#NOTES:
     dance-single:
     :
     Hard:
     9:
     0.353720,0.387941,0.027135,0.440938,0.332399,365.000000,361.000000,4.000000,65.000000,0.000000,0.000000,0.353720,0.387941,0.027135,0.440938,0.332399,365.000000,361.000000,4.000000,65.000000,0.000000,0.000000:
0000
0000
0000
0000
,
0000
0000
0000
0000
,
0000
0000
0000
0000
,
0000
0000
0000
0000
,
1000
0000
0100
0000
1000
0000
0010
0000
0100
0010
0100
0000
0001
0000
0000
0000
,
0010
0000
1000
0000
0001
0000
1000
0000
0010
1000
0001
0000
0010
0000
0000
0000
,
0100
0000
0001
0000
0100
0000
0010
0000
1000
0001
1000
0000
0001
0000
0000
0000
,
0010
0000
0001
0000
1000
0000
0010
0000
1000
0100
1000
0000
0010
0000
0000
0000
,
1000
0001
1000
0000
0010
0000
0010
0100
0000
0100
0010
0000
0010
0000
1000
0001
,
0000
0001
0010
0000
0010
0000
0001
1000
0000
1000
0010
0000
0100
0000
0010
0100
,
0010
0000
1000
0000
0010
0000
0100
0000
0001
0100
0001
0000
0010
0000
0000
0000
,
0001
0000
1000
0000
0010
0000
0100
0000
0001
0100
0010
0000
1000
0000
0000
0000
,
0100
1000
0100
0000
1000
0000
1000
0010
0000
0010
0100
0000
0001
0000
0001
0010
,
0000
0010
0001
0000
1000
0000
0010
0100
0000
0100
0010
0000
1000
0000
0001
0010
,
0001
0000
1000
0000
0010
0000
0100
0000
0001
0100
0001
0000
1000
0000
0000
0000
,
0010
0000
1000
0000
0001
0000
0010
0000
0100
1000
0001
0000
0100
0000
0010
0000
,
2000
0001
0010
0001
0100
0001
0010
0100
,
3002
0010
1000
0100
0013
0000
1001
0000
,
0010
0000
0001
1000
0100
0010
0001
1000
0020
0000
0230
0000
0302
0000
0000
0000
,
0013
0000
0001
0010
0100
0010
0001
1000
0020
0000
0230
0000
0302
0000
1003
0100
,
0000
0000
0010
1000
0001
0010
0100
1000
0002
0000
0023
0000
0230
0000
0000
0000
,
0300
1000
0010
0100
0001
1000
0010
0100
0001
0000
0010
0000
0100
0000
0010
0000
,
1001
0000
0010
1000
0001
0010
0100
1000
0002
0000
0023
0000
0230
0000
0000
0000
,
0310
0000
0010
1000
0001
0010
0100
0010
0002
0000
2003
0000
3020
0000
1030
0010
,
0000
0000
0010
1000
0010
0001
0010
1000
0001
0000
0010
0000
0200
0000
0000
0000
,
1300
0000
0001
1000
0010
0100
0001
1000
0200
0000
0320
0000
0031
0000
1000
0010
,
0200
0000
0301
0000
0010
0000
0100
0000
1000
0100
1000
0000
0020
0000
0000
0000
,
0130
0000
0001
0000
1000
0000
0100
0000
0001
1000
0001
0000
0020
0000
0000
0000
,
0031
0000
1000
0000
0010
0000
0100
0000
0010
1000
0010
0000
0002
0000
0000
0000
,
0013
1000
0001
0010
0100
0010
0001
1000
,
0020
0000
2030
0000
,
3002
0000
0023
0000
,
0032
0000
2003
0000
,
0000
0000
3010
0000
0000
0010
0000
0000
0010
0000
0000
0010
0100
0010
0100
0000
,
0001
0000
0010
1000
0001
0010
0100
1000
0002
0000
0203
0000
0320
0000
0030
0000
,
1010
0000
0001
0010
0100
0010
0001
1000
0010
0000
0100
0000
0001
0000
1000
0000
,
1001
0000
0010
1000
0001
0010
0100
1000
0001
0000
0100
0000
0020
0000
0000
0030
,
0000
0010
1000
0010
0001
0010
1000
0001
0020
0000
0000
0000
0031
0000
1000
0010
,
0001
0010
1000
0100
0020
0000
0032
0000
2003
0000
0000
0000
3010
0000
1000
0100
,
0010
0100
1000
0010
0200
0000
0302
0000
2003
0000
3010
0200
0000
0300
0001
0010
,
0100
0001
0010
0100
0002
0000
0023
0000
0230
0000
0000
0000
1300
0000
1000
0010
,
0001
0010
0100
0001
2000
0000
3100
0010
0100
0010
0100
0010
0001
0000
2000
0000
,
0000
3020
0000
0000
0230
0000
0000
0302
0000
0003
0010
0010
0000
0000
0020
0000
,
0000
2030
0000
0000
3002
0000
0003
0200
0000
0300
0010
0010
0000
0000
2000
0000
,
0000
3002
0000
0003
0020
0000
0000
0230
0000
0300
1000
1000
0000
0000
0002
0000
,
0003
0200
0000
0000
0320
0000
2030
0000
3002
0000
0023
0230
0300
0000
0000
0000
;

//---------------dance-single - ----------------
#NOTES:
     dance-single:
     :
     Medium:
     7:
     0.208355,0.247943,0.047486,0.162808,0.132281,215.000000,208.000000,7.000000,24.000000,0.000000,0.000000,0.208355,0.247943,0.047486,0.162808,0.132281,215.000000,208.000000,7.000000,24.000000,0.000000,0.000000:
0000
0000
0000
0000
,
0000
0000
0000
0000
,
0000
0000
0000
0000
,
0000
0000
0000
0000
,
0000
0000
0000
0000
0000
0000
0000
0000
1000
0000
0000
1000
0000
0000
0010
0100
,
0000
0000
0001
0000
0000
0001
0000
0000
0001
0000
0000
0001
0000
0000
0010
0100
,
0000
0000
1000
0000
0000
1000
0000
0000
1000
0000
0000
1000
0000
0000
0010
0100
,
0000
0000
0001
0000
0000
0001
0000
0000
1000
0000
0000
0001
0000
0000
0000
0000
,
0001
1000
0001
0000
0001
0100
0001
0000
,
0010
1000
0010
0000
0010
0100
0010
0000
,
0110
0000
0001
0000
0000
0001
0000
0000
0001
0000
0000
0001
0000
0000
0001
1000
,
0000
0000
1000
0000
0000
1000
0000
0000
1000
0000
0000
1000
0000
0000
1000
0100
,
1000
0010
0100
0000
0100
0010
1000
0000
,
0001
0010
0100
0000
0001
1000
0001
0000
,
1001
0000
0001
0000
0000
0001
0000
0000
1000
0000
0000
1000
0000
0000
0001
1000
,
0000
0000
0010
0000
0000
0010
0000
0000
0100
0000
0000
0100
0000
0000
0010
0000
,
2000
0000
3002
0000
,
0023
0000
0031
1000
,
0010
0100
0010
0100
0001
1000
0002
0000
,
0013
0001
1000
0010
0100
0010
2000
0000
,
3001
0100
0001
1000
0010
0010
0020
0000
,
0130
0001
1000
0100
0020
0000
0031
0000
,
0011
0001
1000
0010
0100
0100
0200
0000
,
0310
1000
0001
0010
0001
1000
0020
0000
,
0130
0001
1000
0100
0010
0010
0020
0000
,
0031
1000
0010
0100
0002
0000
0003
0000
,
1001
0000
0010
0000
0000
0010
0000
0000
0010
0000
0000
0010
0000
0000
0010
0000
,
0000
0000
1000
0000
0000
1000
0000
0000
1000
0000
0000
1000
0000
0000
0000
0000
,
0001
0000
0100
0000
0000
0100
0000
0000
0100
0000
0000
0100
0000
0000
0000
0000
,
0010
0000
1000
0000
0000
1000
0000
0000
0002
0000
0000
0000
1003
0000
0000
0000
,
0020
0000
0000
0000
,
2030
0000
0000
0000
,
3002
0000
0000
0000
,
0013
0000
0010
0000
0001
0010
0001
0000
,
2001
0000
0000
0000
3020
0000
0000
0030
,
0210
0000
0000
0000
0320
0000
0000
0030
,
2001
0000
3002
0000
,
0003
0000
0000
1000
,
0100
0000
1000
0010
2000
0000
3001
0000
,
0010
0000
0001
1000
0002
0000
0103
0000
,
0010
0000
1000
0001
2000
0000
3010
0000
,
0100
0000
0001
0100
0001
0100
0001
1000
,
0000
1000
0000
0000
1000
0000
0000
1000
0000
0000
0010
0100
0000
0000
0001
0000
,
0000
0001
0000
0000
0001
0000
0000
0001
0000
0000
0001
0010
0000
0000
0010
0000
,
0000
0010
0000
0000
0010
0000
0000
0010
0000
0000
0010
0100
0000
0000
0001
0000
,
0000
1000
0000
0000
0010
0000
1000
0000
0001
0000
0001
1000
0000
0000
0000
0000
;

//---------------dance-single - ----------------
#NOTES:
     dance-single:
     :
     Easy:
     4:
     0.143426,0.185194,0.074620,0.237428,0.000000,148.000000,137.000000,11.000000,35.000000,0.000000,0.000000,0.143426,0.185194,0.074620,0.237428,0.000000,148.000000,137.000000,11.000000,35.000000,0.000000,0.000000:
0000
0000
0000
0000
,
0000
0000
0000
0000
,
0000
0000
0000
0000
,
0000
0000
0000
0000
,
1000
1000
2000
0000
,
3001
0001
0002
0000
,
0103
0100
0200
0000
,
1300
1000
2000
0000
,
3010
0010
0100
0100
,
0001
0001
1000
1000
,
1001
0001
0002
0013
,
0001
1000
0002
0013
,
1000
1000
0100
0100
,
1000
1000
0010
0010
,
0110
0001
2000
3001
,
0001
0010
0002
1003
,
2002
0000
0000
0000
0000
3003
0000
0000
,
0220
0000
0330
0000
,
1000
0000
0100
0000
1000
1000
2000
0000
,
0000
0000
3010
0000
0100
0100
0200
0000
,
0000
0000
0301
0000
0001
0001
0002
0000
,
0000
0000
1003
0000
0010
0100
0010
0000
,
0001
0000
1000
0000
0100
0100
0200
0000
,
0000
0000
1300
0000
0010
0010
0020
0000
,
0000
0000
1030
0000
0001
1000
0002
0000
,
0000
0000
0013
0000
0001
1000
0001
0000
,
0010
0010
0020
0130
,
0210
0010
0010
0301
,
1002
1000
0010
0103
,
1001
0010
0010
0000
,
2000
0000
0000
0000
,
3200
0000
0000
0000
,
2300
0000
0000
0000
,
3002
0000
0000
0000
,
0013
0010
2000
0000
,
3001
0001
0002
0000
,
0103
0100
0200
0000
,
0000
0000
0000
0310
,
0010
0020
0100
1030
,
0001
0020
0001
0130
,
0001
2000
0010
3100
,
0001
0100
0001
0012
,
0010
0013
0000
2100
,
0100
3010
0000
1002
,
0010
0103
0000
2100
,
0010
0001
3001
0000
;

//---------------dance-single - ----------------
#NOTES:
     dance-single:
     :
     Beginner:
     1:
     0.095940,0.123463,0.000000,0.217077,0.000000,99.000000,99.000000,0.000000,32.000000,0.000000,0.000000,0.095940,0.123463,0.000000,0.217077,0.000000,99.000000,99.000000,0.000000,32.000000,0.000000,0.000000:
0000
0000
0000
0000
,
0000
0000
0000
0000
,
0000
0000
0000
0000
,
0000
0000
0000
0000
,
1000
1000
1000
0000
,
0002
0000
1003
0000
,
0010
0010
0010
0000
,
0020
0000
0031
0000
,
1000
0000
0000
0000
,
0000
0000
0000
0000
,
1000
1000
2000
0000
,
3001
0001
0002
0000
,
1003
0000
0000
0000
,
0000
0000
0000
0000
,
0010
0010
0020
0000
,
0031
0001
0002
0000
,
2003
0000
0000
0000
,
3020
0000
0000
0000
0000
0030
0000
0000
,
1000
0000
1000
0000
2000
0000
0000
3000
,
0001
0000
0001
0000
0002
0000
0000
0003
,
0100
0000
0100
0000
0200
0000
0000
0300
,
0010
0000
0001
0000
0020
0000
0000
0030
,
1000
0000
1000
0000
2000
0000
0000
3000
,
0100
0000
0100
0000
0200
0000
0000
0300
,
0001
0000
0010
0000
0002
0000
0000
0003
,
0100
0100
0010
0010
,
1000
0000
1000
0000
2000
0000
0000
3000
,
0001
0000
0001
0000
0002
0000
0000
0003
,
0010
0000
0010
0000
0020
0000
0000
0030
,
0100
0100
0100
0000
,
2000
0000
0000
3000
,
0002
0000
0000
0003
,
0020
0000
0000
0030
,
0000
0000
0000
0000
,
1000
0000
1000
0000
2000
0000
0000
3000
,
0010
0000
0010
0000
0020
0000
0000
0030
,
0001
0001
0002
0000
,
0003
0000
0000
0100
,
0100
0000
0200
0000
0000
0300
1000
0000
,
1000
0000
2000
0000
0000
3000
0010
0000
,
0001
0000
0020
0000
0000
0030
0100
0000
,
0001
0000
0200
0000
0000
0300
1000
0000
,
0001
0000
2000
0000
0000
3000
0010
0000
,
0001
0000
0020
0000
0000
0030
0100
0000
,
0001
0000
0200
0000
0000
0300
1000
0000
,
0001
2000
3000
0000
;
