#TITLE:Shunshoku Portrait;
#SUBTITLE:;
#ARTIST:Shamuon;
#TITLETRANSLIT:;
#SUBTITLETRANSLIT:;
#ARTISTTRANSLIT:;
#GENRE:;
#CREDIT:;
#BANNER:AV.avi;
#BACKGROUND:bg.png;
#LYRICSPATH:;
#CDTITLE:;
#MUSIC:audio.ogg;
#OFFSET:-0.060000;
#SAMPLESTART:63.019001;
#SAMPLELENGTH:15.000000;
#SELECTABLE:YES;
#DISPLAYBPM:82.000000;
#BPMS:0.000000=80.000000
,124.250000=82.000000
,125.000000=80.000000
,141.000000=47.419998
,141.500000=44.779999
,141.750000=30.000000
;
#STOPS:
;
#BGCHANGES:0.000=MV.avi=1.000=1=0=1===CrossFade==,
99999=-nosongbg-=1.000=0=0=0 // don't automatically add -songbackground-
;
#KEYSOUNDS:;
#ATTACKS:;

//---------------dance-single - ----------------
#NOTES:
     dance-single:
     :
     Challenge:
     13:
     0.413636,0.373887,0.043475,0.591263,0.352149,333.000000,328.000000,5.000000,68.000000,0.000000,0.000000,0.413636,0.373887,0.043475,0.591263,0.352149,333.000000,328.000000,5.000000,68.000000,0.000000,0.000000:
// measure 0
0000
0000
0001
0100
0010
0100
0010
0000
,  // measure 1
1000
0000
0000
0000
0010
0000
0001
0000
1000
0000
0100
0000
0010
0000
0200
0300
,  // measure 2
1100
0000
0020
0030
1010
0000
1000
0000
0010
0000
0100
0000
0010
0000
0000
0000
,  // measure 3
0001
0000
0010
0000
0100
0000
0100
0000
0010
0000
0100
0000
0010
0000
0020
0030
,  // measure 4
0011
0000
0100
0000
0010
0000
0001
0000
1000
0000
0010
0100
1000
0000
0100
0010
,  // measure 5
0001
0000
0100
0020
0100
0000
0000
0000
1000
0000
0000
0000
0031
0000
0010
0000
,  // measure 6
0001
0010
0100
1000
0020
0000
0130
0000
0001
0000
1000
0020
0100
0000
1030
0000
,  // measure 7
1000
0100
0010
0001
0020
0000
0130
0010
0100
0000
1000
0100
0010
0000
0001
0000
,  // measure 8
0020
0000
0130
0000
1001
0000
0010
0000
0100
0000
0010
0100
0001
0000
0001
0010
,  // measure 9
0100
0000
1000
0010
0200
0000
0000
0000
0001
0000
0000
0000
0310
0000
0000
0000
,  // measure 10
0001
0100
0001
0010
0200
0000
0310
0001
0010
0000
0100
0000
2000
0000
3000
0000
,  // measure 11
0010
0100
0001
0010
0200
0000
0001
0000
1300
0000
0010
0001
0020
0000
0000
0000
,  // measure 12
0130
0000
0001
1000
0001
0000
0100
0000
0010
0000
1000
0001
0020
0000
0100
0000
,  // measure 13
0031
0000
0010
1000
0002
0000
0010
0000
1003
0000
0010
0100
0020
0000
1000
0000
,  // measure 14
0130
0000
0001
0100
0002
0000
0010
0000
0103
0000
0010
0001
2000
0000
0010
0000
,  // measure 15
3100
0000
0010
0100
0002
0000
0010
0000
1000
0000
0103
0000
0010
0000
0000
0000
,  // measure 16
1000
0001
1000
0010
0100
0000
0001
0000
0010
0000
0100
1000
0020
0000
0100
0000
,  // measure 17
0031
0000
0010
0100
0002
0000
0010
0000
0103
0000
0010
1000
0200
0000
0010
0000
,  // measure 18
1300
0000
0001
0100
0020
0000
1030
0000
0002
0000
0013
0000
0200
0000
1300
0000
,  // measure 19
0020
0130
2000
0001
0001
0001
0001
0001
,  // measure 20
0001
0000
0001
0000
3001
0000
0000
0100
0000
0000
1020
0000
0000
0000
0000
0000
,  // measure 21
1030
0100
0010
0001
0200
0000
0001
0000
0310
0000
0001
0010
0002
0000
1003
0000
,  // measure 22
0010
1000
0100
0010
0002
0000
1000
0000
0103
0000
0010
1000
0200
0000
0310
0000
,  // measure 23
0100
0000
1000
0010
0200
0000
0301
0010
0100
0001
0010
0200
0000
0000
1300
0000
,  // measure 24
0010
0000
1000
0000
0010
1000
0001
0100
0000
0001
0100
0020
0000
0000
1030
0000
,  // measure 25
0001
0100
0010
1000
0002
0000
0010
0000
1003
0000
0010
0100
0002
0000
1003
0000
,  // measure 26
0010
0100
0001
1000
0200
0000
0010
0000
1300
0000
0010
0100
0002
0000
0010
0000
,  // measure 27
1003
0000
0010
0100
2000
0000
3010
0100
0010
0001
0010
0100
0002
0000
0010
0003
,  // measure 28
0100
0000
0010
0000
0100
0010
0100
0010
0000
0001
0010
0200
1000
0000
0000
0000
,  // measure 29
0301
0000
0000
0000
0010
1000
0001
0200
0000
0310
1000
0002
0000
0013
0100
2000
,  // measure 30
0000
0000
3000
0000
0010
0100
0001
0020
0000
0130
1000
0020
0000
0130
0001
2000
,  // measure 31
0000
0000
3000
0000
0010
0100
0001
2000
0000
3100
0010
0002
0000
0003
1000
0000
,  // measure 32
0010
0000
0100
0002
0100
0000
0010
0000
0100
0000
0010
0000
1000
0000
0003
0000
,  // measure 33
0020
0000
0000
0000
0230
0000
0000
0302
2003
0000
3020
0000
0230
0000
0302
0000
,  // measure 34
2003
3002
2003
0010
0001
0010
3200
0000
,  // measure 35
0320
0000
0000
0000
0000
0000
0000
0000
0000
0000
0000
0000
0032
0000
0000
0000
0000
0000
0203
0000
0000
0320
0000
0000
2030
0000
0000
3002
0000
0000
0000
0000
0000
0000
0000
0000
0000
0000
0000
0000
0003
0000
0000
0000
0000
0000
0000
0000
;

//---------------dance-single - ----------------
#NOTES:
     dance-single:
     :
     Hard:
     8:
     0.232282,0.264798,0.069560,0.530398,0.052170,187.000000,179.000000,8.000000,61.000000,0.000000,0.000000,0.232282,0.264798,0.069560,0.530398,0.052170,187.000000,179.000000,8.000000,61.000000,0.000000,0.000000:
0000
0000
0000
0000
,
0000
0000
0000
0000
,
0000
0000
0000
0000
,
0000
0000
0000
0000
,
0000
0000
1000
0010
0001
0100
0001
0100
,
0010
1000
0002
0000
0010
0000
1003
0000
,
0010
0100
0002
0000
0013
0001
0200
0000
,
0310
1000
0200
0000
0310
0001
2000
0000
,
3010
0000
0110
0000
0001
0010
1000
0100
,
0010
0100
0002
0000
1000
0000
0013
0000
,
0001
0010
0200
0000
1300
0010
0200
0000
,
0301
0010
0002
0000
1003
0010
0200
0000
,
0310
0000
0012
0000
1003
0010
0200
0000
,
0301
0000
1002
0000
0013
0100
2000
0000
,
3010
0100
0002
0000
0013
0100
2000
0000
,
3010
1000
0020
0000
0130
0000
0011
0000
,
0001
1000
0001
0000
0200
0000
0000
0000
0310
0000
1000
0000
0002
0000
0000
0000
,
0013
0000
0200
0000
1300
0010
0200
0000
,
0310
0000
0012
0000
0013
0000
0001
1000
,
0002
2003
0010
0100
,
0001
0000
0000
0000
3010
0000
0000
0100
0000
0000
0010
0000
0000
0000
0000
0000
,
0001
1000
0001
1000
0002
0000
0000
0000
0013
0000
0001
0000
2000
0000
0000
0000
,
3010
0100
0010
0100
0020
0000
0000
0000
0130
0000
0001
0000
0020
0000
0000
0000
,
0031
1000
0002
0000
0103
0010
0200
0000
,
0301
1000
0002
0000
0013
0100
2000
0000
,
3010
0100
0010
0100
0020
0000
0000
0000
1030
0000
0001
0000
0020
0000
0000
0000
,
0130
1000
0100
1000
0002
0000
0000
0000
0103
0000
0010
0000
2000
0000
0000
0000
,
3001
0010
0200
0000
1300
0001
0200
0000
,
0310
1000
0002
0000
0013
0001
2000
0000
,
3020
0230
0302
0023
,
0032
2003
3020
0230
,
0000
0300
0220
0330
0220
0330
0220
0330
,
0000
0000
1000
0001
1000
0001
0020
0000
,
0031
0000
2000
0000
3010
0100
0002
0000
,
0013
0000
0001
1000
0001
1000
0002
0000
,
0013
0000
0000
0000
0000
0000
0000
0000
0000
0000
0000
0000
0000
0000
0000
0000
0200
0000
0000
0000
0000
0000
0000
0000
0000
0000
0000
0000
2300
0000
0000
0000
0000
0000
0000
0000
3020
0000
0000
0000
0000
0000
0000
0000
0000
0000
0000
0000
0000
0000
0000
0000
0000
0030
0000
0000
0000
0000
0000
0000
0000
0000
0000
0000
;

//---------------dance-single - ----------------
#NOTES:
     dance-single:
     :
     Medium:
     5:
     0.175143,0.186916,0.034780,0.321717,0.004348,141.000000,137.000000,4.000000,37.000000,0.000000,0.000000,0.175143,0.186916,0.034780,0.321717,0.004348,141.000000,137.000000,4.000000,37.000000,0.000000,0.000000:
0000
0000
0000
0000
,
0000
0000
0000
0000
,
0000
0000
0000
0000
,
0000
0000
0000
0000
,
0000
2000
3200
2300
,
3010
0100
0002
0000
0010
0000
1003
0000
,
0001
1000
0002
0000
0010
0000
1003
0000
,
0100
1000
0200
0000
0010
0000
1300
0000
,
0001
0200
0310
0002
,
0013
2000
0100
3010
,
0001
0010
0002
0000
1000
0000
0103
0000
,
0010
1000
0020
0000
0100
0000
1030
0000
,
0001
0020
0001
0100
,
0031
2000
0100
0010
,
0001
3020
0100
1000
,
0001
2030
0100
3010
,
0001
1002
0010
1003
,
0010
0210
0010
0301
,
0001
0000
0010
0100
0010
0000
0001
1000
,
0010
0200
0010
0001
,
1000
0300
1001
0000
0000
0000
0000
0000
,
0100
2000
0100
3010
,
0001
0010
0002
0000
1003
0010
0200
0000
,
0310
0000
0002
0000
1003
0010
0200
0000
,
0310
0000
0001
1000
0001
0000
0020
0000
,
0031
2000
0100
3010
,
0001
0020
0100
0031
,
1000
0001
1000
0000
0010
0100
0010
0000
,
0001
0000
1000
0001
1000
0000
0002
0000
,
0013
2000
0100
3010
,
0001
0020
0100
0031
,
0010
2001
0001
3001
,
0000
0200
0001
0010
,
0301
2000
3001
0020
,
0031
2000
3001
0020
,
0130
0000
0000
0000
0000
0000
0000
0000
0000
0000
0000
0000
0000
0000
0000
0000
0002
0000
0000
0000
0000
0000
0000
0000
0000
0000
0000
0000
0000
0000
0000
0000
0003
0000
0000
0000
0020
0000
0000
0000
0000
0000
0000
0000
0000
0000
0000
0000
0000
0000
0000
0000
0000
0030
0000
0000
0000
0000
0000
0000
0000
0000
0000
0000
;

//---------------dance-single - ----------------
#NOTES:
     dance-single:
     :
     Easy:
     3:
     0.001242,0.015579,0.000000,0.008695,0.000000,1.000000,1.000000,0.000000,1.000000,0.000000,0.000000,0.001242,0.015579,0.000000,0.008695,0.000000,1.000000,1.000000,0.000000,1.000000,0.000000,0.000000:
0000
0000
0000
0000
,
0000
0000
0000
0000
,
0000
0000
0000
0000
,
0000
0000
0000
0000
,
0000
0000
0000
0000
,
0000
0000
0000
0000
,
0000
0000
0000
0000
,
0000
0000
0000
0000
,
0000
0000
0000
0000
,
0000
0000
0000
0000
,
0000
0000
0000
0000
,
0000
0000
0000
0000
,
0000
0000
0000
0000
,
0000
0000
0000
0000
,
0000
0000
0000
0000
,
0000
0000
0000
0000
,
0000
0000
0000
0000
,
0000
0000
0000
0000
,
0000
0000
0000
0000
,
0000
0000
0000
0000
,
0000
0000
0000
0000
,
0000
0000
0000
0000
,
0000
0000
0000
0000
,
0000
0000
0000
0000
,
0000
0000
0000
0000
,
0000
0000
0000
0000
,
0000
0000
0000
0000
,
0000
0000
0000
0000
,
0000
0000
0000
0000
,
0000
0000
0000
0000
,
0000
0000
0000
0000
,
0000
0000
0000
0000
,
0000
0000
0000
0000
,
0000
0000
0000
0000
,
0000
0000
0000
0000
,
0000
0000
0000
0020
0000
0000
0000
0000
0000
0000
0030
0000
;

//---------------dance-single - ----------------
#NOTES:
     dance-single:
     :
     Beginner:
     1:
     0.042233,0.077712,0.000000,0.165206,0.000000,34.000000,34.000000,0.000000,19.000000,0.000000,0.000000,0.042233,0.077712,0.000000,0.165206,0.000000,34.000000,34.000000,0.000000,19.000000,0.000000,0.000000:
0000
0000
0000
0000
,
0000
0000
0000
0000
,
0000
0000
0000
0000
,
0000
0000
0000
0000
,
0000
1000
0000
0000
,
0000
0001
0000
0000
,
0000
0010
0000
0000
,
0000
1000
0000
0000
,
0000
0001
0000
0000
,
0000
0001
0000
0000
,
0000
0010
0000
0000
,
0000
0001
0000
0000
,
0000
2000
0000
0000
,
0000
3002
0000
0000
,
0000
0023
0000
0000
,
0000
1030
0000
0000
,
0000
0002
0000
0000
,
0000
2003
0000
0000
,
0000
3020
0000
0000
,
0000
0032
0000
0000
,
0000
0003
0000
0000
,
0000
0200
0000
0000
,
0000
2300
0000
0000
,
0000
3200
0000
0000
,
0000
0302
0000
0000
,
0000
2003
0000
0000
,
0000
3020
0000
0000
,
0000
0230
0000
0000
,
0000
0302
0000
0000
,
0000
2003
0000
0000
,
0000
3020
0000
0000
,
0000
0100
0000
0000
,
0000
0130
0000
0001
,
0000
1000
0000
0020
,
0030
0001
0000
0100
,
0000
0020
0000
0030
;
