#VERSION:0.83;
#TITLE:Secret Garden;
#SUBTITLE:;
#ARTIST:OH MY GIRL;
#TITLETRANSLIT:;
#SUBTITLETRANSLIT:;
#ARTISTTRANSLIT:;
#GENRE:;
#ORIGIN:;
#CREDIT:;
#BANNER:AV.avi;
#BACKGROUND:bg.png;
#PREVIEWVID:;
#JACKET:jacket.png;
#CDIMAGE:;
#DISCIMAGE:;
#LYRICSPATH:;
#CDTITLE:;
#MUSIC:audio.mp3;
#OFFSET:0.040000;
#SAMPLESTART:40.779999;
#SAMPLELENGTH:20.000000;
#SELECTABLE:YES;
#DISPLAYBPM:104.000000;
#BPMS:0.000=104.950,
165.500=209.090,
166.250=41.310,
166.500=209.090,
167.250=41.310,
167.500=209.090,
168.250=41.310,
168.500=219.550,
169.250=42.090,
169.500=104.950,
190.000=75.230,
191.000=58.570,
191.250=37.450,
191.500=23.430,
191.750=20.110,
192.000=52.470,
192.500=75.670,
194.000=104.950;
#STOPS:;
#DELAYS:;
#WARPS:;
#TIMESIGNATURES:0.000=4=4;
#TICKCOUNTS:0.000=4;
#COMBOS:0.000=1;
#SPEEDS:0.000=1.000=0.000=0;
#SCROLLS:0.000=1.000;
#FAKES:;
#LABELS:0.000=Song Start;
#BGCHANGES:0.000=MV.avi=0.600=1=1=1=StretchRewind==CrossFade==,
3.000=MV.avi=1.000=0=0=1=====,
99999=-nosongbg-=1.000=0=0=0 // don't automatically add -songbackground-
;
#KEYSOUNDS:;
#ATTACKS:
;

//---------------dance-single - ----------------
#NOTEDATA:;
#CHARTNAME:;
#STEPSTYPE:dance-single;
#DESCRIPTION:;
#CHARTSTYLE:;
#DIFFICULTY:Challenge;
#METER:17;
#RADARVALUES:0.879263,1.122230,1.943635,0.965069,0.755858,912.000000,624.000000,288.000000,143.000000,0.000000,108.000000,0.000000,0.000000,0.000000,0.879263,1.122230,1.943635,0.965069,0.755858,912.000000,624.000000,288.000000,143.000000,0.000000,108.000000,0.000000,0.000000,0.000000;
#CREDIT:;
#DISPLAYBPM:104.000000;
#NOTES:
0000
0000
0000
0000
,
0000
0000
0000
0000
,
0000
0000
0000
0000
,
0000
0000
0000
0000
0000
2100
0000
3021
,
0000
1000
0230
1000
0302
0010
0203
0000
0011
0000
1000
0001
1010
0000
0001
0000
,
1010
0301
0000
0000
0101
0000
0010
0000
0101
0000
0000
1000
0011
0000
1000
0001
,
1100
0010
0000
0000
1001
0000
0100
0000
1010
0000
0001
1000
0101
0010
0001
0000
,
1010
0100
0001
0000
0110
0000
1000
0000
0110
0000
0001
1000
0011
0100
0001
0000
,
1100
0001
0000
1001
0000
0100
1001
0010
1001
0000
0001
0100
1010
0000
0010
0000
,
1001
0010
0000
0000
0011
0000
0100
0000
1001
0000
0000
0001
0110
0000
1000
0000
,
0101
1000
0000
0000
1001
0000
0001
0000
1010
0000
0000
0100
1001
0000
0010
0000
,
0101
1000
0010
0000
1001
0000
0100
0010
1100
0000
0001
0010
0101
0000
0010
0000
,
1001
0010
0100
0011
1000
0100
0011
0100
1001
0010
1000
0100
0001
0000
0000
0001
,
0000
0000
1000
0000
0000
0000
0011
0000
0100
0000
0000
0000
1001
0010
0100
0000
1001
0000
0000
0000
0100
0000
1000
0000
0010
0000
0000
0000
0000
0000
0100
0000
,
0000
0000
0010
0000
1001
0000
0010
0000
1100
0000
0011
0000
1000
0100
0010
0001
1100
0000
0000
0000
0010
0000
0100
0000
1001
0000
0000
0000
0100
0000
0010
0000
,
1100
0000
0001
0000
0000
0000
0010
1000
0110
0000
0001
0000
1000
0001
0010
0000
1100
0000
0001
0010
1100
0000
0001
0000
1100
0000
0001
0100
1000
0000
0010
0000
,
1100
0000
0011
0000
1100
0000
0011
0000
2200
0000
3301
0010
1100
0000
0011
0000
1100
0000
0000
0000
0011
0000
0000
0000
1001
0000
0000
0000
1100
0000
0011
0000
,
1100
0000
0000
0000
1010
0000
0011
0000
0000
0000
0011
0000
2010
0000
0000
0000
3100
0010
0001
0010
0100
1000
0100
0010
0001
0010
0100
1000
0100
0010
0001
0010
,
0100
1000
0100
0010
0001
1000
0001
0100
1000
0010
0100
1000
0100
0010
0001
0010
0200
0000
0000
0300
0000
0000
0200
0000
1301
0000
0000
0000
0002
0000
0000
0000
,
2013
0000
3002
0000
0123
0000
1230
0000
1320
0000
0032
0203
1001
0300
0020
0000
,
0132
1100
0020
0003
1130
0000
1020
0000
2031
0000
3000
0002
0110
0003
0200
0000
,
2310
3002
0123
1031
0120
0000
1230
0000
,
1310
1001
0000
1010
2001
0000
3001
0000
2010
0000
3000
0000
0101
0000
0200
0000
,
1301
0002
1203
0312
1010
0023
1130
0002
,
0110
1100
0023
0000
1130
0000
2000
0000
3110
0001
0100
0001
1010
0000
2000
0001
,
0110
0000
3002
0000
1023
0000
1230
0000
1301
0100
0010
0001
0110
1000
0001
0010
,
1100
0000
0001
0000
1000
0000
0110
0000
1001
0000
0100
0000
0011
1000
0100
1000
0021
0000
0000
0000
0030
0000
0200
0000
1301
0000
0000
0000
0102
0000
0000
0000
,
2013
0000
3002
0000
0123
0000
0230
0000
1320
0000
0032
0203
1301
0000
0020
0000
,
0132
1100
0013
0000
1100
0000
1010
0000
2001
0000
3000
0002
0110
0003
0200
0000
,
2310
3002
0123
1031
0120
0000
1230
0000
,
1310
1001
0000
1010
2001
0000
3001
0000
2010
0000
3000
0000
0101
0000
0200
0000
,
1301
0002
1203
0312
1010
0023
1130
0002
,
0110
0000
1100
0000
0013
0000
0000
0000
1100
0000
0000
0010
0002
0100
1000
0100
1023
0000
0000
0000
0000
0000
0000
0000
2032
0000
0000
0000
0000
0000
0003
0000
,
3100
0000
0010
0000
0100
0000
0001
0000
1010
0000
1000
0000
0011
0000
0100
0000
1000
0100
0010
0001
0010
0100
1000
0100
0010
0001
0010
0100
1000
0100
0010
0001
,
0100
0010
0100
1000
0100
0010
0001
0100
0010
0100
0001
0100
0010
1000
0100
0001
0020
0000
0000
0000
0000
0000
0000
0000
1100
0000
0000
0000
0000
0000
0000
0000
,
1100
2000
3102
1233
0011
2300
3020
0230
,
1301
0110
1000
0001
0110
1001
0110
1001
0110
0000
1100
0000
1100
0000
0011
0000
,
1010
0000
1010
0000
0101
0000
1010
0000
1001
0000
0101
0000
1100
0000
0011
1100
,
0000
0011
0000
0101
1010
1001
0011
1100
0011
0000
0100
0000
1100
0000
0010
0000
,
1001
0010
0101
0100
1010
0001
1100
0010
,
1001
0100
0110
1001
1100
0010
1001
0010
,
0101
0010
1001
0110
0000
1100
0000
1010
,
0000
0101
0000
2010
0101
0010
3110
1000
,
1010
0001
0110
1001
1100
1000
0110
0001
,
1010
0001
1100
0011
1100
0100
0110
0001
,
1010
0100
1100
0011
1100
1001
0110
1001
,
0110
1100
0011
1100
2002
3113
1001
0110
1100
0000
0011
0000
1100
0000
0011
1100
,
1001
0000
0000
0000
0011
0000
1100
0000
0000
0000
1100
0000
0022
0000
0000
0000
0000
0000
0000
0000
0000
0000
0000
0000
0000
0000
0000
0000
0000
0000
0000
0033
,
2000
0000
0000
0000
0000
0000
0000
0000
0000
0000
0000
0000
0000
0000
0000
0000
0000
0000
0000
0000
0000
0000
0000
0000
3200
0000
0000
0000
0000
0000
0000
0000
0000
0000
0000
0000
0000
0000
0000
0000
0000
0000
1010
0000
0000
0000
0000
0000
0300
0000
0000
0000
1010
0000
0000
0000
0000
0000
0000
0000
0002
0000
0000
0000
0000
0000
0000
0000
0000
0000
0000
0000
0000
0000
0000
0000
1000
0000
0000
0000
0100
0000
0000
0000
0010
0000
0000
0000
1000
0000
0000
0000
0100
0000
0000
0000
0023
0000
0000
0000
0000
0000
0000
0000
0000
0000
0000
0000
0000
0000
0000
0000
0000
0000
0000
0000
0000
0000
0000
0000
0000
0000
0000
0000
0000
0000
0000
0000
0000
0000
0000
0000
0200
0000
0000
0000
0000
0000
0000
0000
0000
0000
0000
0000
1301
0000
0000
0000
0000
0000
0000
0000
0000
0000
0000
0000
0000
0000
0000
0000
0000
0000
0000
0000
0000
0000
0000
0000
0002
0000
0000
0000
0000
0000
0000
0000
0000
0000
0000
0000
0000
0000
0000
0000
0000
0000
0000
0000
0000
0000
0000
0000
,
2103
0000
3002
0000
2103
0000
3201
0000
1301
0000
2000
3200
1331
0000
0020
0000
,
0132
1100
0023
0000
1130
0000
1020
0000
2001
0000
3000
0002
1100
0003
0200
0000
,
2301
3032
0123
1031
0120
0000
1230
0000
,
1310
1001
0000
1010
2001
0000
3001
0000
2010
0000
0000
0000
3101
0000
0200
0000
,
1301
0002
1203
0312
1010
0023
1130
0002
,
2010
3120
2033
3000
1200
0000
2300
0000
3210
0000
0001
0010
1002
0000
1303
0000
,
1010
0000
0100
0000
0010
0000
0100
0000
1001
0000
0100
0000
1010
0000
0101
0000
0010
0100
1000
0100
0010
0001
0010
0100
1000
0100
0010
0001
0100
0010
1000
0001
,
0010
0100
0010
1000
0001
0100
0010
1000
0001
0100
0010
1000
0001
0100
1000
0100
0022
0000
0000
0000
0003
0000
0200
0000
1301
0000
0000
0000
0002
0000
0000
0000
,
1100
0003
0200
0000
1301
0000
0101
0000
1002
0000
0003
0200
1301
0000
0002
0000
,
1130
1013
0020
0000
1130
0000
1010
0000
2001
0000
3000
0002
0110
0003
0200
0000
,
0310
0000
0002
0000
0100
0000
2003
0000
0110
3001
0100
0010
1001
0100
0001
1000
,
0011
0000
1001
0000
0100
0000
1000
0000
0101
0000
1000
0100
0010
0001
0010
0100
2020
0000
0000
0000
0000
0000
0000
0000
0000
0000
0000
0000
0000
0000
0000
0000
,
0000
0000
0000
0000
,
0000
0000
0000
3030
;

//---------------dance-double - ----------------
#NOTEDATA:;
#CHARTNAME:;
#STEPSTYPE:dance-double;
#DESCRIPTION:;
#CHARTSTYLE:;
#DIFFICULTY:Challenge;
#METER:1;
#RADARVALUES:0.000000,0.000000,0.000000,0.000000,0.000000,0.000000,0.000000,0.000000,0.000000,0.000000,0.000000,0.000000,0.000000,0.000000,0.000000,0.000000,0.000000,0.000000,0.000000,0.000000,0.000000,0.000000,0.000000,0.000000,0.000000,0.000000,0.000000,0.000000;
#CREDIT:;
#DISPLAYBPM:104.000000;
#NOTES:
00000000
00000000
00000000
00000000
;

//---------------dance-single - Copied from----------------
#NOTEDATA:;
#CHARTNAME:Copied from;
#STEPSTYPE:dance-single;
#DESCRIPTION:Copied from;
#CHARTSTYLE:;
#DIFFICULTY:Hard;
#METER:9;
#RADARVALUES:0.301765,0.376579,0.006749,0.445416,0.101231,313.000000,312.000000,1.000000,66.000000,0.000000,0.000000,0.000000,0.000000,0.000000,0.301765,0.376579,0.006749,0.445416,0.101231,313.000000,312.000000,1.000000,66.000000,0.000000,0.000000,0.000000,0.000000,0.000000;
#CREDIT:Copied from;
#DISPLAYBPM:104.000000;
#NOTES:
// measure 0
0000
0000
0000
0000
,  // measure 1
0000
0000
0000
0000
,  // measure 2
0000
0000
0000
0000
,  // measure 3
0000
0000
0000
0000
0000
0000
0000
0000
0000
0000
2000
0000
0000
3000
0002
0000
,  // measure 4
0000
0203
0320
0230
0320
0000
1000
0000
,  // measure 5
0100
1030
0010
1000
,  // measure 6
0001
0000
1000
0001
1000
0100
1000
0100
,  // measure 7
0010
0001
1000
0000
0001
0010
0100
0001
,  // measure 8
0010
0000
0000
0010
0000
0000
0100
0010
0100
0000
0000
0000
0010
0000
0000
0000
,  // measure 9
1000
0000
0000
0000
0010
0000
0100
0000
0001
0000
0000
0100
0010
0000
1000
0000
,  // measure 10
0010
1000
0010
0000
1000
0000
0001
0000
0100
0000
0000
0000
0001
0000
0000
0000
,  // measure 11
1000
0001
0000
0000
1000
0000
0010
0000
0100
0000
0000
0000
0100
0000
0000
0000
,  // measure 12
0010
0000
0000
0010
0000
0000
1000
0000
0010
0000
1000
0010
1000
0000
0000
0010
,  // measure 13
0000
0010
0000
0100
0020
0000
0000
0000
0130
0000
0001
0000
1000
0000
0000
0001
,  // measure 14
0000
0001
0000
1000
0020
0000
0000
0000
2030
0000
0000
0000
3020
0000
0000
0000
,  // measure 15
0230
0302
2003
3010
,  // measure 16
0010
0100
0000
0010
0000
1000
0000
0001
0020
0000
0000
0000
0001
0000
0000
0000
,  // measure 17
0230
0000
0000
1000
0000
0000
0302
0000
1000
0000
0003
0000
0020
0000
0000
0000
,  // measure 18
1030
0000
0000
0000
0200
0000
0000
0000
0310
0000
0000
0010
1000
0000
0001
0000
,  // measure 19
1000
0000
0000
0010
0100
0000
0010
0000
1000
0000
0001
0000
0010
0000
0100
0000
,  // measure 20
0020
0000
0000
0000
0031
0000
0000
0000
0010
0000
0000
1000
0010
0000
1000
0000
,  // measure 21
0010
0000
0000
0010
0100
0000
0010
0000
2000
0000
0000
0000
3001
0000
0000
0000
,  // measure 22
0010
0100
0000
0010
0100
0000
0010
0000
2000
0000
0000
3000
0010
0000
0001
0000
,  // measure 23
0020
0000
0031
1000
0020
0000
0130
0000
,  // measure 24
2000
0000
3001
0000
0010
1000
0001
1000
,  // measure 25
0010
0000
0100
0000
0001
0000
0100
0000
0002
0000
0000
0000
1000
0003
0000
0000
,  // measure 26
0020
0130
2000
3001
,  // measure 27
0002
0000
0000
0000
1003
0000
0000
0000
0010
0000
1000
0010
0000
0000
1000
0000
,  // measure 28
0020
0130
0002
1003
,  // measure 29
0010
0100
0010
0100
0020
0000
1030
0000
,  // measure 30
0010
1000
0000
0010
1000
0000
0010
0000
2000
0000
0000
0000
3001
0000
0000
0000
,  // measure 31
0020
0000
0130
0000
1000
0001
1000
0100
,  // measure 32
2000
3010
0020
0130
,  // measure 33
0002
0000
0013
0000
1000
0010
1000
0001
,  // measure 34
1000
0010
0100
0010
0200
0000
0010
0000
,  // measure 35
0001
0000
1300
0000
0010
1000
0001
1000
,  // measure 36
0020
0000
0130
0000
1000
0000
1000
0001
,  // measure 37
0000
1000
0000
0001
0000
1000
0001
0000
,  // measure 38
0001
1000
0001
1000
0020
0000
0130
0000
,  // measure 39
2000
3001
0002
0013
,  // measure 40
2000
0000
0000
0000
3010
0000
0000
0000
0020
0000
0000
0000
0130
0000
0000
2000
,  // measure 41
0000
0000
0000
3000
0001
0000
0001
0000
0000
0000
0001
0000
0000
0000
0001
0000
,  // measure 42
0000
0001
0000
0002
0000
0000
1003
0010
,  // measure 43
0100
0010
0100
0010
2000
0000
3001
0010
,  // measure 44
0200
0000
0310
1000
0001
1000
0100
1000
,  // measure 45
0020
0000
1030
0010
0100
0001
0100
0010
,  // measure 46
0001
1000
0010
0000
0100
0001
0100
0000
0020
0000
0000
0000
1000
0000
0000
0000
,  // measure 47
0100
0000
0000
0000
0000
0000
2000
0000
0000
0000
0000
0000
0000
0000
0000
3030
,  // measure 48
0000
0000
2000
0100
,  // measure 49
0010
0000
0001
0000
0010
0000
3001
0010
,  // measure 50
0100
0001
0100
0010
2000
0000
3010
0000
,  // measure 51
0002
0013
0200
0310
,  // measure 52
1000
0001
1000
0001
0020
0000
0031
0000
,  // measure 53
0002
0000
1003
0000
0010
1000
0001
1000
,  // measure 54
0200
0310
0002
1003
,  // measure 55
2000
3010
0002
0010
,  // measure 56
1000
0100
0023
0100
,  // measure 57
0001
1000
0100
0001
,  // measure 58
1000
0030
0001
1000
0002
0000
1003
0000
,  // measure 59
0200
0000
0310
0000
2002
0000
0000
0003
,  // measure 60
0010
0010
0002
0000
,  // measure 61
0000
0000
0000
0000
,  // measure 62
3003
0000
0000
0000
;

//---------------dance-single - Copied from Copied f----------------
#NOTEDATA:;
#CHARTNAME:Copied from Copied f;
#STEPSTYPE:dance-single;
#DESCRIPTION:Copied from Copied f;
#CHARTSTYLE:;
#DIFFICULTY:Medium;
#METER:5;
#RADARVALUES:0.164862,0.207523,0.000000,0.215959,0.000000,171.000000,171.000000,0.000000,32.000000,0.000000,0.000000,0.000000,0.000000,0.000000,0.164862,0.207523,0.000000,0.215959,0.000000,171.000000,171.000000,0.000000,32.000000,0.000000,0.000000,0.000000,0.000000,0.000000;
#CREDIT:Copied from Copied f;
#DISPLAYBPM:104.000000;
#NOTES:
0000
0000
0000
0000
,
0000
0000
0000
0000
,
0000
0000
0000
0000
,
0000
0000
0000
0000
,
0000
0000
1000
1000
,
0010
1000
0001
0010
,
0002
0013
1000
1000
,
0001
0000
0001
0000
1000
0001
1000
0000
,
0020
0130
2000
0010
,
0100
3001
0010
1000
,
0002
0013
1000
0010
,
1000
0100
0002
1000
,
0013
0010
2000
0100
,
3010
0000
0002
1000
,
0013
0000
0020
1000
,
0130
0000
0002
0000
,
1000
1003
0020
0000
,
2030
0000
3002
0000
,
0000
0000
1003
0010
,
1000
0000
0001
0000
1000
0000
0001
1000
,
0002
1003
0010
0100
,
0010
1000
0002
0010
,
1000
0100
0013
1000
,
0010
1000
0100
0010
,
0010
1000
0001
0001
,
1000
1000
0020
0130
,
0002
1003
2000
0100
,
0010
0001
0010
0100
,
3100
0000
0002
1000
,
0010
1000
0100
0010
,
1003
0000
0020
1000
,
0100
0001
1000
0100
,
1030
0000
0002
0000
,
1003
0000
0020
0000
,
0000
0000
2030
0000
,
0001
0000
0010
0000
,
3100
0000
0001
0000
,
0001
0000
0002
0000
,
0000
0000
1003
1000
,
1000
0000
0001
0001
,
0001
0000
0100
0100
,
0100
0000
0000
2000
0000
0000
0000
0000
,
0000
0000
3000
0000
,
0010
0010
0010
0000
,
1000
0001
1000
0000
,
0010
1000
0020
1000
,
0100
1030
0002
0000
,
1000
0000
0003
0000
,
0000
0000
2000
0010
,
0100
0000
0001
0010
,
3001
0000
0002
1000
,
0010
0000
1000
0100
,
0010
0003
0000
0000
0010
0000
0000
0000
,
0010
0000
1000
0001
,
2000
0000
0100
0010
,
3001
0000
0010
0010
,
0010
0000
0002
1000
,
0010
0000
0100
0100
,
1000
0003
0000
0000
0010
0000
0010
0000
,
0010
0000
0200
0000
,
1300
0000
0002
0000
,
0000
0000
0003
0000
;

//---------------dance-single - Copied from Copied f----------------
#NOTEDATA:;
#CHARTNAME:Copied from Copied f;
#STEPSTYPE:dance-single;
#DESCRIPTION:Copied from Copied f;
#CHARTSTYLE:;
#DIFFICULTY:Easy;
#METER:3;
#RADARVALUES:0.122441,0.165344,0.006749,0.175467,0.000000,127.000000,126.000000,1.000000,26.000000,0.000000,0.000000,0.000000,0.000000,0.000000,0.122441,0.165344,0.006749,0.175467,0.000000,127.000000,126.000000,1.000000,26.000000,0.000000,0.000000,0.000000,0.000000,0.000000;
#CREDIT:Copied from Copied f;
#DISPLAYBPM:104.000000;
#NOTES:
0000
0000
0000
0000
,
0000
0000
0000
0000
,
0000
0000
0000
0000
,
0000
0000
0000
0000
,
0000
0000
0001
0001
,
0001
0000
1000
1000
,
1000
0000
0010
1000
,
0010
0000
0100
0100
,
0200
0000
1300
1000
,
1000
0000
0001
1000
,
0001
0000
0010
0100
,
0010
0000
0002
0000
,
1003
0000
0020
0000
,
0000
0000
2030
0000
,
0000
0000
3002
0000
,
2003
0000
3200
0000
,
0300
0000
0010
0010
,
0010
0000
2000
0000
,
0000
0000
3010
0000
,
0010
0000
1000
1000
,
2000
0000
3001
0000
,
0001
0000
0010
0010
,
0100
0100
0002
0000
,
1003
0000
2000
0000
,
3001
0000
0010
1000
,
0010
0010
1000
0000
,
1000
0000
0002
0000
,
0013
0000
1000
1000
,
2000
0000
3010
0000
,
0010
0000
0100
0100
,
0010
0010
0002
0000
,
1003
0000
1000
0010
,
1000
0000
0100
1000
,
0100
0000
0010
0010
,
0010
0000
0002
0000
,
1000
0000
0013
0000
,
1000
0000
0100
0000
,
0100
0000
0200
0000
,
0000
0000
2300
0000
,
0000
0000
3020
0000
,
0000
0000
0230
0000
,
0000
0000
0000
0000
,
0000
0000
0000
0310
,
0000
0010
0001
0010
,
0001
0000
1000
1000
,
1000
0000
0001
1000
,
0001
1000
0002
0000
,
0000
0000
0003
0000
,
0000
0000
2000
0000
,
0100
0000
0010
3000
,
0001
0000
0020
0000
,
1000
0000
0130
0000
,
1000
0000
1001
0000
,
0010
0000
0001
0010
,
0001
0000
0020
0000
,
1030
0000
0001
0010
,
0001
0000
0020
0000
,
1000
0000
0100
0000
,
1030
0000
0001
0001
,
0001
0000
2000
0000
,
3010
0000
0200
0000
,
0000
0300
0000
0000
;

//---------------dance-single - Copied from Copied f----------------
#NOTEDATA:;
#CHARTNAME:Copied from Copied f;
#STEPSTYPE:dance-single;
#DESCRIPTION:Copied from Copied f;
#CHARTSTYLE:;
#DIFFICULTY:Beginner;
#METER:2;
#RADARVALUES:0.090626,0.184493,0.000000,0.222708,0.000000,94.000000,94.000000,0.000000,33.000000,0.000000,0.000000,0.000000,0.000000,0.000000,0.090626,0.184493,0.000000,0.222708,0.000000,94.000000,94.000000,0.000000,33.000000,0.000000,0.000000,0.000000,0.000000,0.000000;
#CREDIT:Copied from Copied f;
#DISPLAYBPM:104.000000;
#NOTES:
0000
0000
0000
0000
,
0000
0000
0000
0000
,
0000
0000
0000
0000
,
0000
0000
0000
0000
,
0000
0000
1000
1000
,
1000
0000
0001
0001
,
0001
0000
0100
0100
,
0100
0000
0010
0010
,
0010
0000
0001
0001
,
0001
0000
1000
1000
,
1000
0000
0010
0001
,
1000
0000
0100
0001
,
1000
0000
0002
0000
,
0003
0000
2000
0000
,
3000
0000
0100
0100
,
1000
1000
0002
0003
,
1000
1000
0002
0000
,
0000
0000
0003
1000
,
1000
1000
0020
0000
,
0030
0000
2000
0000
,
3000
0000
0010
0000
,
0001
0000
2000
0000
,
3000
0000
0002
0000
,
0003
0000
2000
0000
,
3000
0000
0002
0000
,
0003
0000
2000
0000
,
3000
0000
0020
0000
,
0030
0000
2000
0000
,
3000
0000
0200
0000
,
0300
0000
0020
0000
,
0030
0000
2000
0000
,
3000
0000
0200
0000
,
0300
0000
0002
0000
,
0003
0000
0002
0000
,
0000
0000
0003
1000
,
0000
0001
0000
0100
,
0000
0010
1000
0000
,
1000
0000
0002
0000
,
0003
0000
0001
0001
,
0001
0000
1000
1000
,
1000
0000
0100
0100
,
0100
0000
0000
0000
,
0000
0000
0000
1000
,
0001
0100
0010
1000
,
0001
0100
0100
0001
,
1000
0001
2000
0000
,
0000
0000
0000
0000
,
0000
3000
0000
0000
,
0000
0000
2000
0000
,
0000
3000
0002
0000
,
0000
0003
2000
0000
,
3000
0000
0020
0000
,
0000
0030
0002
0000
,
0000
0003
0200
0000
,
0000
0300
0020
0000
,
0030
0000
0200
0000
,
0000
0300
2000
0000
,
3000
0000
0200
0000
,
0300
0000
0002
0000
,
0003
0000
0000
0000
,
0002
0000
0000
0003
;
