#TITLE:Save Me Save You;
#SUBTITLE:;
#ARTIST:WJSN;
#TITLETRANSLIT:;
#SUBTITLETRANSLIT:;
#ARTISTTRANSLIT:;
#GENRE:;
#CREDIT:;
#BANNER:AV.avi;
#BACKGROUND:bg.png;
#LYRICSPATH:;
#CDTITLE:;
#MUSIC:audio.ogg;
#OFFSET:-0.113000;
#SAMPLESTART:60.327015;
#SAMPLELENGTH:14.999999;
#SELECTABLE:YES;
#DISPLAYBPM:58.000000:116.000000;
#BPMS:0.000000=115.970001
,21.500000=231.960007
,22.000000=115.970001
,37.500000=231.940002
,38.000000=115.970001
,198.000000=57.985001
,214.000000=115.970001
;
#STOPS:21.500000=0.030000,
21.625000=0.030000,
21.750000=0.030000,
21.875000=0.030000,
37.500000=0.030000,
37.625000=0.030000,
37.750000=0.035000,
37.875000=0.030000
;
#BGCHANGES:0.000=MV.avi=1.000=1=0=1===CrossFade==,
99999=-nosongbg-=1.000=0=0=0 // don't automatically add -songbackground-
;
#KEYSOUNDS:;
#ATTACKS:;

//---------------dance-single - ----------------
#NOTES:
     dance-single:
     :
     Challenge:
     15:
     0.792642,1.435169,1.195796,0.854140,0.860973,812.000000,637.000000,175.000000,125.000000,0.000000,36.000000,0.792642,1.435169,1.195796,0.854140,0.860973,812.000000,637.000000,175.000000,125.000000,0.000000,36.000000:
0000
0000
0000
0000
0000
0000
0000
0000
2000
3100
0010
0001
2000
3100
0010
0001
,
0200
0310
0001
0010
0200
1300
0010
0100
2000
3100
0010
0001
2000
3100
0010
0001
,
0200
0000
0310
0000
0001
0010
0100
1000
0020
0000
0030
0000
0110
0000
0000
0000
2000
0000
3100
0000
0010
0000
0001
0000
0020
0000
0130
0000
1000
0000
0010
0000
,
0200
0000
0300
0000
1000
0100
0010
0001
0020
0000
0030
0000
1000
0000
1000
0000
1002
0000
0003
0000
0000
0000
0100
0000
0000
0000
0000
0000
0100
0000
0000
0000
,
0110
0000
0000
0000
1000
0001
1000
0001
1000
0000
0000
0000
0100
0000
0000
0000
0200
0000
0000
0000
0000
0000
0001
0000
2300
0000
0000
0000
0001
0000
0000
0000
,
3020
0000
0000
0000
0000
0000
1000
0000
0130
0000
0000
0000
1000
0010
0001
0100
2000
0000
0000
0000
0000
0000
3020
0000
0001
0000
0000
0000
0230
0000
0000
0000
,
0302
0000
0000
1000
0110
0000
0113
0000
1001
0000
0000
1000
0110
0000
0001
0000
,
1100
0000
0000
0001
1010
0000
0100
0000
1100
0000
0000
0001
1010
0000
0001
0000
,
1001
0000
1100
0010
1001
0000
1100
0000
2100
0000
0000
0010
3002
0000
0100
0000
,
0023
0000
0000
0000
0000
0000
0001
0000
0230
0000
0000
0000
1000
0001
1000
0001
0320
0000
0000
0000
0000
0000
0032
0000
0100
0000
0000
0000
0023
0000
0000
0000
,
0230
0000
0000
0001
1320
0000
1100
0000
1230
0000
0000
0010
0001
0000
0010
0000
,
1000
0301
0010
0100
1000
0100
0010
0100
1001
0000
0000
1001
0000
0000
0110
0000
,
0000
0000
1000
0000
0100
0010
1000
0100
0011
0000
0000
0000
0100
0000
0000
0000
0110
0000
0000
0000
0000
0000
1000
0000
0001
0000
0010
0000
0100
0000
0001
0000
,
1100
0000
0010
0100
0000
0000
0001
0000
0101
0000
1000
0100
0000
0000
0010
0000
,
2100
0000
0000
0002
3203
0000
0302
0003
2010
0000
0000
3200
0000
0000
0320
0000
,
1230
0000
0000
0320
0000
0000
0032
0000
0203
0000
0000
0010
0001
1000
0010
0301
,
1000
0100
0010
0001
0010
0000
0001
0000
0110
0000
0000
0000
0010
0100
0001
0010
,
1100
0000
0001
0100
0000
0000
0010
0000
0101
0000
1000
0100
0000
0000
0010
0000
,
1001
0000
0000
2000
3200
0000
2320
3000
0230
0000
0000
0302
0003
0000
0020
0000
,
0230
0000
0000
0020
0000
0300
2030
0000
0000
0000
0000
0010
0000
0000
3010
0000
,
0200
0000
0001
0000
0010
0000
1000
0300
0011
0000
0000
0000
1001
0000
0000
0000
,
0102
0010
0000
1000
0113
0000
0000
0000
2010
0100
0000
0001
3210
0000
0000
0000
,
0312
1000
0000
0013
1001
0100
0000
0000
0011
0000
0000
0000
1100
0000
0000
0000
,
0201
0010
0000
1000
0011
1000
0000
0010
2300
0000
0000
0000
3101
0000
0010
0000
,
1100
0010
0001
0000
1000
0000
0010
0000
1000
0100
0010
0000
0001
0000
1000
0000
0011
0000
0000
0000
0100
0000
0000
0000
0010
0000
0000
0000
1100
0000
0000
0000
,
0011
1000
0000
0010
0000
0000
0010
0000
1100
0001
0000
1100
0000
0000
0110
0000
,
1001
0010
0000
0100
0000
0000
0010
0000
1200
0000
0300
2100
0000
3000
1200
0000
,
0320
0030
0002
0023
0200
0000
0000
0000
,
0000
0000
0000
0000
0000
0000
0000
0330
0011
0000
0000
0011
0000
0000
0011
0000
,
0000
0000
0000
0000
1000
0100
0010
0001
0010
0000
0000
0000
1100
0000
0000
0000
1001
0000
0000
0000
0000
0000
0000
0000
0110
0000
0000
0000
1000
0000
0100
0000
,
1010
0000
0001
1000
0011
0100
0000
0000
1001
0000
0100
0000
0011
0000
0100
0000
,
1010
0000
0001
1000
0011
0000
1100
0000
0011
0000
0001
0010
1100
0001
0010
0000
,
1100
0000
0000
0000
1001
0000
0100
0000
1010
0000
0000
0001
0110
0000
1000
0000
,
0011
0000
0000
0011
1100
0000
0000
0000
1001
0000
1000
0000
0101
0000
0010
0000
,
1001
0000
0000
0010
1100
0000
0001
0000
0011
0000
0100
0000
1010
0000
0100
0000
,
1010
0000
0000
0001
1100
0000
0011
0000
1100
0010
0000
0100
0011
0000
1000
0010
,
1100
0010
0001
0100
1010
0001
1000
0001
0110
0000
0000
0110
0000
0000
0110
0000
,
0000
0110
0000
1001
0110
0000
0110
0000
1002
0000
0000
0010
0203
0000
1000
0000
,
0320
0000
0000
0030
2000
0000
0100
0000
3002
0000
0000
0203
0000
0000
0320
0000
,
2030
0000
0000
0000
3110
0000
0110
0000
1001
0000
0100
0000
1001
0100
0010
0001
,
1010
0000
0100
0010
1001
0000
0010
0000
1100
0000
0001
0100
0011
0000
0010
0000
,
1010
0000
0000
1010
0000
0000
1020
0000
0032
0000
0000
0003
1100
0000
0020
0000
,
2031
0000
3100
0011
1200
0000
1302
0000
0000
0000
1103
0000
0011
0000
1000
0000
,
1010
0100
0000
0001
0110
0000
0010
0000
1001
0000
0000
0100
1010
0000
0010
0000
,
1100
0001
0000
0011
1100
0000
0011
0000
0000
0000
1001
0000
0110
0000
0000
0000
,
1001
0000
0000
0001
0110
0000
1000
0100
1001
0000
0010
0100
0000
0001
1000
0000
,
0100
0000
0001
0100
0000
0010
1000
0001
0100
0000
0010
0100
0000
0001
0010
0000
,
0100
0000
0001
1000
0000
1000
0100
0010
0001
0000
0010
0100
0000
0001
0100
0000
,
0010
0100
0001
0100
0000
0010
1000
0001
0010
0000
0200
0000
0000
0000
0000
0000
,
0300
0000
0000
0000
1000
0000
0000
0000
0100
0000
0000
0000
0010
0000
0000
0000
1000
0100
0010
0001
1000
0010
0100
0001
0010
0100
1000
0100
0010
1000
0100
0001
,
0010
0100
1000
0010
0100
1000
0100
0001
0010
0100
1000
0010
0100
0001
0010
0100
1000
0100
0010
0001
1000
0010
0100
0001
1000
0100
0010
0001
0100
0010
1000
0001
,
0010
0100
1000
0100
0010
1000
0100
0010
0001
1000
0010
0100
0010
1000
0100
0010
0001
0000
2000
0000
3200
0000
0302
0000
2013
0000
0000
3020
0030
0000
0200
0000
,
0302
0000
0023
0000
2030
0000
3002
0000
1203
0000
0000
0320
0000
0030
1000
0100
0010
0100
0001
0010
0001
1000
0010
0100
0001
0010
0100
0001
1000
0010
0100
0001
,
1010
0000
0000
0000
0000
0000
1010
0000
0000
0000
0000
0000
2010
0000
0000
0000
0000
0000
0000
0000
0001
0100
0010
0100
0001
0000
0000
0000
0010
0000
0000
0000
3101
0000
0000
0000
0000
0000
0000
0000
0000
0000
0000
0000
0000
0000
0000
0000
0110
0000
0000
0000
0000
0000
0000
0000
1000
0000
0000
0000
0100
0000
0000
0000
,
1010
0000
0001
1000
0011
0100
0020
0000
2031
0000
0100
0000
3011
0000
0100
0000
,
1010
0000
0002
1000
0123
0000
1230
0000
2310
0000
3002
0023
1100
0001
0100
0030
,
1100
0000
0000
0000
1001
0000
0100
0000
1010
0000
0000
0001
0110
0000
1000
0000
,
0011
0000
0000
0000
0200
0000
0000
0000
2301
0000
0000
0000
3120
0000
0000
0000
0000
0000
0000
0000
1030
0001
1000
0001
1000
0000
0000
0000
0110
0000
0000
0000
,
1001
0000
0000
0010
1100
0000
0001
0000
0011
0000
0100
0000
1010
0000
0001
0000
,
2010
0000
3200
0001
1320
0000
0132
0000
1100
0000
2003
0000
0011
0100
0001
0010
,
3101
0000
0010
0100
2010
0000
0001
0000
3110
0000
0010
0100
0000
0000
0001
0000
,
1001
0000
0110
1001
0000
0110
1001
0000
0100
0000
2000
0000
3200
0000
0320
0000
,
1032
0000
0000
0023
0030
0000
0200
0000
0302
0000
0023
0000
0230
0000
0320
0000
,
1230
0000
0000
0320
0030
0000
0000
0000
0002
0000
0003
0000
0000
0000
0000
0000
,
0020
0030
0000
0000
0200
0300
0000
0000
;

//---------------dance-single - ----------------
#NOTES:
     dance-single:
     :
     Hard:
     12:
     0.423654,0.507829,0.184494,0.177661,0.184494,434.000000,407.000000,27.000000,26.000000,0.000000,0.000000,0.423654,0.507829,0.184494,0.177661,0.184494,434.000000,407.000000,27.000000,26.000000,0.000000,0.000000:
// measure 0
0000
0000
0000
0000
,  // measure 1
0000
0000
0000
0000
,  // measure 2
0000
0000
0000
0000
,  // measure 3
0000
0000
1000
1000
,  // measure 4
1001
0000
0011
0000
0001
0010
0001
1000
,  // measure 5
0010
0000
0100
0000
0001
0000
0100
0001
0100
0000
1000
0000
0010
0000
0100
0000
,  // measure 6
0001
0000
1001
0000
0011
0010
1000
0001
,  // measure 7
0100
0001
0010
0001
1000
0010
0100
0001
,  // measure 8
0010
0000
0000
0010
0000
0000
0010
0000
0011
0000
1000
0000
0010
0000
0100
0000
,  // measure 9
0001
0000
1000
0000
0100
0000
1000
0100
1000
0000
0010
0000
0100
0000
0001
0000
,  // measure 10
0010
0001
1000
0010
0200
0000
0301
0000
,  // measure 11
0010
0001
1000
0100
0010
0001
0010
0100
1000
0000
0000
1000
0000
0000
1000
0000
,  // measure 12
0000
0001
1000
0001
1000
0000
0001
0000
0101
0000
0000
0000
0001
0100
0001
0010
,  // measure 13
0001
0000
1000
0001
0000
0000
0100
0000
0001
0000
0000
0001
0000
0000
1000
0000
,  // measure 14
0001
0000
0000
0000
1001
0000
0000
0000
1000
0000
0000
0100
0000
0000
1000
0000
,  // measure 15
0001
0000
0000
0010
0000
0000
0100
0000
2000
0000
0000
0000
0001
0000
0000
0000
,  // measure 16
3010
0000
0000
0000
0101
0000
0000
0000
0010
0000
0000
0000
0001
0010
0100
1000
,  // measure 17
0001
0000
0010
0100
0000
0000
0001
0000
1000
0000
0001
1000
0000
0000
0010
0000
,  // measure 18
0100
0000
0001
0010
0002
0000
1003
0010
,  // measure 19
0200
0301
1001
1001
,  // measure 20
0001
0010
0001
1000
0002
0000
0010
0000
,  // measure 21
1000
0100
0010
1000
,  // measure 22
0100
1003
2001
0100
,  // measure 23
0010
0001
0100
0001
,  // measure 24
0010
0000
3001
0000
0011
1000
0001
0100
,  // measure 25
0001
0010
0001
0000
1000
0000
0000
0000
0010
0000
1000
0000
0001
0000
1000
0000
,  // measure 26
0100
1000
0100
0000
1000
0000
0000
0000
0001
0000
0000
0001
0000
0000
0001
0000
,  // measure 27
0010
0000
0000
0001
0000
0000
1000
0000
0002
0000
0000
0000
0000
0000
0000
0000
,  // measure 28
0000
0000
0000
0000
0000
0000
0000
0000
1003
0000
0000
1000
0000
0000
1000
0000
,  // measure 29
0000
1000
0001
1000
0001
1000
0001
0000
1001
0000
0000
0000
0010
0000
0001
0010
,  // measure 30
0001
0000
1000
0010
0100
0000
0001
0000
0020
0000
0000
0000
0001
0000
0000
0000
,  // measure 31
0031
0000
0000
0000
0011
0000
0000
0000
0001
0000
1000
0000
0001
0000
0010
0001
,  // measure 32
0010
0000
0000
0000
0001
0000
1000
0000
0100
0000
0000
0100
0000
0000
0001
0000
,  // measure 33
1000
0000
0011
0000
0001
1000
0010
0100
,  // measure 34
0010
0100
0010
0000
1000
0000
0001
0000
0010
0000
0100
0000
1000
0000
0001
0000
,  // measure 35
0010
0001
0010
0000
0001
0000
1000
0000
0010
0000
0001
0000
0010
0000
0100
0000
,  // measure 36
1000
0000
0001
0000
0100
0000
0010
0000
1000
0000
0000
1000
0000
0000
1000
0000
,  // measure 37
0000
1000
0000
0001
1000
0000
0001
0000
0020
0000
0000
0000
0130
0000
0000
0000
,  // measure 38
0002
1003
0200
0310
,  // measure 39
2000
0000
3001
0011
0011
1000
0001
0010
,  // measure 40
0001
1000
0010
0100
0001
1000
0001
0010
,  // measure 41
0001
0000
0000
0001
0000
0000
0001
0000
2000
0000
0000
0000
3100
0000
0000
0000
,  // measure 42
0002
0000
0013
0001
0000
0010
1000
0000
,  // measure 43
0001
1000
0000
0001
1000
0000
0100
0000
0020
0000
0000
0000
0031
0000
0000
0000
,  // measure 44
0001
1000
0000
0001
1000
0000
0010
0000
0200
0000
0000
0000
0301
0000
0000
0000
,  // measure 45
0002
0000
0013
0000
1100
0001
0100
0010
,  // measure 46
1000
0001
1000
0000
0001
0000
0010
0000
0001
0000
1000
0000
0010
0000
0100
0000
,  // measure 47
0001
0010
0001
0000
1000
0000
0010
0000
0100
0000
0001
0000
1000
0000
0001
0000
,  // measure 48
0010
0001
1000
0000
0010
0000
0100
0000
0002
0000
0000
0000
0010
0000
0000
0000
,  // measure 49
1003
0000
0010
0000
2001
0100
0010
0001
,  // measure 50
0100
0001
0010
0001
0100
0001
0010
3100
,  // measure 51
0001
0001
0001
0100
2001
0001
3010
0000
,  // measure 52
0012
1000
0103
0000
2010
0001
3010
0000
,  // measure 53
0100
0000
0000
0100
0000
0000
0100
0000
0000
0000
0000
0000
1100
0000
0000
0000
1001
0000
0000
0000
0000
0000
0000
0000
0010
0000
0000
0000
1000
0000
0000
0000
,  // measure 54
0001
0010
0001
1000
0010
0100
0001
0010
,  // measure 55
0001
1000
0001
0000
0100
0000
0100
0000
0100
0000
0010
0000
1000
0000
0001
0000
,  // measure 56
0010
0000
0100
0000
1000
0000
0001
0000
0100
0000
0000
0100
0000
0000
0001
0000
,  // measure 57
0020
0000
0031
0000
1001
0010
0100
0001
,  // measure 58
1000
0000
0000
1000
0000
0000
0010
0000
0100
0000
0001
0000
1000
0000
0100
0000
,  // measure 59
0010
0000
0000
0010
0000
0000
0001
0000
1000
0000
0000
0000
0100
0000
0001
0000
,  // measure 60
0010
0001
1000
0010
0100
0001
1000
0100
,  // measure 61
0010
0000
0000
0010
0000
0000
0010
0000
0001
0000
1000
0000
0100
0000
1000
0000
,  // measure 62
0100
0000
0000
0010
0000
0000
0001
0000
1000
0000
0010
0000
0100
0000
0001
0000
,  // measure 63
0010
0000
0000
0001
0000
0000
0000
0000
1002
0000
0003
0000
0000
0000
0000
0000
,  // measure 64
0020
0030
0000
0000
0210
0300
0000
0000
;

//---------------dance-single - ----------------
#NOTES:
     dance-single:
     :
     Medium:
     5:
     0.233302,0.264442,0.061498,0.198161,0.000000,239.000000,230.000000,9.000000,29.000000,0.000000,0.000000,0.233302,0.264442,0.061498,0.198161,0.000000,239.000000,230.000000,9.000000,29.000000,0.000000,0.000000:
0000
0000
0000
0000
,
0000
0000
0000
0000
,
0000
0000
0000
0000
,
0000
0000
0000
0000
,
0000
0000
1001
0001
,
1000
0001
1000
0000
0001
0000
1000
0010
,
0100
0001
0020
0031
,
2000
3001
0001
0010
,
0002
1003
0100
1000
,
0010
0100
0002
0013
,
0200
1300
0010
0100
,
1000
0100
0020
0000
,
0000
1030
1001
0001
,
0010
0001
1000
0100
,
2000
3100
0010
0100
,
0010
1000
0002
0000
,
0000
0000
1003
1000
,
0100
0010
0001
0010
,
0100
1000
0001
0001
,
0100
0001
0020
0000
,
0031
0001
0001
0001
,
0100
1000
0100
0000
0010
1000
0010
0000
,
0001
0010
0001
0000
1000
0000
0001
0000
,
0100
0001
0100
0000
0002
0000
0010
0000
,
1003
0000
0100
1000
,
0010
1000
0001
0010
,
0100
1000
0010
0010
,
0100
0100
0020
0000
,
0000
0000
1030
0000
,
1000
0000
0000
0000
1010
0000
0001
1000
,
0001
0010
0001
0001
,
0001
0001
0100
0010
,
1000
0100
1000
0001
,
0020
0031
0100
1000
,
0020
1030
0001
0010
,
0002
1003
0010
0100
,
0001
1000
0200
0000
,
0000
1300
0001
1000
,
0001
1000
0001
1000
,
0001
0010
0001
1000
,
0010
0100
0001
1000
,
0001
0010
0002
1003
,
0200
1300
0020
0130
,
0001
1000
0001
0000
0020
0000
0031
0000
,
0100
1000
0100
0000
0020
0000
0031
0000
,
2000
3100
0210
0010
,
0301
0010
1002
0010
,
1003
0010
0102
1000
,
0013
0100
2002
0000
,
3003
0000
0010
0100
,
0010
1000
0001
0100
,
1000
1000
1000
0100
0010
0000
0001
0000
,
1000
0001
0010
0010
,
0011
0000
1001
0010
,
1000
0000
0001
0000
0010
0001
0010
0000
,
0001
1000
0001
0000
0100
0000
0010
0000
,
1000
0001
0010
0001
,
0010
0010
0001
1000
,
0100
0100
1000
0001
,
0010
0010
1000
0001
,
0100
0100
0001
1000
,
0001
1000
0002
0000
,
0013
0000
2000
0000
,
3100
0000
0020
0000
,
0130
0000
1000
0000
;

//---------------dance-single - ----------------
#NOTES:
     dance-single:
     :
     Easy:
     3:
     0.108354,0.154258,0.027332,0.027332,0.000000,111.000000,107.000000,4.000000,4.000000,0.000000,0.000000,0.108354,0.154258,0.027332,0.027332,0.000000,111.000000,107.000000,4.000000,4.000000,0.000000,0.000000:
0000
0000
0000
0000
,
0000
0000
0000
0000
,
0000
0000
0000
0000
,
0000
0000
0000
0000
,
0000
0000
1000
0001
,
1000
0000
0010
0000
,
1000
0000
0001
0100
,
0001
0000
1000
0000
,
0001
0000
0010
0100
,
0010
0000
0001
0000
,
1000
0000
0100
1000
,
0100
0000
0001
0000
,
1000
0000
0010
0000
,
0010
0000
0100
0000
,
0100
0000
0001
0000
,
0100
0000
0002
0000
,
0000
0000
1003
0000
,
0010
0000
1000
0000
,
0100
0000
0001
0000
,
1000
0000
0002
0000
,
0000
0000
0013
0000
,
0010
0000
0100
0000
,
1000
0000
0001
0000
,
0001
0000
2000
0000
,
0000
0000
3001
0000
,
0001
0000
0010
0000
,
0010
0000
0100
0000
,
0010
0000
0002
0000
,
0000
0000
1003
0000
,
0000
0000
0010
0000
,
0010
0000
0001
0000
,
0000
0000
1000
0000
,
0100
0000
1000
0000
,
0010
0000
0100
0000
,
0001
0000
1000
0000
,
1000
0000
0010
0000
,
0100
0000
0001
0000
,
0000
0000
1000
0000
,
0000
0000
0000
0000
,
0000
0000
0001
0000
,
0010
0000
0100
0000
,
1000
0000
0000
0000
,
0001
0000
1000
0000
,
0001
0000
0010
0000
,
0100
0000
1000
0000
,
0010
0000
1000
0000
,
1000
0000
0100
0000
,
0000
0000
0001
0000
,
0010
0000
0100
0000
,
0000
0000
1001
0000
,
0000
0000
1010
0000
,
0000
0000
0101
0000
,
1000
0000
0001
0000
,
0010
0000
1001
0000
,
0001
0000
0100
0000
,
0010
0000
1000
0000
,
0001
0000
0100
0000
,
1000
0000
0010
0000
,
0001
0000
1000
0000
,
0100
0000
1000
0000
,
0010
0000
0001
0000
,
0010
0000
0100
0000
,
0000
0000
0100
0000
,
0000
0000
1000
0000
,
0000
0000
1000
0000
;

//---------------dance-single - ----------------
#NOTES:
     dance-single:
     :
     Beginner:
     1:
     0.031237,0.065085,0.000000,0.000000,0.000000,32.000000,32.000000,0.000000,0.000000,0.000000,0.000000,0.031237,0.065085,0.000000,0.000000,0.000000,32.000000,32.000000,0.000000,0.000000,0.000000,0.000000:
0000
0000
0000
0000
,
0000
0000
0000
0000
,
0000
0000
0000
0000
,
0000
0000
0000
0000
,
0000
0000
1000
0000
,
0000
0000
0000
0000
,
0000
0000
0001
0000
,
0000
0000
0000
0000
,
0000
0000
1000
0000
,
0000
0000
0000
0000
,
0000
0000
0100
0000
,
0000
0000
0000
0000
,
0000
0000
0010
0000
,
0000
0000
0000
0000
,
0000
0000
0100
0000
,
0000
0000
0000
0000
,
0000
0000
0001
0000
,
0000
0000
0000
0000
,
0000
0000
1000
0000
,
0000
0000
0000
0000
,
0000
0000
0100
0000
,
0000
0000
0000
0000
,
0000
0000
0001
0000
,
0000
0000
0000
0000
,
0000
0000
0100
0000
,
0000
0000
0000
0000
,
0000
0000
1000
0000
,
0000
0000
0000
0000
,
0000
0000
0000
0000
,
0000
0000
0001
0000
,
0000
0000
0000
0000
,
0000
0000
1000
0000
,
0000
0000
0000
0000
,
0000
0000
0100
0000
,
0000
0000
0000
0000
,
0000
0000
0001
0000
,
0000
0000
0000
0000
,
0000
0000
1000
0000
,
0000
0000
0000
0000
,
0000
0000
0010
0000
,
0000
0000
0000
0000
,
0000
0000
0100
0000
,
0000
0000
0000
0000
,
0000
0000
0001
0000
,
0000
0000
0000
0000
,
0000
0000
1000
0000
,
0000
0000
0000
0000
,
0000
0000
0100
0000
,
0000
0000
0000
0000
,
0000
0000
0001
0000
,
0000
0000
0100
0000
,
0000
0000
1000
0000
,
0000
0000
0001
0000
,
0000
0000
0100
0000
,
0000
0000
0000
0000
,
0000
0000
1000
0000
,
0000
0000
0000
0000
,
0000
0000
0010
0000
,
0000
0000
0000
0000
,
0000
0000
0001
0000
,
0000
0000
0000
0000
,
0000
0000
0100
0000
,
0000
0000
0000
0000
,
0000
0000
1000
0000
;
