#VERSION:0.83;
#TITLE:Sai & Co;
#SUBTITLE:;
#ARTIST:Kyary Pamyu Pamyu;
#TITLETRANSLIT:;
#SUBTITLETRANSLIT:;
#ARTISTTRANSLIT:;
#GENRE:;
#ORIGIN:;
#CREDIT:;
#BANNER:AV.avi;
#BACKGROUND:bg.jpg;
#PREVIEWVID:;
#JACKET:jacket.jpg;
#CDIMAGE:;
#DISCIMAGE:bg.png;
#LYRICSPATH:;
#CDTITLE:;
#MUSIC:Sai and co.mp3;
#OFFSET:-0.100000;
#SAMPLESTART:90.500000;
#SAMPLELENGTH:15.000000;
#SELECTABLE:YES;
#DISPLAYBPM:130.000000;
#BPMS:0.000=130.010,
35.000=277.011,
35.750=54.610,
36.000=130.010,
83.000=277.010,
83.750=51.010,
84.000=130.010,
115.000=277.010,
115.750=49.770,
116.000=130.010,
147.000=277.010,
147.750=49.770,
148.000=130.010,
179.000=277.010,
179.750=49.769,
180.000=130.010,
195.000=277.010,
195.750=49.769,
196.000=130.010,
259.000=277.010,
259.750=49.769,
260.000=130.010;
#STOPS:;
#DELAYS:;
#WARPS:;
#TIMESIGNATURES:0.000=4=4;
#TICKCOUNTS:0.000=4;
#COMBOS:0.000=1;
#SPEEDS:0.000=1.000=0.000=0;
#SCROLLS:0.000=1.000;
#FAKES:;
#LABELS:0.000=Song Start;
#BGCHANGES:0.000=Sai Co.avi=1.600=1=1=1=StretchRewind==CrossFade==,
2.250=Sai Co.avi=1.000=0=0=1=====,
99999=-nosongbg-=1.000=0=0=0 // don't automatically add -songbackground-
;
#KEYSOUNDS:;
#ATTACKS:
;

//---------------dance-single - ----------------
#NOTEDATA:;
#CHARTNAME:;
#STEPSTYPE:dance-single;
#DESCRIPTION:;
#CHARTSTYLE:;
#DIFFICULTY:Challenge;
#METER:17;
#RADARVALUES:0.912366,1.184346,2.327364,0.458628,0.284075,933.000000,593.000000,340.000000,67.000000,0.000000,3.000000,0.000000,0.000000,0.000000,0.912366,1.184346,2.327364,0.458628,0.284075,933.000000,593.000000,340.000000,67.000000,0.000000,3.000000,0.000000,0.000000,0.000000;
#CREDIT:;
#DISPLAYBPM:130.000000;
#NOTES:
0000
0000
0000
0000
,
1001
0000
0010
0000
1001
0000
0000
0010
,
1001
0100
1001
0010
1001
0100
0010
0000
,
0110
0000
0001
0000
0110
0000
1000
0100
,
1001
0100
1001
0000
1001
0000
0000
0000
,
0110
0000
1000
0000
0110
0000
0000
0100
,
1001
0100
1001
0010
1001
0100
0110
0000
,
0110
0000
0001
0000
0110
0000
1000
0100
,
0001
0100
0010
0000
0100
0000
1001
0000
,
0101
0010
1001
0010
0100
0001
1100
0010
,
0100
0000
0001
0000
1010
0000
0001
1000
0100
0000
0010
0000
1100
0000
0001
0000
,
0010
0001
1100
0010
0001
0010
1100
0001
,
1010
0011
0110
1001
,
0110
0001
1010
0100
1001
0010
0101
1000
,
0101
0001
0110
0001
1100
1010
1010
0001
,
0011
0010
0110
0001
1001
0100
1100
0001
,
1010
0010
1001
0100
1100
0011
1100
0010
,
0101
1000
0011
0001
0110
0001
0011
1000
,
0011
0100
1001
0010
1001
1010
1010
0010
,
1100
0001
0110
1000
0101
0100
1010
0001
,
1100
1010
0001
1000
0101
1010
1010
0000
,
1100
1000
0011
1000
0101
0010
0011
0100
,
1100
0001
1010
1000
0110
0101
0101
0010
,
0101
1000
1010
0001
0110
0001
1100
0010
,
1010
0100
1001
0010
1001
0110
1001
0100
,
1100
0000
0010
0000
1001
0000
0010
0100
1001
0000
0100
0000
0110
0000
1000
0000
,
1100
0010
1001
0010
1010
1100
0101
0010
,
1001
0010
1001
0000
0101
1000
0101
0010
,
1001
0000
0000
0000
0000
0000
0000
0000
0100
0000
0000
0000
0000
0000
0000
0000
0110
0000
0000
0000
0000
0000
0000
0000
1000
0000
0000
0000
0000
0000
0000
0000
1001
0000
0000
0000
0000
0000
0000
0000
0010
0000
1000
0000
0001
0000
0100
0000
0010
0000
0000
0000
0000
0000
0000
0000
0000
0000
0000
0000
0000
0010
0000
0000
,
1001
0100
1010
0100
0011
0100
1001
0001
,
0110
1000
0011
0100
1100
0011
1100
0010
,
1001
0010
0101
0010
1001
1000
0101
0100
,
1001
0000
0010
0000
0101
0000
1100
0011
1100
0000
0110
0000
1001
0000
0110
0000
,
1100
0010
1001
0010
0101
1000
0101
0010
,
1100
0010
1010
0001
1100
0110
1001
0100
,
0110
0001
1010
0001
1010
1000
0110
0001
,
1100
0000
0000
0000
0000
0000
0000
0000
0011
0000
0000
0000
0000
0000
0000
0000
1100
0000
0000
0000
0000
0000
0000
0000
0000
0000
0000
0000
0000
0000
0000
0000
0110
0000
0000
0000
0000
0000
0000
0000
1001
0000
0000
0000
0000
0000
0000
0000
0110
0000
0000
0000
0000
0000
0000
0000
0000
0000
0000
0000
0000
0010
0000
0000
,
1001
0000
0010
1001
0101
0000
1000
0000
1001
0000
0011
0000
1100
0000
1010
0000
,
0110
0000
0001
1010
1010
0000
0101
0000
1100
0000
0011
0000
0110
0000
1000
0000
,
1010
0000
0001
1010
0110
0000
1001
0000
0101
0000
1001
0000
0110
0000
1001
0000
,
1010
0000
0001
0110
1100
0000
0011
1100
0011
0000
1001
0000
0101
0000
1010
0000
,
0110
0000
0011
1100
0110
0000
0011
0000
1100
0000
0110
0000
1100
0000
1001
0000
,
1010
0000
0100
0011
1100
0000
0101
0000
1010
0000
1001
0000
1010
0000
0100
0000
,
1100
0000
0000
1010
1010
0000
0001
0000
1100
0000
1100
0000
0011
0000
1001
0000
,
1010
0000
0101
0000
1010
1000
1010
0000
,
0101
0000
0100
0000
0110
0000
0011
1100
1010
0000
0000
0000
0101
0000
0000
0000
,
0110
0000
1100
0000
0011
0000
1100
0011
1001
0000
0000
0000
1001
0000
0000
0000
,
2010
0000
0101
3000
0110
0000
1010
0000
1010
0000
0000
0000
1001
0000
0000
0000
,
2001
0011
3000
0011
1100
0000
0011
0000
1100
0011
0000
0011
1001
0000
0000
0000
,
1001
0000
0101
1010
1010
0000
0110
0000
0011
0000
0100
0000
1001
0000
0001
0000
,
0110
0000
0011
1100
0011
0000
0100
0000
1100
0000
0011
0000
1100
0000
0010
0000
,
1001
0000
0110
1100
0101
0000
0110
0000
1001
0000
1000
0000
0101
0000
0100
0000
,
1001
0000
0011
1100
0101
0000
1100
0011
1100
0000
0110
0000
1001
0000
0110
0000
,
1100
0000
0011
1100
1001
0000
0110
0000
0101
0000
1000
0000
0101
0000
0010
0000
,
1100
0000
1010
0101
1010
0000
1001
0000
1100
0000
0110
0000
1001
0000
0100
0000
,
0110
0001
1010
0001
1010
1000
0110
0001
,
1100
0000
0011
0000
1100
0000
0000
0000
0110
0000
1001
0000
0110
0000
2000
3002
,
0203
0000
0320
0000
2030
0000
3002
0000
0203
0000
0320
0000
2030
0000
3200
0302
,
0203
0000
0320
0000
2030
0000
3002
2003
3200
0000
0320
0000
0130
0000
0001
0000
,
2000
3002
2003
3020
0230
2300
3200
0302
2003
0000
3200
0320
2030
3002
0203
0320
,
2030
0000
3200
0000
0302
0000
0203
0320
0230
0000
2300
3002
2003
3020
0230
0302
,
2003
3000
0200
0320
0230
0000
2300
3002
0203
0000
0000
0000
0300
0000
0200
0302
,
0023
0000
2030
3002
2003
0000
3002
0000
0023
0000
0032
0000
2003
0000
0000
0000
,
3101
0000
0110
0000
1001
0000
0100
1100
,
0000
0011
1100
0000
0210
0000
0310
0000
,
0011
0000
0000
1100
0000
0000
0011
0000
0110
0000
1001
0000
0110
0000
1001
0000
,
0000
0000
0000
1100
0000
0000
1100
0000
0011
0000
0110
0000
0110
0000
0000
0000
,
1001
0000
0000
1010
0000
0000
1001
0000
0101
0000
0110
0000
0101
0000
0110
0000
,
0000
0000
0000
0110
0000
0000
1001
0000
1001
0000
0110
0000
1001
0000
0110
0000
,
1001
0100
0001
1010
0100
1000
0011
0100
1001
0100
1010
0001
1100
0010
1100
0001
,
0100
0010
0001
1100
0010
0100
1010
0001
1010
0001
1100
0010
0101
0010
0100
0010
,
1001
0100
0010
1100
0001
0100
1010
0100
0011
1000
0011
0100
1001
0100
0011
0100
,
1000
0001
0010
0101
1000
0001
0110
0001
1010
0100
1010
0001
0110
1000
0101
1000
,
0220
0000
0000
0000
0000
0330
0000
0000
;

//---------------dance-single - Copied from----------------
#NOTEDATA:;
#CHARTNAME:Copied from;
#STEPSTYPE:dance-single;
#DESCRIPTION:Copied from;
#CHARTSTYLE:;
#DIFFICULTY:Hard;
#METER:10;
#RADARVALUES:0.498721,0.614013,0.472318,0.095833,0.102678,510.000000,441.000000,69.000000,14.000000,0.000000,0.000000,0.000000,0.000000,0.000000,0.498721,0.614013,0.472318,0.095833,0.102678,510.000000,441.000000,69.000000,14.000000,0.000000,0.000000,0.000000,0.000000,0.000000;
#CREDIT:Copied from;
#DISPLAYBPM:130.000000;
#NOTES:
// measure 0
0000
0000
0000
0000
,  // measure 1
1001
0000
1001
0000
,  // measure 2
1100
1100
1100
0000
,  // measure 3
1001
0000
1001
0000
,  // measure 4
1100
1100
1100
0000
,  // measure 5
1001
0000
1001
0000
,  // measure 6
0011
0011
0011
0000
,  // measure 7
1001
0000
1001
0000
,  // measure 8
0000
0000
0000
1001
,  // measure 9
0101
0000
1010
0001
0100
0000
1100
0000
,  // measure 10
0010
0100
1001
0010
1000
0000
1100
0000
,  // measure 11
0110
0001
0110
0001
0100
0000
1001
0000
,  // measure 12
1100
0011
1100
0011
,  // measure 13
1001
0010
0100
0001
0100
0010
0100
0010
,  // measure 14
1000
0100
0010
0001
0010
0010
0010
0000
,  // measure 15
1000
0001
0100
0010
1000
0100
0010
0001
,  // measure 16
1000
0010
0100
0001
1000
1000
1000
0000
,  // measure 17
0100
0001
1000
0100
0010
0001
0010
0001
,  // measure 18
1000
0010
0100
0001
1000
1000
1000
0000
,  // measure 19
0010
1000
0001
0000
0010
0001
1000
0100
,  // measure 20
0010
0010
0100
0010
0001
0001
0001
0000
,  // measure 21
0001
0000
1000
0000
0010
0000
1000
0010
,  // measure 22
1000
0001
1000
0010
0100
0100
0100
0000
,  // measure 23
0010
1000
0001
1000
0010
0000
1000
0100
,  // measure 24
1000
0001
1000
0010
0200
0000
0310
0000
,  // measure 25
0001
1000
0001
0000
0010
1000
0010
1000
,  // measure 26
0001
1000
0010
1000
0002
0000
0013
0000
,  // measure 27
1001
0010
0100
0000
0011
0100
1000
0000
,  // measure 28
1001
1001
1001
0110
,  // measure 29
1000
0010
1000
0010
2000
0000
3010
0000
,  // measure 30
0010
0100
0010
0100
0010
0010
0010
0000
,  // measure 31
0001
1000
0001
1000
0002
0000
0013
0000
,  // measure 32
0010
0000
1000
0000
0001
0000
0010
0100
0010
0000
0100
0000
0100
0000
0100
0000
,  // measure 33
0010
1000
0010
1000
0020
0000
0130
0001
,  // measure 34
1000
0010
1000
0001
1000
0100
0010
0000
,  // measure 35
0011
0100
0110
0001
,  // measure 36
1000
1000
0010
0000
1000
0001
0110
0000
,  // measure 37
1001
0010
1000
0010
2000
0000
3010
0000
,  // measure 38
0001
0010
0001
0010
0001
0010
0001
0000
,  // measure 39
1010
0000
0101
0000
1010
0000
0010
1000
,  // measure 40
0001
1000
0010
0000
0200
0000
0310
0000
,  // measure 41
1100
1001
0210
0310
,  // measure 42
0001
1000
0001
1000
0010
1000
0001
0000
,  // measure 43
0011
0000
0110
0000
1001
0000
0010
1000
,  // measure 44
0001
1000
0010
0000
0200
0000
0310
0000
,  // measure 45
1001
0000
0010
0000
1000
0000
0010
1000
0010
0000
0000
0000
1010
0000
0000
0000
,  // measure 46
0001
0000
1000
0000
0001
0000
1000
0001
1000
0000
0000
0000
1000
0000
0000
0000
,  // measure 47
0110
0000
0001
0000
1000
0000
0001
1000
0001
0000
0000
0000
0011
0000
0000
0000
,  // measure 48
0010
1000
0000
1000
0010
0000
1000
0000
0010
1000
0000
1000
0010
0000
0000
0000
,  // measure 49
1010
0010
1000
0010
2000
0000
3010
0000
,  // measure 50
0001
0100
0001
0100
0010
1000
0010
0000
,  // measure 51
1100
0000
0011
0000
0110
0000
0001
1000
,  // measure 52
0010
0000
1000
0000
0001
0000
0100
0010
0100
0000
0010
0000
0010
0000
0010
0000
,  // measure 53
0001
1000
0001
1000
0002
0000
0013
0000
,  // measure 54
0010
1000
0010
1000
0010
0100
0010
0000
,  // measure 55
0011
1100
1001
0010
,  // measure 56
0100
0000
0100
0000
0010
0000
0000
0000
1000
0000
0001
0000
1001
0000
0001
1000
,  // measure 57
0001
0000
1000
0000
0010
0000
0100
0000
0001
0000
0100
0000
0010
0000
1000
0010
,  // measure 58
1000
0000
0010
0000
0100
0000
0010
0100
0010
0000
1000
0000
0001
0000
0000
0000
,  // measure 59
0100
1000
0001
1000
0100
1000
0001
1000
0100
0000
0010
0000
0100
0001
0100
0000
,  // measure 60
0010
0000
0001
0000
1000
0000
0001
1000
0001
0000
0100
0000
0010
0000
1000
0010
,  // measure 61
1000
0000
0010
0100
0010
0000
1000
0001
2000
0000
0000
0000
3010
0000
0001
1000
,  // measure 62
0001
0010
0100
0010
0001
1000
0010
0000
,  // measure 63
0101
0000
1010
0000
0101
0000
0010
0100
,  // measure 64
0000
0100
0010
0000
1000
0000
1010
0000
,  // measure 65
0010
0000
0000
0010
0000
0000
0100
0000
0010
0000
0100
0000
0010
0000
0100
0000
,  // measure 66
0000
0000
0000
0001
0000
0000
0001
0000
1000
0000
0001
0000
1000
0000
0000
0000
,  // measure 67
0010
0000
0000
0010
0000
0000
0010
0000
1000
0000
0010
0000
1000
0000
0010
0000
,  // measure 68
0000
0000
0000
1000
0000
0000
1000
0000
0010
0000
1000
0000
0010
0000
1000
0000
,  // measure 69
1010
0000
0000
0010
0000
0000
0010
0000
0100
0000
0010
0000
0100
0000
0010
0000
,  // measure 70
0000
0000
0000
0001
0000
0000
0001
0000
1000
0000
0001
0000
1000
0000
0000
0000
,  // measure 71
1001
0000
0000
0010
0000
0000
1000
0000
0010
0000
1000
0000
0010
0000
1000
0000
,  // measure 72
0000
0000
0000
0010
0000
0000
0010
0000
0100
0000
0010
0000
0100
0000
0010
0000
,  // measure 73
0220
0000
0000
0000
,  // measure 74
0000
0000
0000
0330
;

//---------------dance-single - Copied from Copied f----------------
#NOTEDATA:;
#CHARTNAME:Copied from Copied f;
#STEPSTYPE:dance-single;
#DESCRIPTION:Copied from Copied f;
#CHARTSTYLE:;
#DIFFICULTY:Medium;
#METER:8;
#RADARVALUES:0.297277,0.324804,0.027381,0.068452,0.003423,304.000000,300.000000,4.000000,10.000000,0.000000,0.000000,0.000000,0.000000,0.000000,0.297277,0.324804,0.027381,0.068452,0.003423,304.000000,300.000000,4.000000,10.000000,0.000000,0.000000,0.000000,0.000000,0.000000;
#CREDIT:Copied from Copied f;
#DISPLAYBPM:130.000000;
#NOTES:
0000
0000
0000
0000
,
1000
0000
0100
0000
0010
0000
0000
0001
,
0000
0001
0010
0100
1000
0100
0010
0000
,
0001
0000
0001
0000
0010
0000
0100
0010
,
0000
0010
0100
0000
0010
0000
0000
0000
,
1000
0000
1000
0000
0001
0000
0000
1000
,
0000
0001
0100
0010
1000
0001
0100
0000
,
0010
0000
0010
0000
0100
0000
0100
0010
,
0000
0010
0100
0000
0020
0000
0030
0000
,
1000
0000
0110
0000
,
0000
0000
0000
0000
,
0001
0000
0110
0000
,
1000
1000
1000
0100
,
1000
0000
0100
0000
0010
0000
0000
0001
,
0000
1000
0010
0100
0001
1000
0010
0000
,
0100
0000
0100
0000
0010
0000
0000
0100
,
0000
1000
0100
0010
0100
0000
0000
0000
,
1000
0001
0100
0000
1000
0010
0100
0100
,
0010
0001
1000
0010
0100
0000
0000
0000
,
1000
0100
0010
0000
0001
1000
0010
0100
,
0001
2000
0000
0000
0000
0000
3000
0000
,
0100
0000
0100
0000
0100
0000
0000
0010
,
0000
0010
0100
0001
1000
0010
0100
0000
,
1000
0000
1000
0000
0100
0000
0000
0010
,
0000
0010
0001
0100
0010
0000
0000
0000
,
1000
0000
0100
0000
0010
0000
0000
1000
0001
0000
1000
0000
0010
0000
0000
0000
,
0100
0010
1000
0001
0100
0000
0000
0000
,
1000
0100
0010
0000
0001
0010
0100
0001
,
1000
0010
0100
0001
2000
0000
3000
0000
,
0100
0000
0100
0000
0100
0000
0000
0010
,
0000
0010
0100
0001
1000
0010
0100
0000
,
1000
0000
1000
0000
0100
0000
0100
0010
,
0000
0010
0001
0000
0020
0000
0030
0000
,
0100
0000
0100
0000
1000
0000
0000
0100
,
0000
0010
0001
1000
0010
0100
0001
0000
,
1000
0000
1000
0000
0100
0000
0100
0010
,
0000
0010
0100
0000
0002
0000
0003
0000
,
1000
0000
1000
0000
0100
0000
0000
0010
,
0000
0010
0100
0001
1000
0010
0100
0000
,
0001
0000
0001
0000
1000
0000
1000
0100
,
0000
0100
0010
0000
0020
0000
0030
0000
,
1000
0000
1000
0000
1000
0000
0000
0100
,
0000
0010
1000
0001
0100
0010
1000
0000
,
0001
0000
0001
0000
0100
0000
0100
0010
,
0000
0010
1000
0000
0020
0000
0130
0000
,
1000
0000
0110
0000
,
0000
0000
0000
0000
,
0010
0000
0101
0000
,
0000
0000
0000
0000
,
1000
0000
0100
0000
0010
0000
0000
0001
,
0000
1000
0010
0100
0001
1000
0010
0000
,
0100
0000
0100
0000
1000
0000
1000
0010
,
0000
0010
0100
0000
0002
0000
0003
0000
,
1000
0000
1000
0000
0010
0000
0000
0100
,
0000
0100
0010
1000
0001
0100
0010
0000
,
1000
0000
1000
0000
0100
0000
0100
0010
,
0000
0010
1000
0000
0002
0000
0103
0000
,
1000
0000
1000
0000
0100
0000
0000
0010
,
0000
0001
0010
1000
0001
0010
0100
0000
,
1000
0000
1000
0000
0100
0000
0100
1000
,
0000
1000
0100
0000
0010
0000
0000
0000
,
1000
0000
1000
0000
0100
0000
0000
0010
,
0000
1000
0100
0010
0001
0010
0100
0000
,
0001
0000
0001
0000
0010
0000
0010
0100
,
0000
0100
0010
0000
2000
0000
0000
3000
,
0100
0010
0100
0000
,
0000
0000
0000
0000
,
1000
0001
1000
0000
,
0000
0000
0000
0000
,
0100
0010
0100
0010
,
0100
0010
0100
0010
,
1000
0001
0100
0010
,
1000
0000
0001
0000
1000
0100
0010
0001
,
0010
0000
0000
0000
;

//---------------dance-single - Copied from Copied f----------------
#NOTEDATA:;
#CHARTNAME:Copied from Copied f;
#STEPSTYPE:dance-single;
#DESCRIPTION:Copied from Copied f;
#CHARTSTYLE:;
#DIFFICULTY:Easy;
#METER:5;
#RADARVALUES:0.250338,0.249849,0.013690,0.006845,0.000000,256.000000,254.000000,2.000000,1.000000,0.000000,0.000000,0.000000,0.000000,0.000000,0.250338,0.249849,0.013690,0.006845,0.000000,256.000000,254.000000,2.000000,1.000000,0.000000,0.000000,0.000000,0.000000,0.000000;
#CREDIT:Copied from Copied f;
#DISPLAYBPM:130.000000;
#NOTES:
0000
0000
0000
0000
,
1000
0000
1000
0000
,
0010
0010
0010
0000
,
0100
0000
0100
0000
,
0001
0001
0001
0000
,
1000
0000
1000
0000
,
0010
0010
0010
0000
,
0100
0000
0100
0000
,
0000
0000
0000
0000
,
1000
0100
0000
0010
,
0001
0010
0000
1000
,
0100
0010
0000
0001
,
0100
0010
1000
0001
,
0100
0010
1000
0001
,
0100
0000
0010
0000
1000
0001
1000
0000
,
0100
0010
1000
0010
,
0001
0000
0010
0000
0100
0010
0100
0000
,
1000
0001
0010
0100
,
1000
0000
0010
0000
1000
0001
1000
0000
,
0010
0100
0001
0100
,
0010
1000
0100
0000
,
1000
0100
0010
1000
,
0001
0000
0100
0000
1000
0001
1000
0000
,
0100
0010
0001
1000
,
0100
0000
0010
0000
1000
0001
1000
0000
,
0100
0010
0001
0010
,
0100
0000
0010
0000
0100
0010
0100
0000
,
1000
0000
0001
0000
,
0100
0100
0100
0000
,
1000
0100
0010
0001
,
0010
0100
1000
1000
,
0100
1000
0010
0001
,
0010
0000
0100
0000
0001
1000
0001
0000
,
0100
0010
1000
0001
,
0100
0010
1000
0100
,
0010
1000
0001
0100
,
1000
0001
1000
0000
0010
0000
0000
0000
,
0100
0100
0100
1000
,
0010
0100
0001
0010
,
0001
0001
0001
0100
,
0010
0000
1000
0000
0100
0001
0100
0000
,
1000
0100
0010
0001
,
1000
0010
0100
0001
,
1000
1000
0100
0100
,
0010
0010
0010
0000
,
1000
0000
0100
0000
,
0010
0000
0001
0001
,
1001
0000
0100
0000
,
1001
0000
0000
0000
,
1000
1000
1000
0000
,
0100
0010
1000
0001
,
0100
0100
0100
0000
,
0001
0100
0010
1000
,
0100
0010
0100
0000
,
1000
0010
0001
0100
,
0001
1000
0001
0000
,
0100
0010
0100
0000
,
1000
0100
0010
0000
,
0001
1000
0010
0100
,
1000
0001
1000
0000
,
0100
0010
0100
0000
,
1000
0001
1000
0000
,
0100
0010
0100
0000
,
0001
1000
0001
0100
,
0001
0000
0100
0000
0020
0000
0000
0030
,
0000
1000
0001
0100
,
0010
0100
0001
1000
,
0100
1000
0010
0001
,
0100
1000
0010
0100
,
0001
0001
1000
0100
,
0010
1000
0001
0100
,
1000
0100
0010
1000
,
0001
0100
0010
0100
,
0001
0000
0000
0000
;

//---------------dance-single - Copied from Copied f----------------
#NOTEDATA:;
#CHARTNAME:Copied from Copied f;
#STEPSTYPE:dance-single;
#DESCRIPTION:Copied from Copied f;
#CHARTSTYLE:;
#DIFFICULTY:Beginner;
#METER:2;
#RADARVALUES:0.155484,0.199880,0.013690,0.006845,0.000000,159.000000,157.000000,2.000000,1.000000,0.000000,0.000000,0.000000,0.000000,0.000000,0.155484,0.199880,0.013690,0.006845,0.000000,159.000000,157.000000,2.000000,1.000000,0.000000,0.000000,0.000000,0.000000,0.000000;
#CREDIT:Copied from Copied f;
#DISPLAYBPM:130.000000;
#NOTES:
0000
0000
0000
0000
,
1000
0000
1000
0000
,
0010
0000
0010
0000
,
0100
0000
0100
0000
,
0000
0000
0000
0000
,
1000
0000
1000
0000
,
0000
0000
0000
0000
,
0100
0000
0100
0000
,
0000
0000
0000
0000
,
1000
0000
0100
0000
,
0000
0000
0000
0000
,
0001
0000
0010
0000
,
0000
0000
0000
0000
,
0100
0010
0100
0000
,
0001
0000
0001
0000
,
1000
0001
1000
0000
,
0100
0000
0100
0000
,
0010
0100
0010
0000
,
0001
0000
0001
0000
,
0100
0010
0100
0000
,
1000
0000
1000
0000
,
0100
0010
0100
0000
,
0001
0000
0001
0000
,
1000
0001
1000
0000
,
0100
0000
0100
0000
,
0100
0010
0100
0000
,
0001
0000
0001
0000
,
1000
0000
1000
0000
,
0010
0000
0010
0000
,
0100
0000
0100
0000
,
0010
0000
0010
0000
,
0001
0000
0001
0000
,
1000
0000
0001
0000
,
0100
0000
0010
0000
,
1000
0000
0100
0000
,
0010
0000
1000
0000
,
0001
0100
0010
0000
,
1000
0000
0100
0000
,
0010
1000
0001
0000
,
0100
0000
0100
0000
,
0010
0001
1000
0000
,
0100
0000
1000
0000
,
0010
0001
0010
0000
,
0100
0000
0010
0000
,
1000
1000
1000
0000
,
0100
0000
0000
0000
,
0010
0000
0000
0000
,
1001
0000
0000
0000
,
1001
0000
0000
0000
,
1000
0100
0010
0000
,
0001
0000
0001
0000
,
0001
0010
0100
0000
,
1000
0000
1000
0000
,
0010
0100
0001
0000
,
1000
0000
0010
0000
,
0100
0001
0100
0000
,
1000
0000
0010
0000
,
0100
0001
1000
0000
,
0100
0000
0100
0000
,
1000
0001
1000
0000
,
0010
0000
0010
0000
,
0100
0010
0100
0000
,
1000
0001
1000
0000
,
0010
0100
0001
0000
,
2000
0000
3001
0000
,
0100
0000
1000
0000
,
0010
0000
0001
0000
,
0100
0000
0001
0000
,
1000
0000
0010
0000
,
1000
0010
0100
0000
,
0001
1000
0010
0000
,
0100
0001
1000
0000
,
0100
0010
1000
0001
,
0010
0000
0000
0000
;
