#TITLE:-SAIKYO STRONGER;
#SUBTITLE:;
#ARTIST:REDALiCE vs USAO;
#TITLETRANSLIT:;
#SUBTITLETRANSLIT:;
#ARTISTTRANSLIT:;
#GENRE:;
#CREDIT:;
#BANNER:AV.avi;
#BACKGROUND:bg.png;
#LYRICSPATH:;
#CDTITLE:;
#MUSIC:REDALiCE vs USAO - SAIKYO STRONGER.mp3;
#OFFSET:-0.137000;
#SAMPLESTART:93.385002;
#SAMPLELENGTH:15.000000;
#SELECTABLE:YES;
#DISPLAYBPM:*;
#BPMS:0.000000=205.000000
,1.000000=102.500000
,17.000000=205.000000
,209.000000=102.500000
,225.000000=205.000000
,321.000000=102.500000
,325.000000=205.000000
,381.000000=102.500000
,383.000000=205.000000
;
#STOPS:
;
#BGCHANGES:0.000=MV.avi=1.000=1=0=1===CrossFade==,
99999=-nosongbg-=1.000=0=0=0 // don't automatically add -songbackground-
;
#KEYSOUNDS:;
#ATTACKS:;

//---------------dance-single - ----------------
#NOTES:
     dance-single:
     :
     Challenge:
     17:
     1.404050,1.609738,2.374031,1.017442,0.944767,1420.000000,1077.000000,343.000000,147.000000,0.000000,29.000000,1.404050,1.609738,2.374031,1.017442,0.944767,1420.000000,1077.000000,343.000000,147.000000,0.000000,29.000000:
0020
0000
0000
0000
1130
0000
0001
0010
0000
1000
0100
0000
0000
0010
0100
0001
,
0010
0100
1000
0000
1000
0000
0010
0100
0000
0100
0010
0000
1000
0000
0100
0000
,
0010
0100
0001
0000
0010
0000
1000
0100
0000
0001
0010
0000
0000
0100
0010
1000
,
0001
0100
0001
0000
0100
0000
0010
0000
0100
0000
2000
3000
0012
0003
0200
0300
,
0020
0030
1000
0001
1100
0000
0010
0000
0101
0000
0010
0000
1001
0000
0100
0000
,
1010
0000
0001
0000
1100
0000
0010
0000
0101
0000
1000
0000
0011
0000
1000
0100
,
0011
0000
0100
0000
0011
0000
1100
0000
0011
0000
1100
0000
0011
1100
0011
1100
,
0011
1100
0011
1100
0012
0000
2003
0000
3200
0000
0320
0000
0032
0000
0003
0000
,
2100
0000
3011
1100
0011
0000
0200
0000
1301
0000
0020
0000
1130
0000
0002
0000
,
0113
2000
3011
0200
1301
0020
1130
0002
,
0113
2000
3101
0020
1130
0002
1013
0200
,
0311
0000
2000
0000
3102
0000
0023
0000
0230
0000
2300
0000
3201
0000
0320
1000
,
0032
0000
0013
0000
1100
0000
1100
0000
0011
0000
0100
0000
0001
0010
0100
0000
,
1010
0000
0001
0100
0010
0000
1000
0000
0110
0000
0001
0000
1000
0000
0010
0100
,
1001
0000
0010
0000
0100
0000
0010
1100
0011
0000
1100
0011
1100
0000
1100
0000
,
1100
0010
1100
0011
1100
0000
0010
0000
0002
0000
0003
0000
1200
0000
0300
0011
,
1100
0000
1100
0000
1100
0000
1100
0000
0011
0100
1000
0000
0010
0000
0001
0000
,
1100
0000
0010
0000
0001
0000
0100
0000
0011
0000
1000
0000
0100
0000
0001
1000
,
0011
0000
1100
0011
1100
0000
0010
0000
0101
0010
1000
0000
0002
0000
0103
0000
,
0011
1000
0110
0001
0110
1000
0110
0001
,
2000
0000
3110
0000
0002
0103
0010
1001
,
0120
0031
1100
0011
0200
0301
0010
0101
,
2010
0000
3000
0000
0011
1000
0100
0011
1000
0100
0011
1000
0100
0011
1000
0100
,
0011
1100
0011
1100
0011
1000
0100
0010
0001
0000
0100
0000
0010
0000
1000
0001
,
0200
0000
0311
1000
0020
0100
1031
0100
,
0002
0000
0010
0000
1103
0000
0011
0000
1100
0000
0001
0010
1100
0011
1100
0011
,
1200
0000
0000
0000
2301
3000
0010
0000
1200
0300
0001
0000
0120
0030
1000
0000
,
0200
0300
0011
0000
2000
3000
0100
0000
0021
0030
0100
0000
2001
3000
0010
0000
,
0200
0300
0010
0000
2001
3000
0100
0000
1002
0003
0010
0000
1200
0300
0001
0000
,
0020
0030
0101
0000
2000
0000
0010
0000
3110
0000
0002
0000
0010
0000
1003
0000
,
0020
0000
1130
0010
1001
0100
0011
0100
,
1000
0101
0010
1000
0011
0100
1001
0010
,
0100
0000
0000
0000
0000
0000
1000
0000
0000
0000
0000
0000
0200
0000
0000
0310
0000
0000
0002
0000
1000
0003
0000
0000
0200
0000
0000
0300
0000
0000
0020
0000
0000
0030
0000
0000
2001
0000
0000
3000
0000
0000
0200
0000
0000
0300
0000
0000
,
0020
0000
1130
0000
0002
0003
0000
0000
,
0000
0000
0000
1100
0000
0000
0000
0000
0000
0011
0000
1000
,
0100
1001
1001
1001
,
0000
0000
0000
0000
0110
0000
0000
0000
1000
0000
0010
0000
0102
0003
1000
0000
,
0002
0003
0100
0000
0012
0003
1000
0000
0100
0000
0010
0000
0101
0000
1000
0000
,
0010
0000
0001
0000
1100
0000
0010
0000
0001
0000
0010
0000
2100
3000
0010
0000
,
2000
3000
0001
0000
0210
0300
1000
0000
0100
0000
0010
0000
1001
0000
0100
0000
,
0020
0000
0100
0000
1031
0000
0010
0000
0101
0010
1000
0000
0010
0000
1100
0000
,
0011
0000
1000
0100
0011
0000
0100
0000
1001
0000
0010
0000
0100
0000
0011
0000
,
1100
0000
0001
0010
1100
0000
0000
1100
0000
0000
1100
0000
0000
1100
0000
0000
,
1100
0011
1100
0011
1200
0000
0320
0000
0032
0000
0023
0000
0230
0000
2300
0100
,
3020
0000
0000
0000
1030
0100
0010
0001
0100
0010
1000
0100
0010
0001
1000
0001
,
0100
0010
1000
0001
0010
0100
1000
0010
0100
0001
1000
0100
0010
0100
0010
0001
,
1000
0010
0100
0001
0010
1000
0010
0100
0001
1000
0010
0100
0010
0100
0001
1000
,
0100
0010
0001
0100
0010
1000
0001
0010
0100
0001
1000
0100
0020
0000
0000
0000
,
1030
0100
0010
0001
1100
0000
0010
0000
2001
3000
0010
0000
0001
0000
0100
0000
,
0021
0030
1000
0000
0100
0000
0001
0000
1200
0300
0010
0000
1000
0000
0100
0000
,
0021
0030
0100
0000
1000
0100
0010
0001
1000
0100
0010
0001
1000
0100
0010
0001
,
0100
0010
1000
0100
0001
1000
0001
0100
0010
0100
0010
1000
0010
0000
0100
0000
,
0001
0000
0010
0000
0100
0000
1000
0000
0012
0003
0020
0030
1000
0000
0200
0300
1000
0000
0000
0000
1020
0000
0030
0000
0100
0000
0002
0000
0023
0000
0230
0000
,
0320
0000
0230
0300
2000
0000
3000
0000
0002
0000
0003
0000
0010
0000
2000
3000
0010
0000
0000
0000
0201
0000
0300
0000
0020
0030
0000
0000
2000
3000
0000
0000
,
0020
0030
0200
0000
0020
0030
0300
0000
0002
0003
0000
0000
1100
0000
0020
0030
0100
0000
0000
0000
0021
0000
0030
0000
0100
0000
0020
0000
1032
0000
0203
0000
,
0320
0000
0230
0000
1002
0000
0303
0000
0020
0000
0030
0000
2100
0000
3020
0030
0002
0000
0003
0000
2001
0000
3000
0000
0120
0000
2030
0000
3020
0000
0230
0000
,
0302
0000
2003
0000
3001
0010
0100
1000
0011
0000
0000
0000
0100
0000
0000
0000
1000
0000
0000
0000
0011
0000
0000
0000
1000
0000
0000
0000
0100
0000
0000
0000
,
0011
1000
0010
0100
0001
0010
0100
0010
,
1000
0100
0010
0001
1100
0000
0010
0000
0001
0000
1100
0000
0001
0000
1100
0000
,
1100
0000
0001
0000
0010
0000
1000
0000
0100
0000
0010
0000
0001
0000
0200
0300
,
0020
0030
1000
0000
0011
0000
0100
0000
2000
3000
0011
0000
0100
0000
0001
0000
,
2100
0000
0000
3000
0010
0000
0000
0000
0100
0000
0000
0000
0001
0000
0000
0000
0000
0000
0010
0000
0000
0000
0000
0000
2000
0000
0000
3000
0000
0000
0010
0000
0000
0000
0000
0000
0200
0000
0000
0300
0000
0000
0001
0000
0000
0000
0000
0000
,
0020
0030
0100
0000
1001
0000
0000
0000
0002
0003
0110
0000
2000
3000
0000
0000
,
0110
1100
0110
0011
,
1001
0000
0000
0110
1000
0010
1000
0000
0001
0100
0001
0100
,
1002
0000
0000
0003
0000
0000
0000
0000
0000
0000
0000
0000
0010
0000
0000
0000
0100
0000
0000
0000
0010
0000
0000
0000
0100
0000
0000
0000
0000
0000
0000
0000
1000
0000
0000
0000
0001
0000
0000
0000
1000
0000
0000
0000
0001
0000
0000
0000
,
1200
0000
0000
0300
0000
0000
0000
0000
0000
0000
0000
0000
0001
0000
0000
0000
0100
0000
0000
0000
0001
0000
0000
0000
0100
0000
0000
0000
0000
0000
0000
0000
0010
0000
0000
0000
1000
0000
0000
0000
0010
0000
0000
0000
1000
0000
0000
0000
,
0210
0000
0000
0300
0000
0000
0000
0000
0000
0000
0000
0000
1000
0000
0000
0000
0001
0000
0000
0000
1000
0000
0000
0000
0001
0000
0000
0000
0000
0000
0000
0000
0100
0000
0000
0000
0010
0000
0000
0000
0100
0000
0000
0000
0010
0000
0000
0000
,
1100
0000
0000
1001
0100
0010
1001
0010
0100
1001
0100
0010
,
1001
0000
0000
0000
0010
0000
0000
0000
0100
0000
0000
0000
1001
0000
0000
0100
0000
0000
0010
0000
0000
0001
0000
0000
0100
0000
0000
0010
0000
0000
1000
0000
0000
0100
0000
0000
0010
0000
0000
0001
0000
0000
0010
0000
0000
0100
0000
0000
,
1000
0010
0100
0001
1010
0000
0000
0000
0100
0000
0000
0000
0010
0100
1000
0000
,
0011
0000
0000
0000
2000
0000
0001
0100
0010
0000
0001
0010
3002
0103
0010
0000
,
0201
0300
0010
0100
1000
0000
0010
0000
1001
0000
0100
0001
0010
0000
0001
0000
,
1100
0000
0001
0010
0100
0010
0001
0000
0110
0000
1000
0100
0010
0000
0100
0000
,
1001
0000
0010
1000
0100
0000
0001
0000
0110
0000
0001
0100
1000
0000
0100
0000
,
1001
0000
0010
0100
0001
0010
0100
0000
1010
0000
0001
0010
0100
0000
0010
0000
,
1001
0000
0010
0100
0001
0000
0100
0000
1010
0000
0100
0010
0001
0000
0100
0000
,
1001
0000
0010
0100
1000
0010
0100
0000
0011
0000
1000
0000
0100
0000
0001
0010
,
1100
0000
0010
0100
0001
0000
0100
0000
1010
0000
0100
0000
0001
0000
1000
0000
,
0110
0000
0001
0000
1000
0000
0100
0010
0001
0000
0010
0000
1000
0000
0010
0000
,
1000
0000
0100
0000
0010
0000
0001
0000
1100
0000
0010
0000
0001
0000
0010
0000
0000
0000
0100
0000
0000
0000
0012
0000
0003
0000
1000
0100
0010
0000
0100
0000
,
0010
0000
0001
0000
0100
1000
0010
0100
1001
0000
0000
0000
0010
0000
0000
0000
0101
0000
0000
0000
1000
0000
0000
0000
0110
0000
0000
0000
0001
0000
0000
0000
,
1010
0000
0100
0010
1001
0100
0010
0000
1100
0000
0010
0000
0101
0000
1000
0000
,
0011
0000
0100
0001
1010
0000
0001
0000
1100
0000
0010
0100
1001
0000
0100
0000
,
0011
0000
0100
0010
1001
0100
0010
0001
1100
0000
0010
0000
1001
0000
0100
0000
,
0011
0000
1000
0010
0101
0000
0010
0000
1100
0000
0010
0000
1001
0000
0100
0000
,
0011
0000
1000
0000
0011
0100
1000
0001
0010
0000
1000
0100
0010
0100
0001
0010
,
1100
0011
1100
0011
1100
0000
0010
0000
1001
0000
0010
0000
0101
0000
1000
0000
,
0110
0000
1000
0010
0101
0000
0010
0000
1001
0000
0100
0000
1010
0000
0100
0000
,
0011
0100
1000
0100
0011
0000
1000
0000
0110
0000
0001
0000
1100
0000
0010
0000
,
1001
0000
0010
0100
1001
0000
0010
1000
0101
1000
0010
0000
1100
0000
0011
0000
,
1100
0010
0001
0010
1100
0000
0010
0000
0101
0000
1000
0000
0011
0000
0100
0000
,
1010
0001
0100
0010
1001
0000
0100
0000
1001
0000
0010
0000
1100
0000
0011
0000
,
1100
0010
0001
0010
1100
0000
1100
0000
0011
1100
0011
1100
0011
0000
0011
0000
,
1100
0011
1100
0000
1100
0000
0001
1100
0011
0000
1100
0000
0010
1100
0001
0000
,
1200
0000
0000
0000
0000
0000
0000
0000
0311
0000
0100
0000
2000
3000
0010
0000
0200
0300
0001
0000
0100
0000
0010
0100
1001
0000
0000
0000
0010
0000
0000
0000
,
0101
0000
0010
0000
1100
0000
0001
0000
1010
0000
0100
0010
1001
0000
0100
0000
,
0011
0000
0100
0000
1010
0000
0100
0000
0011
0000
1000
0100
0011
0000
0011
0000
,
1100
0000
0011
0000
0011
1100
0011
0000
1100
0011
1100
0011
1100
0000
0010
0000
,
1001
0000
0100
0000
0011
0000
1000
0000
0011
0000
1100
0011
1100
0010
0001
1100
,
0011
0000
1100
0000
0010
1100
0001
0000
1100
0000
0001
0010
0100
1000
0010
0100
,
0001
0010
1000
0100
0010
0001
0100
0010
1000
0010
0100
0001
1010
0000
0100
0001
,
0100
0000
0010
1000
0100
0001
0010
0000
0200
0000
0000
0000
1301
0000
1001
0000
,
0110
1000
0011
0100
1001
0010
1100
0010
,
1001
0000
0100
0000
0011
0000
1100
0011
1100
0000
0011
0000
0011
0000
0011
0000
,
1100
0000
0000
0000
0000
0000
0011
0000
0000
1100
0000
0000
0011
0000
0000
1100
0000
0000
0011
0000
0000
0000
0000
0000
1100
0000
0000
0000
0000
0000
0000
0000
0000
0000
0000
0000
1001
0000
0000
0000
0000
0000
0000
0000
0010
0000
0000
0000
,
0101
0000
0000
0000
1000
0000
0100
0000
0001
0000
0100
0000
0011
0000
0000
0000
0000
0000
1000
0000
0000
0100
0000
0000
,
0011
0000
1000
0100
0010
0000
0100
0000
0011
0100
1000
0000
0100
1000
0010
0000
,
0101
0000
0010
0100
1000
0000
0100
0000
0011
1000
0001
1000
0001
0010
0100
0010
,
1001
0010
0100
1000
0001
0010
0100
1000
0011
0100
0001
0100
0012
0000
0200
0300
,
2003
3000
0020
0000
0230
0000
1301
0000
;

//---------------dance-single - ----------------
#NOTES:
     dance-single:
     :
     Hard:
     17:
     0.921531,1.111486,0.339147,0.705980,0.577935,932.000000,883.000000,49.000000,102.000000,0.000000,0.000000,0.921531,1.111486,0.339147,0.705980,0.577935,932.000000,883.000000,49.000000,102.000000,0.000000,0.000000:
0000
0000
0000
0000
,
0000
0000
0000
0000
,
0000
0000
0000
0000
,
0000
0000
0000
0000
,
0000
0000
1001
0001
0100
0010
0010
0100
,
0001
0000
1000
0001
0100
0000
0100
0000
0010
0000
1000
0000
0001
0000
0100
0010
,
0100
0000
0001
0000
1000
0000
0010
0000
1000
0000
0010
0000
1000
0001
1000
0001
,
1000
0001
1000
0001
2000
0000
3200
0000
0320
0000
0032
0000
0203
0000
0000
0000
,
0320
0000
1030
0002
0103
0020
1030
0002
,
0103
0200
0301
2000
3010
0200
0310
2000
,
3001
0002
0103
0020
1030
0020
0130
0002
,
0103
0200
0320
2030
3020
0230
0302
0023
,
0230
2300
3010
0010
1000
0001
0010
0100
,
1000
0000
0001
0100
0001
0000
0100
0000
0010
0000
1000
0000
0010
0000
0100
0001
,
0100
0000
0010
0000
1000
0000
0010
0100
0001
0000
0100
0010
0100
0000
0010
0000
,
1000
0000
0001
0100
0001
0000
0001
0000
0100
0000
0000
0000
0011
0000
0000
0000
,
1001
1000
0001
0100
0010
0100
0010
1000
,
0001
0000
0001
0100
0010
0000
0100
0000
1000
0000
0100
0000
0010
0000
0100
0001
,
1000
0000
1000
0010
0100
0000
0001
0000
0100
0001
0100
0000
0010
0000
1000
0000
,
0010
0100
0001
1000
0010
1000
0001
1000
,
0020
0030
0000
0000
0110
0000
0100
0000
0001
0000
1000
0000
0010
0000
0100
0000
,
0010
0000
1000
0001
1000
0000
0010
0000
0100
0000
0010
0000
1000
0000
0001
0000
,
0010
0000
0001
0000
0001
0000
1000
0010
0100
0000
0010
0000
0100
0001
0100
0000
,
0010
1000
0010
1000
0020
0000
2030
0000
3020
0000
0230
0000
0302
0000
2003
0000
,
3002
0003
1001
1000
0020
0130
0101
0001
,
2000
0000
3001
0000
0101
0000
0100
0000
0010
0000
0100
0000
0001
1000
0001
1000
,
0002
0000
0103
0010
1000
0000
0110
0000
,
0010
1000
0010
0100
0001
0000
0101
0000
,
1000
0000
0010
0100
0010
0000
0101
0000
,
0100
0010
2000
0000
0000
3020
0000
0000
,
0230
0000
0301
1000
0010
0000
1010
0000
,
0001
0100
0010
1000
0010
0000
0101
0000
,
0010
0000
1000
0100
0010
0100
0010
0001
,
0020
0031
0000
0000
,
0000
0101
0000
0110
,
0000
1001
1001
1001
,
0000
0000
0110
0010
1000
0010
0200
0301
,
0200
0301
0200
0310
1000
0010
0010
0100
,
0001
0100
0010
1000
0100
0010
0002
1003
,
0002
1003
0002
0103
0010
0100
0100
0001
,
2000
0000
3000
0000
1010
0000
0010
0100
0010
0000
1000
0001
1000
0000
0010
0000
,
0100
0000
0010
0100
0010
0000
1000
0001
1000
0000
0001
0000
0010
0000
0100
1000
,
0100
0000
1000
0000
0001
0000
0010
0001
0010
0000
0001
0000
1000
0001
1000
0000
,
0010
0100
0010
0100
0010
0000
1000
0000
0010
0000
0010
0000
1000
0000
0001
0000
,
0100
0000
1000
0010
1010
1000
0010
0100
,
0101
0001
1000
0010
0110
0100
0001
1000
,
1010
0010
0100
0001
0101
0100
0001
0100
,
0110
0010
1000
0001
1001
1000
0002
0000
,
0013
0100
0010
0100
0020
0000
0230
0000
0320
0000
2030
0000
3001
0000
2000
0000
,
3010
0200
0301
2000
3020
2030
3001
0100
,
0001
1000
2000
0000
0000
3002
0000
0000
,
0203
0000
0000
0000
0310
1000
0010
0000
0100
0000
0001
0100
0010
0000
1000
0000
,
1000
0010
0100
0000
0020
0030
0000
0200
0300
0000
0200
0300
0000
0020
2030
3020
,
2030
3000
0100
0000
0020
0030
0000
0200
0300
0000
0002
0003
0100
0000
0010
0000
,
1000
0001
0100
0000
0020
0030
0000
2000
3000
0000
0200
0300
0000
0020
0230
0320
,
0230
0300
0001
0000
1000
0000
0100
0001
0010
0000
0100
0000
0001
0001
1000
0000
,
0010
0000
0100
0001
0101
0000
0000
0000
0000
0000
0110
0000
0000
0000
0000
0000
,
1010
0000
0100
0010
0100
0001
0100
0010
,
1000
0010
1000
0000
1001
0000
0000
0000
0000
0000
0110
0000
0000
0000
0001
0000
,
0101
0000
1000
0010
0100
0010
1000
0002
,
0203
0300
0110
0000
0000
1010
0000
0000
,
0101
0000
0000
0000
0010
0000
0100
0000
0010
0000
1000
0000
0200
0300
0010
0000
,
0001
0000
1001
0000
0000
0110
0000
0000
,
1010
0100
0010
0001
,
1001
0000
0000
0010
0100
0010
0100
0000
0010
1000
0010
1000
,
0020
0000
0000
0030
0000
0000
0100
0000
0001
0000
0100
0000
0001
0000
0000
0000
0100
0000
0010
0000
0100
0000
0010
0000
,
0200
0000
0000
0300
0000
0000
0010
0000
1000
0000
0010
0000
1000
0000
0000
0000
1000
0000
0001
0000
1000
0000
0001
0000
,
2000
0000
0000
3000
0000
0000
0010
0000
0100
0000
0010
0000
0100
0000
0000
0000
0001
0000
1000
0000
0001
0000
1000
0000
,
0002
0000
0000
0003
0000
0000
1000
0000
0010
0000
1000
0000
0010
0000
0100
0000
0010
0000
0100
0000
0001
0000
0100
0000
,
0010
1000
0010
0100
0001
0100
0001
0100
0010
1000
0010
0100
,
0010
0000
0000
0000
1000
0000
0000
0000
0001
0000
0000
0000
1000
0000
0000
0000
0000
0000
0000
0000
0000
0000
0000
0000
0010
0000
0000
0000
0000
0000
0000
0000
0000
0000
0000
0000
0100
0000
0000
0010
0000
0000
0100
0000
0000
0000
0000
0000
,
0001
0000
0000
0000
2000
0000
0000
0000
0000
0000
0000
0000
3020
0030
0100
0000
,
0002
0003
0000
0000
1010
0000
0010
0000
0100
0000
0001
1000
0001
0000
1000
0000
,
1000
0000
0010
0100
0001
0100
0001
0000
1000
0000
0010
0000
0100
0000
0010
0000
,
1000
0000
0001
0100
0001
0100
0010
0000
1000
0000
0010
0100
0010
0000
0100
0000
,
0001
0000
1000
0010
0100
0001
0100
0000
0001
0000
0100
0000
0010
0000
0100
0000
,
0010
0000
1000
0010
1000
0001
0100
0000
0010
0000
1000
0010
0100
0000
0001
0000
,
0100
0000
0100
0010
0100
0001
1000
0000
0010
0000
0100
0000
0010
0000
1000
0000
,
0001
0000
0100
0001
1000
0000
0001
0000
0100
0000
0001
0000
1000
0000
0100
0000
,
0010
0000
0001
0000
0100
0000
0010
1000
0001
0000
0100
0000
0001
0000
0000
0000
,
0100
0000
0010
0000
0100
0000
0010
0000
0100
0000
0000
0000
0000
0000
0002
0000
0003
0000
2000
0000
3000
0000
0002
0000
0003
0000
0100
0010
0100
0000
0001
0000
,
0000
0200
0000
0000
0310
0000
0100
0000
0010
0000
1000
0000
0010
0000
0100
0000
,
0010
1000
0001
1000
0001
0100
0001
1000
,
0001
0100
0010
1000
1010
0010
0100
0001
,
0101
0100
0001
1000
1001
0001
0100
0010
,
1010
0000
1000
0001
1000
0000
0100
0000
0010
0000
0100
0000
0010
0000
0001
0000
,
1000
0000
0100
0000
0010
0000
0100
0010
0100
0000
1000
0000
0001
0000
1000
0000
,
0010
0100
0010
0100
0010
0000
1000
0000
0010
0000
0100
0000
0001
0000
0100
0000
,
0010
0000
1000
0001
0100
0000
0100
0000
0010
0000
1000
0000
0010
0000
0100
0001
,
0100
0001
1000
0010
0100
0000
0001
0000
0100
0000
0001
0000
1000
0000
0010
0000
,
0100
0000
0100
0010
0100
0000
0001
0000
1000
0000
0010
0000
0010
0000
0100
0001
,
0100
0000
0001
1000
0001
0000
1000
0000
0100
0000
0010
0000
0001
0000
0010
0000
,
0100
1000
0100
0000
1000
0000
0010
0000
0100
0000
0001
0000
0100
0000
0100
0000
,
0010
0000
1000
0001
1000
0000
0001
0000
0100
0010
0100
0010
0100
0000
0010
0000
,
1000
0001
1000
0000
0010
0000
0000
0100
0010
0000
0100
0000
0000
0100
0000
0000
,
0002
0000
0000
0000
0000
0000
0000
0000
0013
0000
1000
0000
0020
0000
0030
0000
0200
0000
0300
0000
0001
0000
0001
1000
0001
0000
0000
0000
0100
0000
0000
0000
,
0010
0000
1000
0000
0010
0000
0100
0000
0001
0000
0100
0010
0100
0000
0001
0000
,
1000
0000
0010
0000
0100
0000
0001
0000
0100
0000
0001
0100
0010
0000
1000
0000
,
0001
0000
1000
0000
0010
0100
0010
0000
1000
0001
1000
0001
1000
0000
0001
0000
,
0010
0000
0001
0000
0100
0000
0010
0000
1000
0000
0001
0100
0001
0000
1000
0010
,
1000
0000
0001
0000
0000
0001
0000
0000
0001
0000
1000
0010
1000
0010
0100
0001
,
0100
0001
1000
0100
1000
0000
1000
0000
0001
0000
0001
0000
0100
0000
0010
0100
,
0001
0000
1000
0010
0100
0001
0100
0000
0020
0000
0000
0000
1030
0000
0001
0000
,
1001
1000
0010
0100
0101
0001
1000
0010
,
0110
0000
0100
0000
0001
0000
0001
1000
0001
0000
0100
0000
0010
0000
0100
0000
,
0001
0000
0000
0000
0000
0000
1000
0000
0000
0010
0000
0000
1000
0000
0000
0010
0000
0000
1000
0000
0000
0000
0000
0000
0001
0000
0000
0000
0000
0000
0000
0000
0000
0000
0000
0000
1001
0000
0000
0000
0000
0000
0000
0000
0010
0000
0000
0000
,
0100
0000
0000
0000
0000
0000
0000
0000
0001
0000
0000
0000
1000
0000
0000
0000
0001
0000
0000
0000
1000
0000
0000
0000
0020
0000
0000
0030
0000
0000
0000
0000
0000
0000
0000
0000
0100
0000
0000
0000
0000
0000
0010
0000
0000
0000
0000
0000
,
1000
0000
0001
0100
0001
0000
0100
0000
1000
0001
1000
0000
0010
0100
0010
0000
,
0100
0000
0001
1000
0001
0000
1000
0000
0001
1000
0001
0100
0001
0100
0010
1000
,
0010
1000
0001
0100
0001
0100
0010
1000
0010
1000
0010
0100
0002
0000
0203
0000
,
0320
0030
2000
3000
0020
0030
1001
0000
;

//---------------dance-single - ----------------
#NOTES:
     dance-single:
     :
     Beginner:
     2:
     0.059326,0.153308,0.020764,0.006921,0.000000,60.000000,57.000000,3.000000,1.000000,0.000000,0.000000,0.059326,0.153308,0.020764,0.006921,0.000000,60.000000,57.000000,3.000000,1.000000,0.000000,0.000000:
0000
0000
0000
0000
,
0000
0000
0000
0000
,
0000
0000
0000
0000
,
0000
0000
0000
0000
,
0000
1000
0000
0000
,
0000
0000
0000
0000
,
0000
0001
0000
0000
,
0000
0000
0000
0000
,
0000
0010
0000
0000
,
0000
0000
0000
0000
,
0000
1000
0000
0000
,
0000
0000
0000
0000
,
0000
0100
0000
0000
,
0000
0000
0000
0000
,
0000
0010
0000
0000
,
0000
0000
0000
0000
,
0000
1000
0000
0000
,
0000
0000
0000
0000
,
0000
0001
0000
0000
,
0000
0000
0000
0000
,
0000
0010
0000
0000
,
0000
0000
0000
0000
,
0000
1000
0000
0000
,
0000
0000
0000
0000
,
0000
0001
0000
0000
,
0000
0000
0000
0000
,
0000
1000
0000
0000
,
0000
0000
0000
0000
,
0000
0010
0000
0000
,
0000
0000
0000
0000
,
0000
1000
0000
0000
,
0000
0000
0000
0000
,
0000
0001
0000
0000
,
0000
0000
0000
0000
,
0000
0100
0000
0000
,
0000
0000
0000
0000
,
0000
1000
0000
0000
,
0000
0000
0000
0000
,
0000
0010
0000
0000
,
0000
0000
0000
0000
,
0000
0001
0000
0000
,
0000
0000
0000
0000
,
0000
1000
0000
0000
,
0000
0000
0000
0000
,
0000
0010
0000
0000
,
0000
0000
0000
0000
,
0000
1000
0000
0000
,
0000
0000
0000
0000
,
0000
0001
0000
0000
,
0000
0000
0000
0000
,
0000
0010
0000
0000
,
0000
0000
0000
0000
,
0000
0100
0000
0000
,
0000
0000
0000
0000
,
0000
1000
0000
0000
,
0000
0000
0000
0000
,
0000
0001
0000
0000
,
0000
0000
0000
0000
,
0000
1001
0000
0000
,
0000
0000
0000
0000
,
0000
1001
0000
0000
,
0000
0000
0000
0000
,
0000
1001
0000
0000
,
0000
0000
0000
0000
,
0000
0001
0000
0000
,
0000
0000
0000
0000
,
0000
0001
0000
0000
,
0000
0000
0000
0000
,
0000
1000
0000
0000
,
0000
0000
0000
0000
,
0000
0001
0000
0000
,
0000
0000
0000
0000
,
0000
1000
0000
0000
,
0000
0000
0000
0000
,
0000
0010
0000
0000
,
0000
0000
0000
0000
,
0000
0001
0000
0000
,
0000
0000
0000
0000
,
0000
1000
0000
0000
,
0000
0000
0000
0000
,
0000
0010
0000
0000
,
0000
1000
0000
0000
,
0000
0000
0000
0000
,
0000
0001
0000
0000
,
0000
0000
0000
0000
,
0000
1000
0000
0000
,
0000
0000
0000
0000
,
0000
0010
0000
0000
,
0000
0000
0000
0000
,
0000
1000
0000
0000
,
0000
0000
0000
0000
,
0000
0001
0000
0000
,
0000
0000
0000
0000
,
0000
0010
0000
0000
,
0000
0000
0000
0000
,
0000
1000
0000
1000
,
0000
0000
0000
0000
,
0000
0000
0000
0001
,
0000
0000
0000
1000
,
0000
0000
0000
1000
,
0000
0000
0000
0010
,
0000
0000
0000
0010
,
0000
0000
0000
0001
,
0000
0000
0000
0000
,
0000
0000
0000
0001
,
0000
0000
0000
0000
,
0000
0000
0000
2000
,
0000
0000
0000
0000
,
0000
0000
0000
0000
,
0000
0000
0000
0000
,
0000
0000
0000
3001
;

//---------------dance-single - ----------------
#NOTES:
     dance-single:
     :
     Easy:
     5:
     0.323327,0.383271,0.041528,0.173034,0.000000,327.000000,321.000000,6.000000,25.000000,0.000000,0.000000,0.323327,0.383271,0.041528,0.173034,0.000000,327.000000,321.000000,6.000000,25.000000,0.000000,0.000000:
0000
0000
0000
0000
,
0000
0000
0000
0000
,
0000
0000
0000
0000
,
0000
0000
0000
0000
,
0000
1000
0001
0100
,
0000
0001
1000
0001
,
0000
0010
0001
1000
,
0010
0200
0000
0000
,
0000
0310
0010
0010
,
0001
1000
0001
1000
,
0010
0100
0001
0100
,
1000
0010
0001
0010
,
0001
1000
1000
1000
,
1000
0001
0100
0001
,
0100
1000
0001
1000
,
0001
0010
0100
0010
,
1000
0001
0001
1000
,
0000
0001
1000
0001
,
0010
1000
0100
1000
,
0001
0010
0100
0010
,
0001
1000
0001
0010
,
0100
0001
1000
0100
,
0010
0001
1000
0001
,
1000
2002
0000
3003
,
0000
0100
0100
0010
,
0010
1000
1000
0001
,
0001
0010
0001
0010
,
0000
1000
0001
1000
,
0000
0010
0100
0010
,
0000
1000
0001
1000
,
0001
0010
0100
0001
,
0000
0010
0100
1000
,
0000
0010
0100
0001
,
0000
0110
0000
0000
,
0000
1001
0000
1001
,
0000
1000
0001
0100
,
0000
1000
0001
1000
,
0000
0010
0100
0010
,
0000
0001
0010
0100
,
0000
0010
1000
0001
,
0000
0100
0001
0010
,
0100
1000
0001
1000
,
0100
0010
0010
0100
,
0010
0200
0000
0000
,
0310
1000
0010
1000
,
0001
1000
0001
0010
,
0100
0010
1000
0001
,
1000
0100
0010
0001
,
0000
0001
0100
1000
,
0001
0100
0001
0100
,
1000
0010
1000
0001
,
0010
0100
1000
0001
,
0001
1000
0000
0000
,
0000
1000
0000
0000
,
0000
0001
0000
0000
,
0000
1000
0000
0000
,
0000
0200
0000
0000
,
0310
0000
0000
0000
,
0000
0002
0000
0000
,
1003
0000
0000
0000
,
0000
2000
0000
0000
,
3100
0000
0000
0000
,
0000
0020
0000
0000
,
0130
0000
0000
0000
,
0000
1000
0001
1000
,
0000
0001
0100
0001
,
0000
0010
0001
0010
,
0000
1000
0100
1000
,
0000
0010
0010
0100
,
0100
0001
0001
1000
,
1000
0002
0000
0000
,
0000
0203
0000
0300
,
0000
1001
0001
0100
,
0001
0200
0000
0001
,
0310
1000
0001
0010
,
0100
2000
0000
0001
,
3010
0001
0100
0001
,
0010
0200
0000
1000
,
0310
0001
1000
0010
,
0100
1000
0010
0001
,
1000
0010
0000
0000
,
0000
1000
0010
1000
,
0001
0020
0000
0130
,
0000
1000
0001
0100
,
0010
2000
0000
3001
,
0100
0010
0100
0001
,
0010
0200
0000
1300
,
0000
0001
0000
0001
,
1000
0002
0000
0013
,
0000
0010
0000
0010
,
1000
0020
0000
0130
,
0000
2000
0000
3100
,
1000
0002
0000
0013
,
0001
2000
0000
3020
,
0000
0230
0000
0302
,
0000
0013
0000
1000
,
0001
1000
0001
0100
,
0001
1000
0100
0001
,
0010
0001
1000
0001
,
1000
0001
0010
0100
,
0010
0100
1000
0001
,
0001
1000
1000
0010
,
0010
0100
0100
0001
,
0000
0001
1000
0001
,
0000
0100
1000
0010
,
0000
0001
0010
0001
,
0000
1000
0001
1000
,
0010
0100
0001
1000
,
0100
1000
0001
0020
,
0000
0000
0000
0130
,
0000
1000
0001
1001
;

//---------------dance-single - ----------------
#NOTES:
     dance-single:
     :
     Medium:
     8:
     0.543822,0.651561,0.532946,0.228405,0.020764,550.000000,473.000000,77.000000,33.000000,0.000000,0.000000,0.543822,0.651561,0.532946,0.228405,0.020764,550.000000,473.000000,77.000000,33.000000,0.000000,0.000000:
// measure 0
0000
0000
0000
0000
,  // measure 1
0000
0000
0000
0000
,  // measure 2
0000
0000
0000
0000
,  // measure 3
0000
0000
0000
0000
,  // measure 4
0000
1000
0001
0100
,  // measure 5
0001
0010
0001
1000
,  // measure 6
0010
0000
0100
0001
0100
0001
0100
0001
,  // measure 7
0100
2000
0000
0000
,  // measure 8
3001
0010
0100
0010
,  // measure 9
1000
0001
0010
0001
,  // measure 10
1000
0010
0100
0001
,  // measure 11
0010
0002
0000
0103
,  // measure 12
1000
0000
0001
1000
0010
0000
0100
0000
,  // measure 13
0001
0010
0100
1000
,  // measure 14
0010
0100
1001
1001
,  // measure 15
1001
0000
0010
0100
0010
0000
1000
0000
,  // measure 16
0001
1000
0001
0000
1001
0000
0010
0000
,  // measure 17
0100
0001
0010
0001
,  // measure 18
1000
0001
0100
0010
,  // measure 19
1000
0000
0001
1000
0001
0100
0001
1000
,  // measure 20
0010
0110
0100
0010
,  // measure 21
1000
0100
0100
1000
,  // measure 22
1000
0101
0101
1010
,  // measure 23
0001
1000
0002
0000
0000
0000
0000
0000
,  // measure 24
1003
0110
0001
1001
,  // measure 25
0100
0000
0101
0000
1000
0000
0001
1000
,  // measure 26
0001
1001
0100
1010
,  // measure 27
0100
0010
0001
1001
,  // measure 28
0010
1000
0001
0110
,  // measure 29
0001
0010
0100
1001
,  // measure 30
1000
0001
0100
0110
,  // measure 31
0001
0010
1000
1001
,  // measure 32
0001
0010
0100
0001
,  // measure 33
1000
0001
0002
0000
,  // measure 34
0000
1003
0000
1001
,  // measure 35
0000
0001
1000
0001
,  // measure 36
0000
1001
0001
0100
,  // measure 37
1000
0001
0010
0001
,  // measure 38
0100
1000
0001
1000
,  // measure 39
0010
0100
0001
0100
,  // measure 40
0010
0101
0100
0011
,  // measure 41
1000
1001
0001
0101
,  // measure 42
0001
1000
0010
0100
,  // measure 43
1000
0001
1000
0010
0100
0001
0100
0010
,  // measure 44
0100
1001
0100
0010
,  // measure 45
0001
1000
0100
0010
,  // measure 46
0001
1000
0001
0000
0100
0000
0100
0000
,  // measure 47
0001
0010
0001
2000
,  // measure 48
3010
1000
0010
0100
,  // measure 49
0001
0010
0100
0001
,  // measure 50
1000
0000
0200
0000
0000
0320
0000
0000
,  // measure 51
0032
0000
1003
0010
1000
0000
0010
0000
,  // measure 52
0001
0100
0001
0000
1000
0000
0001
0000
,  // measure 53
0001
0010
0010
0100
,  // measure 54
0100
1000
1000
0001
,  // measure 55
0001
1000
0001
1001
,  // measure 56
0000
0000
1001
0000
0000
0110
0000
0000
,  // measure 57
1001
0001
1000
0010
,  // measure 58
0100
0000
0101
0000
0000
1010
0000
0000
,  // measure 59
0101
0001
0100
0001
,  // measure 60
1000
0000
0011
0000
0000
1100
0000
0000
,  // measure 61
0011
0001
1000
0100
,  // measure 62
0010
0000
1100
0000
0000
0011
0000
0000
,  // measure 63
1100
1000
0001
1000
,  // measure 64
0001
0202
0303
2002
,  // measure 65
3003
2002
3003
2020
,  // measure 66
3030
2020
3030
0202
,  // measure 67
0303
0202
0303
2002
,  // measure 68
3003
0100
0010
0100
,  // measure 69
0010
1000
0100
0001
,  // measure 70
1000
0001
1000
0002
0000
0000
0000
0000
0000
0000
0000
0000
,  // measure 71
0000
0203
0000
0310
,  // measure 72
0100
0000
0001
0000
1001
0000
0100
0010
,  // measure 73
0100
0000
0001
0000
0101
0000
1000
0001
,  // measure 74
1000
0000
0001
0000
0101
0000
0010
1000
,  // measure 75
0010
0000
1001
0000
0001
0000
0010
1000
,  // measure 76
0010
1000
1001
0010
,  // measure 77
0110
1000
1001
0001
,  // measure 78
1001
0000
1000
0001
1000
0001
0100
0001
,  // measure 79
1000
0010
1000
0010
0100
0010
0100
0000
,  // measure 80
0001
1001
0000
0000
,  // measure 81
0000
1001
0001
0010
,  // measure 82
0001
0000
1000
0001
1000
0001
1000
0000
,  // measure 83
0010
0100
1010
0010
,  // measure 84
0101
0000
0001
0010
0001
0010
0001
0000
,  // measure 85
0110
0000
0001
1000
0001
1000
0010
1000
,  // measure 86
0001
0100
0001
0010
0100
0010
0001
0000
,  // measure 87
0100
0001
1001
1000
,  // measure 88
1001
0000
0010
0100
0010
0100
0010
0000
,  // measure 89
0110
1000
1001
0010
,  // measure 90
0110
0000
0001
1000
0001
1000
0001
0000
,  // measure 91
1001
0010
0110
1000
,  // measure 92
1001
0000
0010
1000
0010
1000
0010
0000
,  // measure 93
0110
0000
0001
0100
0002
0000
1003
0001
,  // measure 94
2000
0000
0000
0000
3001
0000
0000
0001
0000
0000
0100
0000
0000
0100
0000
0000
,  // measure 95
0100
1001
0000
0001
,  // measure 96
1001
0000
0010
0000
0001
1000
0100
0000
,  // measure 97
1100
0000
0001
0000
0010
0000
1000
0001
,  // measure 98
1000
0010
0100
0001
1000
0001
1000
0000
,  // measure 99
1001
0000
0000
0000
0010
0000
0000
0000
0110
0000
0000
0000
0001
0000
0000
1000
,  // measure 100
0000
0000
0001
0000
0000
1000
0000
0000
0001
0000
0000
0000
0001
0000
0010
0000
,  // measure 101
0001
1000
0100
1000
0001
0100
0001
1000
,  // measure 102
0100
0010
0001
1000
0020
0000
0130
0001
,  // measure 103
1000
0010
0110
1000
,  // measure 104
1001
0000
0001
1000
0001
0100
0010
0100
,  // measure 105
0001
1000
0002
0000
1003
0000
0010
0000
,  // measure 106
0110
0000
0001
0000
1001
0000
1000
0001
,  // measure 107
1000
0010
0100
0001
0100
0001
0010
0100
,  // measure 108
0010
0001
1000
0001
0010
0001
0100
0010
,  // measure 109
1000
0100
1000
0010
0100
0001
0020
0000
,  // measure 110
0030
0002
2003
3001
;
