#TITLE:Rain On Me;
#SUBTITLE:;
#ARTIST:Lady Gaga, Ariana Grande;
#TITLETRANSLIT:;
#SUBTITLETRANSLIT:;
#ARTISTTRANSLIT:;
#GENRE:;
#CREDIT:;
#BANNER:AV.avi;
#BACKGROUND:bg.png;
#LYRICSPATH:;
#CDTITLE:;
#MUSIC:audio.ogg;
#OFFSET:-0.085000;
#SAMPLESTART:87.035095;
#SAMPLELENGTH:14.999997;
#SELECTABLE:YES;
#BPMS:0.000000=123.000000
;
#STOPS:
;
#BGCHANGES:0.000=MV.avi=1.400=1=0=1===CrossFade==,
4.000=MV.avi=1.000=0=0=1=====,
99999=-nosongbg-=1.000=0=0=0 // don't automatically add -songbackground-
;
#KEYSOUNDS:;
#ATTACKS:;

//---------------dance-single - ----------------
#NOTES:
     dance-single:
     :
     Beginner:
     2:
     0.065581,0.101412,0.033387,0.000000,0.000000,55.000000,51.000000,4.000000,0.000000,0.000000,0.000000,0.065581,0.101412,0.033387,0.000000,0.000000,55.000000,51.000000,4.000000,0.000000,0.000000,0.000000:
// measure 0
0000
0000
0000
0000
,  // measure 1
0000
0000
0000
0000
,  // measure 2
0000
0000
0000
0000
,  // measure 3
0000
0000
0000
0000
,  // measure 4
0000
0000
0000
1000
,  // measure 5
0000
0000
0000
0000
,  // measure 6
0000
0000
0000
0001
,  // measure 7
0000
0000
0000
0000
,  // measure 8
0000
0000
0000
0100
,  // measure 9
0000
0000
0000
0000
,  // measure 10
0000
0000
0000
0010
,  // measure 11
0000
0000
0000
0000
,  // measure 12
0000
0000
0000
1000
,  // measure 13
0000
0000
0000
0000
,  // measure 14
0000
0000
0000
0100
,  // measure 15
0000
0000
0000
0000
,  // measure 16
0000
0000
0000
0001
,  // measure 17
0000
0000
0000
1000
,  // measure 18
0000
0000
0000
0100
,  // measure 19
0000
0000
0000
0010
,  // measure 20
0000
0000
0000
1000
,  // measure 21
0000
0000
0000
0100
,  // measure 22
0000
0000
0000
0001
,  // measure 23
0000
0000
0000
1000
,  // measure 24
0000
0000
0000
1100
,  // measure 25
0000
0000
0000
0010
,  // measure 26
0000
0000
0000
0001
,  // measure 27
0000
0000
0000
1000
,  // measure 28
0000
0000
0000
0100
,  // measure 29
0000
0000
0000
0010
,  // measure 30
0000
0000
0000
1000
,  // measure 31
0000
0000
0000
0001
,  // measure 32
0000
0000
0000
0101
,  // measure 33
0000
0000
0000
0010
,  // measure 34
0000
0000
0000
1000
,  // measure 35
0000
0000
0000
0010
,  // measure 36
0000
0000
0000
0100
,  // measure 37
0000
0000
0000
0010
,  // measure 38
0000
0000
0000
1000
,  // measure 39
0000
0000
0000
0001
,  // measure 40
0000
0000
0000
0010
,  // measure 41
0000
0000
0000
0001
,  // measure 42
0000
0000
0000
1000
,  // measure 43
0000
0000
0000
0100
,  // measure 44
0000
0000
0000
1010
,  // measure 45
0000
0000
0000
0001
,  // measure 46
0000
0000
0000
0100
,  // measure 47
0000
0000
0000
0100
,  // measure 48
0000
0000
0000
0001
,  // measure 49
0000
0000
0000
1000
,  // measure 50
0000
0000
0000
0010
,  // measure 51
0000
0000
0000
0001
,  // measure 52
0000
0000
0000
1001
,  // measure 53
0000
0000
0000
0010
,  // measure 54
0000
0000
0000
0100
,  // measure 55
0000
0000
0000
0001
,  // measure 56
0000
0000
0000
1000
,  // measure 57
0000
0000
0000
0010
,  // measure 58
0000
0000
0000
0100
,  // measure 59
0000
0000
0000
0001
,  // measure 60
0000
0000
0000
1000
;

//---------------dance-single - ----------------
#NOTES:
     dance-single:
     :
     Challenge:
     15:
     0.685621,0.863778,1.034989,1.385550,0.279614,575.000000,451.000000,124.000000,166.000000,0.000000,38.000000,0.685621,0.863778,1.034989,1.385550,0.279614,575.000000,451.000000,124.000000,166.000000,0.000000,38.000000:
0000
0000
0000
0000
0000
0000
0000
0000
0000
0000
0000
0000
1000
0000
0001
1000
,
0010
0000
0100
0000
0002
0000
0000
0003
0010
0000
0100
0000
2000
0000
0000
0000
,
3200
0000
0000
0000
0000
0000
0000
0000
0000
0300
0000
0000
1000
0000
0001
1000
,
0100
0010
0002
0003
0100
0010
2000
3000
,
0010
0000
0100
0000
0001
0000
0000
0001
0000
0000
0010
0000
1000
0000
0001
1000
,
0100
0001
0020
0030
0010
0100
0002
0000
,
0023
0000
0000
0000
0000
0000
0000
0000
0030
0000
0000
0000
0001
0000
0100
0001
,
0010
0000
0001
0000
0020
0000
0000
0000
1030
0000
0100
0000
0020
0000
0000
0030
,
0010
0000
0100
0000
0001
0000
0010
0100
0010
0000
0100
0000
1000
0000
0000
0100
,
0011
0000
0010
0000
0000
0001
0000
0000
1200
0000
0000
0000
0010
0300
0001
0000
,
0101
0000
0100
0000
0010
0000
0000
0001
1100
0000
0200
0000
0310
0000
0000
0010
,
0101
0000
1000
0000
0000
0100
0000
0000
0120
0000
0000
0000
0000
0030
0100
0000
,
0110
0000
0001
0000
0010
0000
0000
0100
0011
0000
0020
0000
1000
0030
0000
0100
,
0011
0000
0010
0000
0000
0001
0000
0000
0120
0000
0000
0000
0030
0000
0001
0000
,
1100
0000
0010
0000
0001
0000
0000
0010
0101
0000
0200
0000
0001
0300
0000
1000
,
0110
0000
0100
0000
0000
0010
0000
0000
0012
0000
0000
0000
0003
0000
1000
0000
,
0011
0000
0100
0000
0001
0000
0000
0010
0000
0000
0100
0000
0020
0030
0001
0020
,
1130
0000
0020
0030
0000
0000
0002
0000
1100
0000
1003
0000
0200
0300
0010
0200
,
1301
0000
0220
0300
1000
0000
0000
0030
1100
0000
0002
0000
2203
3000
0320
2000
,
3030
0000
2002
3000
0003
0000
0002
0000
0003
0000
0002
0000
2203
3000
0320
2000
,
3030
0000
2002
3000
0003
0000
2002
3000
0003
0000
0200
0300
2000
3100
0010
0001
,
0010
0100
1000
0010
0100
0001
0010
0100
1000
0010
0100
0010
1000
0100
0010
0001
,
0100
0010
0001
0010
0100
1000
0100
0010
1000
0100
0020
0100
0032
0010
0203
1000
,
0310
0001
0020
0100
1030
0100
0020
0001
0130
1000
0100
0010
0102
0000
0000
0003
,
0000
0000
0000
0000
0120
0000
0000
0030
0000
0000
0000
0000
1200
0000
0010
0300
,
1001
0001
1100
2000
3101
0020
1030
0001
,
0110
1000
0011
0200
1310
0001
0110
0100
,
1001
0000
1000
0000
0011
0000
0020
0000
1130
0000
0200
0000
1301
0010
0001
0200
,
0000
0000
0310
0001
0010
2000
0020
0000
3132
0000
0023
0000
1031
0000
1000
0000
,
0110
0001
1100
0020
1031
0200
0311
1000
,
0110
0001
1001
0200
0311
0001
1100
0100
,
1010
0000
0010
0000
0101
0000
2000
0000
3011
0000
0020
0000
1130
0001
0010
0200
,
0000
0000
1300
0100
0010
0002
2000
0000
3023
0000
0230
0000
2300
0000
3000
0000
,
0020
0030
0002
0003
0020
0030
0200
0300
,
0002
0003
2000
3000
0020
0030
0200
0300
,
0002
0003
0200
0300
0020
0030
2000
3000
,
0002
0003
0200
0300
0020
0032
0000
0023
,
0230
0302
0023
0030
2000
3000
0020
0032
,
2003
3200
0320
0032
0023
0230
0300
0200
,
0302
0023
0230
0300
0002
0003
0200
0320
,
2030
0000
3200
0000
0302
0000
0023
0000
0230
0000
0302
0000
2003
3000
0020
2000
,
3132
0000
2203
3000
0320
0000
0030
0000
0101
0000
0000
0000
0200
0300
0002
0200
,
1323
0000
2230
0300
3002
0000
2203
0300
3021
0000
0032
0000
2003
3000
0200
2000
,
3321
0000
2032
3000
0023
1000
0031
0010
0100
1000
0100
0010
1002
0000
0003
0000
,
0000
0000
0021
0030
0020
0100
1031
0100
,
0011
0100
1100
0001
1010
0100
1001
1000
,
0011
0010
1001
0100
0011
2000
3210
0320
,
1031
2000
3110
2000
3011
0200
0321
0032
,
0113
0200
1301
0200
1310
0001
1010
0100
,
1001
1000
0110
0100
0011
0001
1010
0001
,
1100
0010
1001
0100
0011
2000
3210
0320
,
1031
0000
2000
0000
3011
0000
2000
0000
3110
0000
0100
0000
2001
0000
0000
3000
,
0010
0000
0000
0000
1020
0000
0000
0030
0100
0000
0000
0000
1020
0000
1030
0000
,
0101
0010
1010
0001
0110
1000
0011
0100
,
1001
0000
0010
0000
0011
0000
1000
0010
1100
0000
0010
0000
1001
0000
1000
0000
,
0110
0000
0010
0000
0101
0000
1000
0000
1010
0000
0001
0000
0101
0010
1000
0002
,
0000
0003
0010
0100
1001
0020
0000
0030
1100
0000
0001
0000
1010
0000
0001
0000
,
0110
0010
1001
0100
1100
0001
1010
1000
,
0011
0000
0010
0000
0110
0000
1000
0100
1001
0000
0010
0000
1100
0000
0001
0000
,
1010
0100
0011
1000
0110
0010
1002
0000
,
0013
0000
1200
0000
0310
0000
1002
0003
;

//---------------dance-single - ----------------
#NOTES:
     dance-single:
     :
     Hard:
     9:
     0.448336,0.532414,0.250401,0.091814,0.087640,376.000000,346.000000,30.000000,11.000000,0.000000,0.000000,0.448336,0.532414,0.250401,0.091814,0.087640,376.000000,346.000000,30.000000,11.000000,0.000000,0.000000:
0000
0000
0000
0000
,
0000
0000
0000
0000
,
0000
0000
0000
0000
,
0000
0000
0000
0000
,
0000
0000
0000
0000
0000
0000
0000
0000
0000
0000
0000
0000
0001
0000
0000
0001
,
0000
0001
0000
0000
0001
1000
0001
0000
,
0020
0000
0000
0000
0000
0000
0000
0000
0130
0000
0000
0000
1000
0000
0000
1000
,
0000
1000
0001
0000
0100
0001
0100
0000
,
0001
0000
0010
0000
0001
0000
0000
1000
0000
0000
0001
0000
0100
0000
0000
0100
,
0000
0000
0010
0000
0000
0100
0000
0000
0001
0000
0000
0000
1000
0000
0001
0000
,
1000
0000
0100
0000
1000
0000
0000
0001
0000
0000
1000
0000
0100
0000
0000
0100
,
0000
0000
0010
0000
0000
0001
0000
0000
0010
0000
0000
0000
0000
0000
0100
0000
,
1000
0000
0001
0000
1000
0000
0000
0010
0000
0000
0100
0000
0001
0000
0000
0001
,
0000
0000
0010
0000
0000
0100
0000
0000
0010
0000
0000
0000
0000
0000
0001
0000
,
1000
0000
0001
0000
0100
0000
0000
0001
0000
0000
0010
0000
0001
0000
0000
0001
,
0000
0000
0100
0000
0000
0001
0000
0000
0010
0000
0000
0000
0100
0000
1000
0000
,
0001
0000
0100
0000
0010
0000
0000
0001
0000
0000
0010
0000
0100
0000
0000
0100
,
0000
0000
0100
0000
0000
0000
1000
0000
0000
0000
0001
0000
1000
0000
0000
0100
,
0000
0000
0010
0000
0000
0000
0001
0000
0000
0000
1000
0000
0001
0000
0000
0100
,
0000
0000
0010
0000
0000
0000
1000
0000
0000
0000
0001
0000
0010
0000
0000
0100
,
0000
0001
0000
0001
0000
1000
0100
1000
,
1100
0001
0100
0001
0101
0001
0010
0001
,
0011
0001
1000
0001
1001
0010
1000
0100
,
0010
0001
1000
0010
0100
0001
0011
0000
,
0011
0000
0011
0000
0011
0000
1001
0100
,
1000
0001
1000
0001
0010
0001
1000
0100
,
0001
0100
1000
0010
0100
0001
1000
0001
,
0100
1000
0010
1000
0100
0010
0001
1000
,
0001
1000
0100
0010
0001
1000
0010
0100
,
0001
0010
0100
0010
0100
0010
0001
1000
,
0010
0100
0001
0100
0001
0100
0010
1000
,
0001
0010
0100
0010
0100
0010
0001
1000
,
0100
1000
0001
0010
0100
1000
0001
0000
,
0001
1000
1000
0100
,
0100
1000
1000
0001
,
0001
0010
0010
0001
,
0001
0000
1000
0000
1000
0000
0001
0100
,
0001
0100
0002
0000
0013
0000
0100
1000
,
0001
0000
0010
0100
0010
0000
0001
1000
,
0001
1000
0002
0000
0013
0000
0100
0000
,
1000
0000
0001
0100
0001
0000
0010
1000
,
0001
1000
0020
0000
1030
0000
0100
0010
,
0001
1000
0100
0010
0001
0000
0100
1000
,
0001
0100
0020
0000
1030
0000
0011
0000
,
0011
0000
0011
0000
0011
0000
1001
0001
,
0100
0001
0010
0001
1000
0100
1100
0001
,
0010
0100
1100
0000
0001
0100
0010
0000
,
0110
0000
0110
0000
0110
0001
1000
0000
,
1001
0000
1001
0000
1001
0100
0010
0001
,
1000
0010
0100
0001
1000
0100
1000
0001
,
0010
0100
2000
0000
3010
0100
0001
1000
,
0110
0000
0110
0000
0110
0000
0021
0030
,
0001
0000
2001
3000
0001
0000
0110
0100
,
1000
0010
0100
0010
1000
0100
0010
0001
,
1000
0000
0010
0000
0100
0000
0000
0001
0000
0000
0001
0000
0010
0000
0100
0000
,
0001
0010
0100
0001
0010
0100
1000
0001
,
1000
0010
0200
0000
0301
0000
1000
0010
,
0001
0010
1000
0010
0001
0100
1000
0001
,
0100
0000
0010
0000
1000
0000
0000
1000
0000
0000
1000
0000
0010
0000
0100
0000
,
0010
1000
0100
0010
0001
1000
0012
0003
,
0010
0000
1002
0003
1000
0000
0100
0000
;

//---------------dance-single - ----------------
#NOTES:
     dance-single:
     :
     Medium:
     7:
     0.319559,0.405649,0.075120,0.208667,0.000000,268.000000,259.000000,9.000000,25.000000,0.000000,0.000000,0.319559,0.405649,0.075120,0.208667,0.000000,268.000000,259.000000,9.000000,25.000000,0.000000,0.000000:
0000
0000
0000
0000
,
0000
0000
0000
0000
,
0000
0000
0000
0000
,
0000
0000
0000
0000
,
0000
0000
0000
1000
,
0001
0000
1000
0000
0001
0010
0001
0000
,
2000
0000
3000
0001
,
1000
0000
0100
0000
0010
0001
0010
0000
,
0100
2000
0000
3001
,
0001
0001
0001
0100
,
0001
0020
0000
0031
,
0001
1000
0001
0100
,
0001
0020
0000
0130
,
1000
0001
0100
0010
,
1000
0200
0000
1300
,
0100
0010
0100
2000
,
0000
0000
3200
0000
0000
0000
1300
0001
,
1000
0000
0010
0100
0010
0000
0001
0010
,
0100
0002
1003
0010
,
0100
0000
0100
0000
0100
0010
0100
0000
,
0010
0010
0010
2000
,
3001
0000
0002
0000
0013
0000
0100
1000
,
0001
0020
0130
0001
,
1000
1000
1000
2001
,
3001
0000
1002
0000
1003
0000
0100
1000
,
0001
0000
0010
0100
0001
0000
0100
1000
,
0001
0000
0100
0010
0001
0000
0010
1000
,
0001
0000
0010
0100
0001
0000
0100
1000
,
0100
0000
0002
0000
0013
0000
0100
1000
,
0001
0000
0010
0100
0010
0000
0001
0010
,
0100
0000
0001
1000
0010
0000
0001
0010
,
0100
0000
0010
0100
0001
0000
0010
0000
,
1000
0000
0001
0010
0100
0000
2001
0000
,
0010
0001
0100
0010
,
0100
0001
0100
3002
,
0010
0000
0000
0000
0000
0000
0000
0000
0000
0000
0000
0000
0000
0000
0000
0000
0000
0000
0000
0000
0000
0000
0000
0000
0000
0000
0000
0000
0000
0000
0000
0000
0000
0000
0000
0000
0000
0000
0000
0000
0000
0000
0000
0000
0000
0000
0000
0000
1000
0000
0000
0000
0000
0000
0000
0000
0000
0000
0000
0000
0000
0000
0000
0000
0000
0000
0000
0000
0000
0000
0000
0000
0000
0000
0000
0000
0000
0000
0000
0000
0000
0000
0000
0000
0000
0000
0000
0000
0000
0000
0000
0000
0000
0000
0000
0000
0100
0000
0000
0000
0000
0000
0000
0000
0000
0000
0000
0000
0000
0000
0000
0000
0000
0000
0000
0000
0000
0000
0000
0000
0000
0000
0000
0000
0000
0000
0000
0000
0000
0000
0000
0000
0000
0000
0000
0000
0000
0000
0000
0000
0000
0000
0000
0000
0020
0003
0000
0000
0000
0000
0000
0000
0000
0000
0000
0000
0000
0000
0000
0000
0000
0000
0000
0000
0000
0000
0000
0000
0000
0000
0000
0000
0000
0000
0000
0000
0000
0000
0000
0000
0000
0000
0000
0000
0000
0000
0000
0000
0000
0000
0000
0000
,
0100
0001
1000
0031
,
0100
0000
0010
0000
1000
0000
0001
1000
,
0001
0000
1000
0001
1000
0000
0001
0000
,
0010
0000
0100
0000
1000
0000
0010
1000
,
0010
0000
1000
0010
1000
0000
0001
0000
,
0010
0000
0100
0000
1000
0000
0001
1000
,
0001
0000
1000
0001
1000
0000
0100
0000
,
0010
0001
1000
0110
,
0000
0110
0000
0200
,
1300
0000
0002
0000
0013
0000
0100
1000
,
0001
0020
0130
0001
,
1000
0000
1000
0000
1000
0001
1000
0000
,
1000
0000
1000
0000
1000
0100
1000
0000
,
0001
0010
0100
0000
0001
1000
0010
0000
,
0001
0000
0020
0000
0130
0000
0001
1000
,
0100
0100
0100
2001
,
3001
1002
1003
1001
,
0001
1000
0001
0100
0010
0001
1000
0010
,
0100
0001
1000
0000
1000
0000
0010
0000
,
0100
0001
1000
0100
,
0010
0000
0001
0000
1000
0000
0010
1000
,
0001
0010
0100
1000
0001
0100
0010
1000
,
0001
0010
0100
0000
0001
0000
1000
0000
,
0010
1000
0100
0020
,
0130
0200
0310
0110
;

//---------------dance-single - ----------------
#NOTES:
     dance-single:
     :
     Easy:
     4:
     0.166934,0.228178,0.033387,0.033387,0.000000,140.000000,136.000000,4.000000,4.000000,0.000000,0.000000,0.166934,0.228178,0.033387,0.033387,0.000000,140.000000,136.000000,4.000000,4.000000,0.000000,0.000000:
0000
0000
0000
0000
,
0000
0000
0000
0000
,
0000
0000
0000
0000
,
0000
0000
0000
0000
,
0000
0000
0000
2000
,
0000
0000
0000
0000
,
0000
0000
0000
3002
,
0000
0000
0000
0000
,
0000
0000
0000
0000
0000
0003
0100
0000
,
0000
0010
0000
1000
,
0000
0010
0000
1000
,
0000
0100
0000
0010
,
0000
0100
0000
1000
,
0000
0001
0000
0100
,
0000
0010
0000
1000
,
0000
0001
0000
0010
,
0000
0100
0000
1000
,
0000
0001
0000
2000
,
0000
3100
0000
0001
,
0000
0001
0001
0010
,
0000
0010
0010
0001
,
0000
1000
0000
0200
,
0000
0310
0000
1000
,
0000
0001
0001
1000
,
1000
0100
0000
0010
,
1000
0001
0010
0100
,
0000
0001
0000
1000
,
0001
0010
0100
1000
,
0000
0010
0000
0001
,
1000
0100
0010
0001
,
0000
1000
0000
0100
,
1000
0001
1000
0010
,
0000
0100
0000
0001
,
0000
0001
0000
1000
,
0000
1000
1000
0100
,
0000
0100
0000
0010
,
0000
0010
0000
0001
,
0000
0001
0000
1000
,
0000
0100
0000
1000
,
0000
0010
0000
1000
,
0000
0001
0000
0010
,
0000
0100
0000
1000
,
0000
0001
0000
1000
,
0000
0100
0000
0010
,
0000
0100
0000
0001
,
1000
0001
0010
0100
,
0000
1000
0000
0001
,
1000
1000
1000
0001
,
1000
1000
1000
0100
,
0000
0010
0000
0001
,
0000
1000
0000
0100
,
1000
1000
1000
0001
,
0000
0001
0000
0100
,
1000
0001
0000
0100
,
0010
0001
0000
0010
,
1000
0001
0000
0100
,
1000
0001
1001
0001
,
0010
0100
0000
0010
,
1000
0001
0000
0100
,
1000
0001
0000
1100
,
0000
0011
0000
1100
;
