#TITLE:Put Your Hearts Up;
#SUBTITLE:;
#ARTIST:Ariana Grande;
#TITLETRANSLIT:;
#SUBTITLETRANSLIT:;
#ARTISTTRANSLIT:;
#GENRE:;
#CREDIT:;
#BANNER:AV.avi;
#BACKGROUND:BG.png;
#LYRICSPATH:;
#CDTITLE:;
#MUSIC:audio.mp3;
#OFFSET:-0.587000;
#SAMPLESTART:39.191002;
#SAMPLELENGTH:16.000000;
#SELECTABLE:YES;
#DISPLAYBPM:81.000000;
#BPMS:0.000000=81.000000
,19.000000=163.000000
,19.500000=81.000000
,35.750000=57.360001
,36.000000=33.099998
,36.250000=229.600006
,37.000000=81.000000
,46.000000=163.000000
,46.500000=81.000000
,50.500000=163.000000
,52.000000=81.000000
,61.000000=81.400002
,65.000000=81.000000
,130.000000=40.500000
,131.000000=81.000000
,161.250000=81.500000
,163.000000=81.000000
;
#STOPS:19.000000=0.100000,
19.250000=0.100000,
46.000000=0.100000,
46.250000=0.100000,
50.500000=0.180000,
51.000000=0.160000,
51.500000=0.220000
;
#BGCHANGES:0.000=MV.avi=1.200=1=1=1=StretchRewind==CrossFade==,
1.500=MV.avi=1.000=0=0=1=====,
99999=-nosongbg-=1.000=0=0=0 // don't automatically add -songbackground-
;
#KEYSOUNDS:;
#ATTACKS:;

//---------------dance-single - ----------------
#NOTES:
     dance-single:
     :
     Challenge:
     16:
     0.822958,0.765730,1.842358,0.407188,0.817713,863.000000,587.000000,276.000000,61.000000,0.000000,56.000000,0.822958,0.765730,1.842358,0.407188,0.817713,863.000000,587.000000,276.000000,61.000000,0.000000,56.000000:
0000
0000
0000
0000
0000
0000
0000
0000
0000
0000
0001
0010
1000
0100
0010
0001
,
1100
0000
0010
0000
1001
0000
0100
0000
0001
1100
1100
0010
1001
0100
1000
0110
,
0110
0000
0010
0000
1001
0000
0001
0000
0010
1100
1100
0000
1001
0000
0100
0011
,
0011
0100
0010
0100
1001
0000
1000
0100
1000
0011
0011
0000
1001
0000
1000
0201
,
0011
0000
0000
0300
1001
0000
0000
0000
0000
0110
0110
0000
0100
0100
0100
0010
,
0101
1000
0100
0001
0010
1000
0001
0100
0001
0110
0110
1000
0100
0010
0001
1100
,
1100
0010
0100
0001
1000
0100
0010
0001
0010
1100
1100
0010
1000
0001
1000
0110
,
0110
0001
0010
1000
0100
0010
0001
1000
0100
0011
0011
1000
0100
0001
1000
0110
,
0110
0001
0100
0010
1000
0001
0100
0010
0001
0110
0110
1000
0001
1000
0010
0200
,
0000
0000
0000
0000
1301
0100
0010
1000
0001
1100
1100
0010
1000
0001
0100
0011
,
0011
0100
1000
0010
0001
0000
0100
0000
1000
0000
0100
0000
0010
0000
0100
0000
0001
0000
1100
0000
1100
0000
0001
0000
0100
0000
0010
0000
0001
0000
1100
0000
,
1100
0010
0001
0100
1000
0000
0010
0000
1000
0000
0001
0000
1000
0000
0010
0000
0100
0000
0110
0000
0110
0000
1000
0000
0001
0000
1000
0000
0010
0000
1100
0000
,
1100
0001
0010
0100
1000
0000
0001
0000
1000
0000
0010
0000
1000
0000
0001
0000
1000
0000
0110
0000
0110
0000
0000
0000
0110
0000
0000
0000
0110
0000
0000
0000
,
0201
0000
0000
0000
1320
0000
0000
0030
1200
0011
0311
0120
0000
2130
3000
0110
,
0120
0000
0000
0030
1200
0000
0000
0300
0021
1100
1100
0030
1001
0000
1000
0110
,
0110
0001
0010
0100
0011
0000
1000
0100
0001
0110
0110
0000
1001
0000
1000
0201
,
0011
0000
0000
0300
1001
0000
0010
0200
0000
0011
0011
0300
1001
0010
0000
0110
,
0120
0000
0000
0030
1200
0000
0000
0300
0021
1100
1130
0201
0000
1302
0003
0110
,
0120
0000
0000
0030
0201
0000
0000
0300
1200
0011
0011
0300
1010
0000
1000
0110
,
0110
1000
0100
0010
1001
0010
0100
0001
1000
0110
0110
0000
1001
0000
0100
1020
,
1001
0000
0000
0030
1001
0000
0100
0020
0000
1100
1100
0031
1100
0001
0010
1100
,
1100
0000
0010
0000
1001
0000
0201
0000
1000
0311
0011
0100
1001
0010
0100
0011
,
0011
0000
0010
0000
1001
0000
0102
0000
0000
0113
0110
0000
1001
0000
1000
0110
,
0110
0001
1000
0010
0101
0000
1000
0010
1000
0110
0110
0000
1001
0000
0100
0012
,
1100
0000
0000
0003
1010
0000
0100
0020
0000
0101
0101
1030
0100
0010
0001
0010
,
1100
0000
0000
0000
0010
0000
0000
0000
1001
0000
0000
0000
0010
0000
0000
0000
0010
0000
1100
0000
1100
0000
0001
0000
0010
0000
0001
0000
0010
0000
0110
1000
,
0011
0000
1000
0000
1001
0000
0010
0000
0100
0011
0011
0100
1001
0110
1000
0011
,
0011
0000
0000
0000
0010
0000
0000
0000
1001
0000
0000
0000
0010
0000
0000
0000
0010
0000
1100
0000
1100
0000
0010
0000
0100
0000
0010
0000
0001
0000
0110
1000
,
0110
0000
0000
0000
0010
0000
0000
0000
1001
0000
0000
0000
0010
0000
0000
0000
0100
0000
0011
0000
0011
0000
1000
0000
0101
0000
0010
1000
0001
0100
0011
1000
,
0011
0000
0000
0000
1000
0000
0000
0000
0101
0000
0000
0000
0010
0000
0000
0000
0001
0000
1100
0000
1100
0000
0010
0000
1001
0000
0100
0000
0010
0000
1100
0001
,
1100
0000
1000
0000
0101
0000
1000
0000
0010
1100
1100
0010
1001
0110
0001
1100
,
1100
0000
0000
0000
0010
0000
0000
0000
1001
0000
0000
0000
0010
0000
0000
0000
0100
0000
0011
0000
0011
0000
1000
0000
0100
0000
0010
0000
0001
0000
0110
1000
,
0110
0100
1001
0010
2002
0000
3023
0000
,
0231
0000
0000
0300
0021
1100
1130
0210
0000
0312
0003
0110
0210
0000
0000
0300
,
0021
0000
0000
0030
1200
0011
0011
0300
1001
0000
0001
0110
0110
1000
0100
0010
,
1100
0000
0001
0010
1000
0110
0110
0000
1001
0000
0001
1020
1100
0000
1000
0130
,
1001
0010
0100
0020
0000
1100
1100
0031
1010
0100
0001
0110
0210
0000
0000
0300
,
0021
0000
0000
0030
1200
0011
0311
1020
0000
2031
3000
0110
0210
0000
0000
0300
,
1020
0000
0000
0030
0021
1100
1100
0030
0101
0000
0001
0110
0110
0001
0010
0100
,
1001
0100
0010
1000
0001
0110
0110
0000
1001
0000
0010
0201
1001
0000
0000
0300
,
1001
0000
0010
0200
0000
0011
0011
1300
0011
1000
0100
0011
0011
0000
0100
0010
,
1001
0100
1020
0100
0001
1130
1100
0010
1001
0100
0010
1100
1100
0000
0100
0010
,
1001
0100
2010
0100
0001
3110
0110
0001
1010
0000
0001
0110
0110
1000
0001
0100
,
1010
0000
0001
0100
0001
0110
0110
0000
1001
0000
0010
2100
0011
0000
0000
3000
,
0101
0000
0002
0200
0000
1010
1010
1300
0110
1003
0100
1010
1010
0000
1000
0010
,
1001
0010
0100
1000
0001
1100
1100
0001
0100
0000
0010
1100
1100
0000
1000
0010
,
1001
0100
0010
0100
0010
1100
1100
0001
1010
0000
0100
0011
0011
1000
0010
0100
,
1001
0000
1000
0100
0010
1100
1100
0000
0010
0000
1000
0201
0011
0000
0000
0300
,
1001
0000
0000
0000
0010
0000
0200
0000
0000
0000
0011
0000
0011
0000
0300
0000
1001
0000
0000
0000
0000
0000
0000
0000
2000
0000
0000
0020
0000
0000
0000
0000
,
0230
0000
0000
0000
0000
0000
0000
0302
0000
0000
0000
0000
0000
0023
0000
0000
0230
0000
0000
0000
0000
0000
0000
0000
0000
0000
0000
0000
3300
0000
0000
0000
;

//---------------dance-single - Copied from----------------
#NOTES:
     dance-single:
     Copied from:
     Hard:
     11:
     0.485383,0.498763,0.046726,0.387162,0.630807,509.000000,502.000000,7.000000,58.000000,0.000000,0.000000,0.485383,0.498763,0.046726,0.387162,0.630807,509.000000,502.000000,7.000000,58.000000,0.000000,0.000000:
// measure 0
0000
0000
0000
0000
0000
0000
0000
0000
0000
0000
1000
0100
0010
0001
0010
0100
,  // measure 1
0010
0000
0100
0000
1001
0000
0020
0000
0000
0130
0100
1000
0100
0010
0001
0010
,  // measure 2
0100
0000
0010
0000
1001
0000
0020
0000
0000
0130
0100
0000
1000
0000
1000
0100
,  // measure 3
0010
0001
0010
0100
0010
0000
0100
0010
0100
0000
1000
0000
0010
0000
0001
0200
,  // measure 4
0000
0000
0000
0300
0001
0000
0010
0200
0000
0000
0300
0000
0100
0100
0100
0010
,  // measure 5
0001
1000
0010
0000
0100
0000
0100
0010
0100
0010
0000
0002
0000
0000
0003
0000
,  // measure 6
0010
0000
0100
0000
0010
0000
0010
0000
0001
0000
0010
0100
1000
0100
0000
0000
,  // measure 7
1000
0001
0100
0000
0010
1000
0001
1000
0010
0100
0010
0100
0001
0010
0100
1000
,  // measure 8
0100
0010
0100
0010
0100
1000
0100
0001
0100
0010
0001
1000
0100
0000
0010
0000
,  // measure 9
0000
0000
0000
0000
1001
0010
0100
0010
1000
0000
0010
1000
0000
0000
0100
0000
,  // measure 10
1000
0100
0010
0100
0010
0000
0100
0010
0100
1000
0001
0010
0000
0000
1000
0000
,  // measure 11
0000
0000
1000
0010
0100
0001
0010
0100
0010
0100
1000
0100
0010
0000
0001
0000
,  // measure 12
0000
0000
0100
0010
1000
0001
0100
0010
0100
0000
0101
0000
1010
0000
0101
0000
,  // measure 13
0200
0000
0000
0000
0320
0000
0000
0030
0200
0001
0301
0020
0000
2030
3000
0100
,  // measure 14
0200
0000
0000
0300
0002
0000
0000
0003
0200
0001
1000
0300
1000
0000
0010
1000
,  // measure 15
0100
0010
0001
0100
0010
0000
1000
0001
0100
0010
0010
0000
0100
0000
1000
0002
,  // measure 16
0100
0000
0000
0003
0010
0000
0010
0002
0000
0100
0010
0003
0001
0010
0000
0100
,  // measure 17
0200
0000
0000
0300
0002
0000
0000
0003
0200
0010
0310
0002
0000
2003
3000
0100
,  // measure 18
0200
0000
0000
0300
0002
0000
0000
0003
2000
0001
0010
0000
3100
0000
0000
0010
,  // measure 19
0010
0001
0010
0001
1000
0001
0100
0010
1000
0010
0100
0000
1000
0000
0100
0200
,  // measure 20
0010
0000
0000
0300
0100
0000
0100
0200
0000
1000
0010
0301
1000
0100
1000
0100
,  // measure 21
0010
0000
1000
0000
0100
0000
0002
0000
0100
1003
0100
0010
0100
1000
0001
0010
,  // measure 22
0100
0000
1000
0000
0100
0000
2000
0000
0000
3100
0100
0000
0001
0000
1000
0010
,  // measure 23
1000
0001
0010
0100
1000
0000
0100
0010
0100
0000
1000
0000
0100
0000
0010
0002
,  // measure 24
0000
0000
0003
0000
1000
0000
0100
0020
0000
0001
0001
1030
0100
0010
0001
0010
,  // measure 25
0100
0000
0010
0000
0000
0000
0100
0000
0010
0000
0000
1000
0100
0010
0001
0010
,  // measure 26
0100
0000
0010
0000
0000
0000
0010
0000
0100
0000
1000
0100
0010
0001
0010
0100
,  // measure 27
0010
0000
0100
0000
0000
0000
0100
0000
0010
0000
0000
1000
0100
0010
0001
0010
,  // measure 28
0100
0000
0010
0000
0000
0000
0100
0000
0010
0000
0000
1000
0100
0010
0001
0010
,  // measure 29
0100
0000
0010
0000
1000
0000
0100
0000
0010
0000
0001
1000
0100
0010
0001
0010
,  // measure 30
0100
0000
0010
0000
0001
0000
1000
0000
0100
0000
0010
0001
0010
0100
1000
0001
,  // measure 31
1000
0000
0100
0000
0010
0000
0001
0000
0010
0000
1000
0100
0010
0001
1000
0010
,  // measure 32
0100
0010
0100
0001
2000
0000
3020
0000
,  // measure 33
0230
0000
0000
0300
0020
1000
1030
0200
0000
0302
0003
0010
0020
0000
0000
0030
,  // measure 34
2000
0000
0000
3000
0020
1000
0001
0030
0001
0000
0100
0001
0010
0100
1000
0010
,  // measure 35
0100
0000
0001
1000
0010
0100
0100
0000
0010
0000
0001
2000
0010
0000
0000
3000
,  // measure 36
0100
0000
0100
2000
0000
0010
0100
3000
1000
0100
0000
0010
0020
0000
0000
0030
,  // measure 37
2000
0000
0000
3000
0020
0100
0130
2000
0000
3002
0003
0010
0020
0000
0000
0030
,  // measure 38
2000
0000
0000
3000
2000
0001
0100
3000
0010
0000
0001
0010
0100
1000
0100
1000
,  // measure 39
0001
1000
0010
0100
0001
0100
1000
0000
0100
0000
0010
0020
0100
0000
0000
0030
,  // measure 40
0100
0000
0010
0020
0000
0001
0100
1030
0001
0010
0001
0010
0100
0000
0001
0100
,  // measure 41
0010
0001
2000
0001
0010
3100
0010
1000
0010
0000
1000
0000
0010
0000
0001
1000
,  // measure 42
0010
0100
0002
1000
0100
1003
0100
0010
1000
0000
0001
0100
0001
1000
0100
0010
,  // measure 43
0001
0000
0010
0100
0001
0010
0001
0000
0010
0000
1000
0002
0000
0000
0003
0000
,  // measure 44
0001
0000
0010
0200
0000
1000
1000
0301
0010
0100
1000
0100
0010
1000
0100
0010
,  // measure 45
0001
0010
0001
0100
1000
0100
0010
0001
0010
0000
0100
0000
0000
0000
1000
0100
,  // measure 46
0010
0001
0010
0100
1000
0100
0010
0001
0010
0000
0100
0001
0100
0010
1000
0010
,  // measure 47
1000
0000
0010
0100
0010
0000
0001
0000
0010
0000
0100
0002
0000
0000
0000
0003
,  // measure 48
1000
0000
0010
0200
0000
0000
0000
0000
0300
0000
0000
0000
2002
0000
0000
0000
,  // measure 49
0000
0000
0000
0000
0000
0000
0000
0000
0000
0000
0000
0000
0000
3003
0000
0000
;

//---------------dance-single - Copied from Copied f----------------
#NOTES:
     dance-single:
     Copied from Copied f:
     Medium:
     7:
     0.296570,0.298883,0.006675,0.307060,0.066752,311.000000,310.000000,1.000000,46.000000,0.000000,0.000000,0.296570,0.298883,0.006675,0.307060,0.066752,311.000000,310.000000,1.000000,46.000000,0.000000,0.000000:
0000
0000
0000
0000
,
1000
0000
0100
0000
0010
0000
0002
0000
0000
0100
0103
0000
1000
0000
0010
0000
,
0001
0000
0100
0000
0010
0000
0200
0000
0000
0010
0310
0000
0001
0000
1000
0100
,
0010
0000
0000
0000
0001
0000
0010
0100
0010
0000
0000
0000
1000
0000
0100
0010
,
0100
0001
0010
0100
1000
0010
0100
0000
,
1000
0000
0100
0000
0010
0000
0001
0000
0010
0100
0010
0000
1000
0000
0000
0000
,
1000
0000
0100
0000
0010
0000
0001
0000
0010
0100
0001
0000
0100
0000
0000
0000
,
1000
0000
0100
0000
0010
0000
0001
0000
1000
0001
1000
0000
0010
0000
0000
0000
,
0100
0000
0001
0000
1000
0000
0010
0000
0100
0001
0100
0000
0010
0000
1000
0000
,
0000
0000
0001
1000
0100
0010
0001
0010
,
0100
0010
0100
0000
1000
0000
0000
0000
0100
0000
0010
0000
0001
0000
0010
0000
,
1000
0001
1000
0000
0010
0000
0100
0000
0010
0000
0000
0000
1000
0000
0100
0000
,
0010
0001
0010
0100
0001
2000
0000
0000
,
3200
0000
0000
0000
0320
0000
0000
0000
0032
0100
0100
0000
0013
0000
0000
0000
,
2000
0000
0000
0000
3020
0000
0000
0000
0230
0001
0001
0000
0300
0000
0001
0000
,
1000
0000
0100
0000
0010
0000
1000
0000
0100
0001
0001
0000
0100
0000
0000
0000
,
0020
0000
0000
0000
1030
0000
0000
0000
0100
0010
0010
0000
1000
0000
0000
0000
,
0002
0000
0000
0000
0203
0000
0000
0000
0320
1000
1000
0000
0130
0000
0000
0000
,
0200
0000
0000
0000
0302
0000
0000
0000
2003
0010
0010
0000
3100
0000
0000
0000
,
1000
0100
0010
0000
0001
0000
0010
0000
0100
0001
0100
0000
0010
0000
1000
0000
,
0002
0103
2000
3001
,
0100
0000
0010
0000
1000
0000
0002
0000
0000
0003
0100
0000
1000
0000
0010
0000
,
0100
0000
0001
0000
0010
0000
0200
0000
0000
0300
0010
0000
0001
0000
1000
0000
,
0010
0000
0001
0000
0100
0000
1000
0000
0001
0000
0010
0000
0100
0000
0001
2000
,
0000
0000
0000
3000
0001
0000
0000
0000
0100
0000
0010
0000
0100
0000
0000
0000
,
1000
1000
0000
0100
0010
0000
1000
0001
,
0100
0100
0000
0010
0010
1000
0100
0010
,
0001
0001
0000
1000
1000
0000
0100
0010
,
0001
0001
0000
1000
1000
0000
0100
0010
,
0100
1000
0010
0001
0100
0000
1000
0000
,
0100
0010
1000
0001
0100
0000
0001
0000
,
1000
0010
0100
0001
0100
0000
0010
0000
,
1000
0100
0010
0001
2000
0000
3200
0000
,
0320
0230
0302
2003
,
3020
0000
0230
0000
0300
0000
1000
0010
,
0100
0000
0001
0100
0010
0000
0002
0000
,
1003
2000
3001
0020
,
0230
0302
2003
3002
,
0203
0000
0320
0000
1030
0000
0100
0010
,
1000
0001
0100
1000
0010
0100
0002
0000
,
1003
0000
0200
0000
0310
0000
0001
1000
,
1000
0100
0100
0010
0010
0001
0000
0001
,
0001
0010
0010
0100
0100
1000
0010
0000
,
0100
0000
0010
1000
0001
0000
0200
0000
,
0310
0000
0002
0000
1003
0000
0100
1000
,
0100
0010
0001
0010
0100
0010
0000
1000
,
0100
1000
0010
0001
0010
0100
1000
0100
,
0010
0001
0010
1000
0001
0100
0020
0000
,
0130
0001
2000
0000
3001
0000
0220
0000
,
0000
0000
0000
0330
;

//---------------dance-single - Copied from Copied f----------------
#NOTES:
     dance-single:
     Copied from Copied f:
     Easy:
     4:
     0.218375,0.265673,0.100128,0.287034,0.000000,229.000000,214.000000,15.000000,43.000000,0.000000,0.000000,0.218375,0.265673,0.100128,0.287034,0.000000,229.000000,214.000000,15.000000,43.000000,0.000000,0.000000:
0000
0000
0000
0000
,
1000
0000
0010
0000
0100
0001
0100
0000
,
0010
0000
1000
0000
0001
0100
0001
0000
,
1000
0100
0010
0000
0001
0010
0100
0000
,
2002
0000
0000
3003
0000
0000
0000
0000
,
0100
0010
0100
0000
0001
1000
0001
0000
,
1000
0100
0010
0000
0001
0100
0001
0000
,
1000
0010
1000
0000
0100
0001
0100
0000
,
0010
1000
0001
0000
0100
0001
0100
0000
,
0000
0000
1000
0000
0100
0010
0100
0000
,
0001
1000
0001
0000
0100
0010
0100
0000
,
0001
0010
0001
0000
0000
0000
0100
0000
,
0010
1000
0001
0000
0100
0000
0000
0000
,
2001
3000
0210
0300
,
0012
0003
2001
3000
,
0100
0010
0100
0000
1000
0001
1000
0000
,
2002
3003
0000
0100
,
2000
3200
0320
0030
,
0020
0230
2300
3010
,
0100
0001
0100
0000
1000
0001
1000
0000
,
0220
0330
0000
0000
,
0100
0010
0100
0000
0001
0000
0010
0000
,
1000
0001
1000
0000
0100
0000
0010
0000
,
0100
0001
0100
0000
0001
1000
0001
0000
,
2002
3003
0100
0010
,
1000
1000
0000
0100
0100
0000
0010
0001
,
0010
0010
0000
0100
0100
0000
1000
0001
,
1000
1000
0000
0100
0100
0000
0010
0001
,
1000
1000
0000
0100
0100
0000
0010
0000
,
0001
0001
0000
0010
0010
0000
0100
0010
,
1000
1000
0000
0001
0001
0000
0100
0010
,
1000
1000
0000
0001
0001
0000
0100
0010
,
0100
0100
0000
0010
0010
0000
2001
3000
,
0020
0230
0300
0002
,
2003
0000
3020
0000
0030
0000
0100
0001
,
0100
0000
1000
0001
1000
0000
0220
0000
,
0330
0000
1000
0002
,
0203
0320
0030
2000
,
3002
0003
0200
0000
0300
0000
1000
0010
,
1000
0000
0100
0001
0100
0000
2002
0000
,
3003
0000
0000
0100
0010
0000
1000
1000
,
0000
0002
0000
0003
0000
0000
0100
0100
,
0000
0020
0000
0030
0000
0000
1000
0001
,
1000
0000
0100
0001
0100
0000
0210
0000
,
0300
0000
0000
0000
0000
0000
1000
0001
,
0100
0000
1000
0010
1000
0000
0100
0001
,
0100
0000
0010
1000
0010
0000
0100
0001
,
0100
0010
0100
1000
0100
0010
2002
0000
,
0000
3003
0220
0000
0330
0000
2200
0000
,
0000
0000
0000
3300
;

//---------------dance-single - Copied from Copied f----------------
#NOTES:
     dance-single:
     Copied from Copied f:
     Beginner:
     1:
     0.130643,0.149457,0.006675,0.280359,0.000000,137.000000,136.000000,1.000000,42.000000,0.000000,0.000000,0.130643,0.149457,0.006675,0.280359,0.000000,137.000000,136.000000,1.000000,42.000000,0.000000,0.000000:
0000
0000
0000
0000
,
1000
0000
0001
0000
,
1000
0000
0010
0000
,
0100
0000
0001
0000
,
2000
0000
3100
0000
,
1000
0100
0000
0001
,
0100
0010
0000
0010
,
1000
0001
0000
0001
,
0100
0010
0000
0010
,
0000
0000
0000
0010
,
0100
0001
0000
0001
,
1000
0010
0000
0010
,
1000
0001
0000
0000
,
2001
0000
3200
0000
,
0320
0000
0000
0000
0032
0000
0000
0003
,
0100
0100
0010
0010
,
2000
0000
0000
3000
0000
0000
0010
0000
,
0200
0000
0320
0000
,
2030
0000
0000
0000
3002
0000
0000
0003
,
0100
0001
1000
0010
,
2000
0000
0000
3000
0000
0000
0100
0000
,
0010
0000
0010
0000
0002
0000
0000
0003
,
1000
1000
0200
0300
,
0010
0100
0001
1000
,
0020
0030
0002
0003
,
0100
0100
0020
0030
,
1000
1000
0002
0003
,
0100
0100
0020
0030
,
0001
0001
2000
3000
,
0010
0100
0020
0030
,
1000
0001
0200
0300
,
0010
0001
0020
0030
,
1000
0001
2000
3200
,
0000
0320
0000
0032
,
0000
0000
0023
0000
0000
0030
0100
0000
,
0001
1000
0010
0200
,
0000
0302
0000
2003
,
3002
0203
0000
0320
,
2030
0000
3002
0000
0000
0003
0100
0000
,
0010
1000
0001
0200
,
0000
0320
0000
1030
,
0100
0001
0010
1000
,
0100
0010
1000
0001
,
0100
0010
1000
0002
,
0000
0203
0000
0310
,
1000
0001
0100
0010
,
1000
0001
0100
0010
,
1000
0001
0100
0020
,
0000
2030
0000
3002
,
0000
0000
0000
0000
0000
0000
0000
0000
0000
0000
0000
0000
0000
0000
0000
0000
0000
0000
0000
0000
0000
0000
0000
0000
0000
0000
0000
0000
0000
0000
0000
0000
0000
0000
0000
0000
0000
0000
0000
0000
0000
0000
0000
0000
0000
0000
0000
0000
0000
0000
0000
0000
0000
0000
0000
0000
0000
0000
0000
0000
0000
0000
0000
0000
0000
0000
0000
0000
0000
0000
0000
0000
0000
0000
0000
0000
0000
0000
0000
0000
0000
0000
0000
0000
0000
0000
0000
0000
0000
0000
0000
0000
0000
0000
0000
0000
0000
0000
0000
0000
0000
0000
0000
0000
0000
0000
0000
0000
0000
0000
0000
0000
0000
0000
0000
0000
0000
0000
0000
0000
0000
0000
0000
0000
0000
0000
0000
0000
0000
0000
0000
0000
0000
0000
0000
0000
0000
0000
0000
0000
0000
0000
0000
0000
0000
0003
0000
0000
0000
0000
0000
0000
0000
0000
0000
0000
0000
0000
0000
0000
0000
0000
0000
0000
0000
0000
0000
0000
0000
0000
0000
0000
0000
0000
0000
0000
0000
0000
0000
0000
0000
0000
0000
0000
0000
0000
0000
0000
0000
0000
0000
0000
;
