#VERSION:0.83;
#TITLE:Out of Sense;
#SUBTITLE:;
#ARTIST:Sound Souler;
#TITLETRANSLIT:;
#SUBTITLETRANSLIT:;
#ARTISTTRANSLIT:;
#GENRE:;
#ORIGIN:;
#CREDIT:;
#BANNER:AV.avi;
#BACKGROUND:BG.png;
#PREVIEWVID:;
#JACKET:jacket.jpg;
#CDIMAGE:;
#DISCIMAGE:;
#LYRICSPATH:;
#CDTITLE:;
#MUSIC:Out of Sense.ogg;
#OFFSET:-0.014000;
#SAMPLESTART:65.235001;
#SAMPLELENGTH:15.000000;
#SELECTABLE:YES;
#DISPLAYBPM:158.000000;
#BPMS:0.000=158.000,
171.000=320.120,
171.750=40.010,
171.875=158.000,
204.000=316.000,
205.250=47.000,
205.500=316.000,
206.750=46.000,
207.000=316.000,
208.250=46.000,
208.500=316.000,
209.750=42.000,
210.000=316.000,
210.750=60.000,
211.000=316.000,
211.750=60.000,
212.000=316.000,
213.250=49.000,
213.500=316.000,
214.750=47.000,
215.000=316.000,
216.250=46.000,
216.500=316.000,
217.750=43.000,
218.000=316.000,
218.750=60.000,
219.000=316.000,
219.750=61.000,
220.000=316.000,
221.250=48.000,
221.500=316.000,
222.750=47.000,
223.000=316.000,
224.250=47.000,
224.500=316.000,
225.750=43.000,
226.000=316.000,
226.750=59.000,
227.000=316.000,
227.750=61.000,
228.000=316.000,
229.250=47.000,
229.500=316.000,
230.750=47.000,
231.000=316.000,
232.250=47.000,
232.500=316.000,
233.750=47.000,
234.000=316.000,
234.750=56.000,
235.000=158.000;
#STOPS:;
#DELAYS:;
#WARPS:;
#TIMESIGNATURES:0.000=4=4;
#TICKCOUNTS:0.000=4;
#COMBOS:0.000=1;
#SPEEDS:0.000=1.000=0.000=0;
#SCROLLS:0.000=1.000;
#FAKES:;
#LABELS:0.000=Song Start;
#BGCHANGES:0.000=MV.avi=1.200=1=0=1===CrossFade==,
3.000=MV.avi=1.000=0=0=1=====,
99999=-nosongbg-=1.000=0=0=0 // don't automatically add -songbackground-
;
#KEYSOUNDS:;
#ATTACKS:
;

//---------------dance-single - ----------------
#NOTEDATA:;
#CHARTNAME:;
#STEPSTYPE:dance-single;
#DESCRIPTION:;
#CHARTSTYLE:;
#DIFFICULTY:Challenge;
#METER:17;
#RADARVALUES:1.058713,1.373200,1.817318,0.125045,0.775278,889.000000,671.000000,218.000000,15.000000,0.000000,1.000000,0.000000,0.000000,0.000000,1.058713,1.373200,1.817318,0.125045,0.775278,889.000000,671.000000,218.000000,15.000000,0.000000,1.000000,0.000000,0.000000,0.000000;
#CREDIT:;
#DISPLAYBPM:158.000000;
#NOTES:
0000
0000
0000
0000
,
0000
0000
0000
0000
,
1001
0000
0100
0010
0100
1000
0101
0010
0100
0000
0010
0000
1001
0010
0100
1000
,
0100
0000
0011
0100
0010
0000
0100
0010
0101
0000
0010
0100
1010
0001
0010
0100
,
1001
0000
1000
0100
0010
0001
1010
0100
1000
0000
0001
0010
0101
1000
0100
0010
,
0001
0000
1010
0000
0100
0000
1000
0100
1010
0001
0010
0000
1001
0100
0010
0001
,
1010
0000
0000
0100
0010
0000
1001
0010
0100
0000
1000
0100
0011
0000
1000
0000
,
0100
0010
0101
0000
1000
0100
0010
0100
0011
1000
0100
0010
1001
0010
0100
0000
,
1001
0000
0100
1000
0010
0001
1100
0010
0001
0000
0100
0000
1010
0000
0001
0000
,
0100
0001
1010
0001
0010
0100
1000
0000
0011
1000
0100
0010
1001
0010
0100
0010
,
1000
0100
0010
0001
0010
0100
1000
0100
0010
0001
0010
0100
1000
0100
0010
0001
0010
0100
1000
0100
0010
0001
0010
0100
,
1001
0100
1100
0010
1001
0100
0011
1000
,
0101
0010
0101
1000
0110
0001
1100
0001
,
1010
0100
1001
0010
1100
0001
0110
1000
,
0011
1000
0101
0010
1100
0001
1010
0001
,
0110
0100
1010
1000
0011
0100
1001
0010
,
1100
0001
1010
0010
1100
0001
0110
1000
,
0101
1000
0011
0100
1010
0001
0110
1000
,
0011
0000
0100
0000
1010
0000
0001
0000
0011
0000
1000
0001
0110
1000
0001
0000
,
1001
0010
0011
0100
1001
0000
1100
0001
,
1010
0000
1010
0001
0110
1000
0011
1000
,
0101
0010
1001
0100
0011
1000
0110
0001
,
1100
0000
0001
0000
1010
0000
0100
0000
0011
0000
0000
1001
0000
0000
1100
0000
,
0110
0010
0101
0001
1100
0000
1001
0010
,
0101
0000
1001
0100
0011
1000
0110
0001
,
1010
0001
1100
0010
0101
1000
0110
0001
,
1100
0000
0010
0000
0101
0000
1000
0000
1100
0000
0100
0010
1001
0000
0000
0000
,
1002
0010
0100
1000
0000
0000
0103
1000
0200
1000
0010
0001
0010
1000
0310
0001
,
0020
0000
0000
0000
0000
0000
0130
0010
0200
0000
1000
0010
0001
0010
1300
0100
,
2000
0000
0000
0000
0000
0000
3100
0010
0200
0000
0001
0010
1000
0001
0310
0001
,
0020
0000
0000
0000
0000
0000
0130
0010
0200
0000
1000
0010
0001
0010
1300
0000
,
2000
0000
0000
0000
0000
0000
3100
0010
0200
0000
0001
0010
1000
0001
0310
0000
,
0020
0000
0000
0000
0000
0000
0130
0000
0200
0010
1000
0010
0001
0010
1300
0000
,
2000
0000
0010
0100
0000
0100
0001
0010
,
3002
0000
0000
0000
0010
0000
0100
0000
1003
0100
0010
0001
0010
0100
1000
0100
,
0011
0000
0000
0100
1001
0000
0010
0000
1000
0000
1010
0100
0011
0000
1100
0000
,
1100
0000
0000
0010
1001
0000
1000
0000
0100
0000
0011
0100
1001
0000
0110
0000
,
0110
0000
0000
0100
0011
0000
0010
0000
0001
0000
1010
0100
1001
0000
0110
0000
,
0110
0000
0000
0010
1001
0000
0100
0000
0001
0000
1100
0000
0110
0000
1100
0000
,
1100
0000
0001
0010
1001
0000
0010
0000
1000
0000
0110
0001
1100
0000
0011
0000
,
0011
0000
0000
0100
1001
0000
0010
0000
1000
0000
0011
0100
1001
0000
0110
0000
,
0110
0001
1000
0001
1000
0000
0100
0010
0100
0010
1000
0100
0010
0001
0010
0100
,
1000
0100
0010
0001
0100
0010
1000
0100
0010
0001
0010
0100
2000
0000
0000
0000
,
3011
0100
0010
1100
0001
0000
1001
0100
,
0010
0101
1000
0100
1010
0001
0011
0100
,
1100
0010
1000
0011
0100
1000
0011
1000
,
0001
0110
0100
0001
1100
1100
0011
1010
,
1010
0100
0010
1001
0010
0000
0110
1000
,
0100
0011
1000
0100
1010
0001
1010
0100
,
0011
1000
0010
1100
0001
0010
0101
0010
,
1100
1100
0010
1001
0110
0110
1100
0110
,
1001
0000
0000
1010
0000
0000
1001
0000
,
0000
0110
0000
0000
0011
0000
0110
0000
,
0101
0000
0000
1100
0000
0000
0011
0000
,
0000
0110
0000
0000
1001
0000
1001
0000
,
0110
0000
0000
1100
0000
0000
0110
0000
,
0000
1001
0000
0000
0011
0000
0110
0000
,
1001
0000
0000
1100
0000
0000
0110
0000
,
0000
0000
1001
0000
0000
0000
0000
0000
0110
0000
0000
0000
1001
0100
0010
0100
,
0010
0000
0001
0100
1000
0100
0010
0001
1000
0000
0010
0100
1000
0100
0010
0001
,
1000
0000
0011
0000
1100
0000
0011
0000
1100
0000
0010
0100
1000
0001
0010
0001
,
1000
0000
0000
0010
0000
0000
0010
0100
1000
0000
0000
0100
0000
0010
0001
0010
,
0100
1000
0100
0010
0100
0000
0010
0100
0010
0001
1000
0100
0010
0000
0001
0010
,
0100
1000
0100
0010
0001
0000
1000
0100
0010
0000
0010
0100
1000
0100
0010
0001
,
0100
1000
0010
1000
0001
0000
0010
0100
1000
0001
0100
1000
0010
1000
0001
0010
,
0100
0000
0000
0010
0000
0000
1000
0000
0100
1000
0100
0010
0001
0100
0010
0100
,
0010
0000
0000
1000
0000
0000
0010
0000
0000
1000
0001
0010
0100
0010
1100
0000
,
1100
0000
0000
0011
0000
0000
0011
0000
0000
0000
0110
0000
1001
0010
0100
0000
,
1100
0000
0000
1100
0000
0000
1100
0000
0000
0000
1001
0100
1001
0010
0100
0000
,
0110
0000
0000
0110
0000
0000
0110
0000
0000
0010
1001
0100
1001
0010
0000
0000
,
0110
0000
0000
0110
0000
0000
0110
0000
0000
0100
1001
0010
1001
0100
0011
0000
,
1100
0000
0000
1100
0000
0000
1100
0000
0010
0100
1010
0001
1010
0100
1000
0000
,
1100
0000
0000
1100
0000
0000
1100
0000
0000
0100
1001
0010
1001
0100
0010
0000
,
1001
0100
0010
1000
0001
0100
0010
1000
0100
0010
0001
0010
0100
1000
0001
0010
,
0001
0000
1010
0000
1010
0000
0000
1001
0000
0110
0000
0000
1001
0000
0110
0000
;

//---------------dance-single - Copied from----------------
#NOTEDATA:;
#CHARTNAME:Copied from;
#STEPSTYPE:dance-single;
#DESCRIPTION:Copied from;
#CHARTSTYLE:;
#DIFFICULTY:Hard;
#METER:16;
#RADARVALUES:0.612124,0.842646,0.433489,0.141717,0.345957,514.000000,462.000000,52.000000,17.000000,0.000000,0.000000,0.000000,0.000000,0.000000,0.612124,0.842646,0.433489,0.141717,0.345957,514.000000,462.000000,52.000000,17.000000,0.000000,0.000000,0.000000,0.000000,0.000000;
#CREDIT:Copied from;
#DISPLAYBPM:158.000000;
#NOTES:
// measure 0
0000
0000
0000
0000
,  // measure 1
0000
0000
0000
0000
,  // measure 2
0000
0000
0000
0000
,  // measure 3
0000
0000
0000
0000
,  // measure 4
0000
0000
0000
0000
,  // measure 5
0000
0000
0000
0000
,  // measure 6
0000
0000
0000
0000
,  // measure 7
0000
0000
0000
0000
,  // measure 8
0000
0000
0000
0000
,  // measure 9
0000
0000
0000
0000
,  // measure 10
0000
0000
0000
0000
,  // measure 11
1001
0100
0010
0100
1000
0100
0010
0100
,  // measure 12
1000
0100
0010
0100
1000
0100
0010
0100
,  // measure 13
0010
0100
0001
0100
0010
0100
0001
0100
,  // measure 14
0010
0100
0001
0100
0010
0100
0001
0100
,  // measure 15
0110
0001
0010
0100
0010
0001
0010
0100
,  // measure 16
0010
0001
0010
0100
0010
0001
0010
0100
,  // measure 17
1000
0100
0010
0100
1000
0100
0010
0100
,  // measure 18
1000
0100
0010
0001
0010
0100
1000
0100
,  // measure 19
0110
0001
1000
0010
0100
0000
1000
0100
,  // measure 20
0010
0000
0001
0010
0100
0100
1000
0100
,  // measure 21
0010
0010
0001
0010
0100
0100
1000
0100
,  // measure 22
0010
0100
1000
0100
0010
0000
0100
0000
,  // measure 23
0010
0100
0001
0100
0010
0000
0100
1000
,  // measure 24
0100
0000
1000
0100
0010
0001
0010
0000
,  // measure 25
0100
0100
1000
0100
0010
0010
0001
0010
,  // measure 26
0100
1000
0010
1001
,  // measure 27
0200
0000
0000
0000
0000
0000
0310
0100
0020
0000
0000
0000
0000
0000
0031
0010
,  // measure 28
0002
0000
0000
0000
0000
0000
0103
1000
0200
0000
0000
0000
0000
0000
0310
0100
,  // measure 29
0020
0000
0000
0000
0000
0000
0031
1000
0002
0000
0000
0000
0000
0000
0103
0010
,  // measure 30
0200
0000
0000
1300
2000
0000
0000
3100
,  // measure 31
0200
0000
0000
0000
0000
0000
0310
0001
0020
0000
0000
0000
0000
0000
0031
0000
,  // measure 32
0002
0000
0000
0103
0200
0000
0000
1300
,  // measure 33
2000
0000
0100
0001
0000
0001
0100
0100
,  // measure 34
3020
0000
0100
1000
0000
0100
0031
0001
,  // measure 35
0010
0000
0000
0100
0000
0000
0010
0000
1000
0000
0000
0010
0000
0000
0100
0000
,  // measure 36
0001
0000
0000
0010
0000
0000
0100
0000
1000
0000
0000
0010
0000
0000
0001
0000
,  // measure 37
0100
0000
0000
1000
0000
0000
0100
0000
0010
0000
0000
0001
0000
0000
0010
0000
,  // measure 38
0100
0000
0000
0010
0000
0000
0100
0000
0010
0000
0100
0000
1000
0000
0100
0000
,  // measure 39
0010
0000
0000
0001
0000
0000
0010
0000
0100
0000
0000
0100
0000
0000
1000
0000
,  // measure 40
0001
0000
0000
0010
0000
0000
0100
0000
1000
0000
0000
0010
0000
0000
0100
0000
,  // measure 41
0010
0100
0010
0100
0010
0000
0100
0010
0100
0010
0100
0010
0001
0010
0100
1000
,  // measure 42
0200
0000
1300
0100
0010
0100
0020
0000
,  // measure 43
0031
0010
0001
0011
0010
0001
1001
1000
,  // measure 44
0010
1010
0001
0010
0011
1000
1010
1000
,  // measure 45
1010
0010
0100
0110
0010
0100
0011
0100
,  // measure 46
1000
1100
0010
0100
0110
0010
0100
0010
,  // measure 47
0110
0001
0010
0011
0100
1000
1100
0010
,  // measure 48
0100
0110
0001
0010
0011
0001
1001
0001
,  // measure 49
0101
0100
0001
0101
0100
0001
0101
0001
,  // measure 50
0100
0110
0100
0010
1001
0010
0200
0310
,  // measure 51
1001
0000
0000
1010
0000
0000
1001
0000
,  // measure 52
0000
0110
0000
0000
0011
0000
0110
0000
,  // measure 53
0101
0000
0000
1100
0000
0000
0011
0000
,  // measure 54
0000
0110
0000
0000
1001
0000
1001
0000
,  // measure 55
0110
0000
0000
1100
0000
0000
0110
0000
,  // measure 56
0000
1001
0000
0000
0011
0000
0110
0000
,  // measure 57
1001
0000
0000
1100
0000
0000
0110
0000
,  // measure 58
0000
1001
0000
0000
0110
0000
1001
0000
,  // measure 59
1010
0000
1000
0010
1000
0010
1000
0010
1000
0000
0001
1000
0001
1000
0001
1000
,  // measure 60
0001
0000
0010
0000
0100
0000
0010
0000
0100
0000
0001
0010
0001
0010
0001
0010
,  // measure 61
0001
0000
0000
0100
0000
0000
0010
0100
0010
0000
0000
0100
0000
0000
1000
0100
,  // measure 62
0010
0000
0100
0010
0100
0000
0010
0100
0010
0000
0100
0010
0100
0000
0100
0001
,  // measure 63
0100
0000
0010
0100
0010
0000
0100
0010
0100
0000
0001
0010
0100
1000
0100
0010
,  // measure 64
0001
0000
0010
0000
1000
0000
0010
0000
1000
0000
1000
0100
1000
0100
1000
0100
,  // measure 65
0010
0000
0000
0001
0000
0000
0000
0000
1000
0001
1000
0001
1000
0001
1000
0001
,  // measure 66
1000
0000
0000
0000
0000
0000
0000
0000
0010
0100
0010
0100
0010
0000
0110
0000
,  // measure 67
0110
0000
0000
0010
0000
0000
0010
0000
0000
0000
0001
0010
0100
1000
0100
0000
,  // measure 68
0100
0000
0000
0100
0000
0000
0100
0000
0000
0001
0010
0100
1000
0100
0010
0000
,  // measure 69
0010
0000
0000
0010
0000
0000
0010
0000
0000
0000
0001
0010
0100
1000
0100
0000
,  // measure 70
0100
0000
0000
0100
0000
0000
0100
0000
0000
0000
0100
1000
0100
0010
0001
0000
,  // measure 71
0001
0000
0000
0001
0000
0000
0001
0000
0000
0000
0001
0010
0100
1000
0100
0000
,  // measure 72
0100
0000
0000
0100
0000
0000
0100
0000
1000
0100
0010
0001
0010
0100
1000
0000
,  // measure 73
1000
0100
0010
0000
0001
0010
0100
0000
1000
0100
0010
0000
0001
0010
0100
0000
,  // measure 74
0100
0000
0010
0000
0010
0000
0000
0100
0000
0010
0000
0000
0100
0000
0010
0000
;

//---------------dance-single - Copied from Copied f----------------
#NOTEDATA:;
#CHARTNAME:Copied from Copied f;
#STEPSTYPE:dance-single;
#DESCRIPTION:Copied from Copied f;
#CHARTSTYLE:;
#DIFFICULTY:Medium;
#METER:8;
#RADARVALUES:0.488270,0.560826,0.350125,0.016673,0.000000,410.000000,368.000000,42.000000,2.000000,0.000000,0.000000,0.000000,0.000000,0.000000,0.488270,0.560826,0.350125,0.016673,0.000000,410.000000,368.000000,42.000000,2.000000,0.000000,0.000000,0.000000,0.000000,0.000000;
#CREDIT:Copied from Copied f;
#DISPLAYBPM:158.000000;
#NOTES:
0000
0000
0000
0000
,
0000
0000
0000
0000
,
1000
0000
0100
0010
0100
0001
0100
0010
,
0100
0000
1000
0100
0010
0100
1000
0100
,
0010
0000
0001
0100
0010
0100
0001
0100
,
0010
0000
1000
0100
0010
0100
1000
0100
,
0010
0000
0001
0100
0010
0100
0001
0100
,
0010
0000
0100
1000
0100
0010
0100
1000
,
0100
0000
0100
0010
0100
0001
0100
0010
,
0100
0000
0010
1000
0001
1000
0010
0000
,
0002
0000
0000
0000
,
0103
1100
0110
1001
,
0011
0110
1100
1001
,
0110
1100
0110
1001
,
0011
0110
1001
0000
,
0110
1100
0110
0011
,
1010
0101
0110
1100
,
0110
1001
0011
0110
,
0011
1001
0110
1100
,
0100
0010
0100
0010
0100
0000
0001
0100
,
0010
0000
0100
1000
0100
0000
0010
0100
,
0001
0100
0010
0100
0001
0000
1000
0001
,
1000
0000
0100
0010
0100
0000
0000
0000
,
0010
0100
0001
0100
0010
0000
1000
0100
,
0010
0000
0010
0100
0010
0000
0001
1000
,
0010
1000
0001
1000
0010
0000
0100
0010
,
0100
0010
0100
1001
,
0100
0000
0100
0010
0100
0000
0001
0010
,
0001
0000
0100
1000
0100
0000
0010
0100
,
0010
0000
0001
1000
0001
0000
0100
1000
,
0100
0000
0010
0100
0010
0000
0010
0001
,
0010
0000
0100
1000
0100
0000
0001
1000
,
0001
0000
0100
0010
0100
0000
0010
0001
,
0010
0000
0100
1000
0000
0100
1000
0100
,
0010
0000
0010
0001
0000
0010
0001
0100
,
0010
0000
0000
0000
0000
0100
0010
0100
,
0010
0000
1000
0000
0000
0010
0100
0001
,
0100
0000
0010
0000
0000
1000
0100
0010
,
0100
0000
0010
0000
0000
1000
0001
1000
,
0001
0000
0100
0000
0000
0010
0100
0010
,
0100
0000
0001
0000
0000
1000
0100
0010
,
0100
0100
0010
0010
,
0100
0010
0100
0010
0200
0000
0310
0000
,
0000
0000
0000
0000
1000
0000
0100
0010
,
0100
0000
1000
0100
0010
0000
0001
0010
,
0100
1000
0100
0010
0100
0000
1000
0100
,
0010
0001
0010
0100
0010
0000
0100
0000
,
1000
0010
1000
0010
1000
0000
0100
0001
,
0100
0000
1000
0010
1000
0000
0100
0000
,
0100
0010
0100
0010
0100
0000
0001
0100
,
0010
0000
0100
0001
0100
0000
0010
0000
,
1000
0000
0000
0100
0000
0000
1000
0000
,
0000
0100
0000
0000
0010
0000
0010
0000
,
0100
0000
0000
0010
0000
0000
1000
0000
,
0000
0010
0000
0000
0100
0000
0100
0000
,
0010
0000
0000
1000
0000
0000
0010
0000
,
0000
1000
0000
0000
0010
0000
0010
0000
,
1000
0000
0000
0010
0000
0000
0100
0000
,
0000
0010
0000
0000
0100
0000
0100
0000
,
0100
0100
0010
0010
,
1000
1000
0001
0001
,
0100
0100
0010
0010
,
1000
1000
0001
0100
,
1001
0100
0010
1000
,
0011
0100
0010
1000
,
0110
1000
0100
0010
,
1001
0010
0100
0010
,
1010
0000
0100
0010
0100
0010
0100
0000
,
0001
0000
0010
0100
0001
0100
0010
0000
,
1000
0000
0100
1000
0100
0010
0100
0000
,
0010
0000
0001
1000
0010
1000
0001
0000
,
0100
0000
1000
0100
0010
0100
0001
0000
,
0100
0000
0010
1000
0001
1000
0010
0000
,
1100
0011
0110
1001
,
0110
1001
0010
1000
;

//---------------dance-single - Copied from Copied f----------------
#NOTEDATA:;
#CHARTNAME:Copied from Copied f;
#STEPSTYPE:dance-single;
#DESCRIPTION:Copied from Copied f;
#CHARTSTYLE:;
#DIFFICULTY:Easy;
#METER:4;
#RADARVALUES:0.303680,0.311570,0.016673,0.008336,0.000000,255.000000,253.000000,2.000000,1.000000,0.000000,0.000000,0.000000,0.000000,0.000000,0.303680,0.311570,0.016673,0.008336,0.000000,255.000000,253.000000,2.000000,1.000000,0.000000,0.000000,0.000000,0.000000,0.000000;
#CREDIT:Copied from Copied f;
#DISPLAYBPM:158.000000;
#NOTES:
0000
0000
0000
0000
,
0000
0000
0000
0000
,
1000
0100
0010
0010
,
0100
0010
1000
1000
,
0010
0100
0001
0001
,
0100
0010
1000
1000
,
0010
0100
0001
0001
,
0100
0010
1000
1000
,
0010
0100
0001
0001
,
0100
0010
1000
0010
,
0200
0000
0000
0000
,
0310
0010
0010
0010
,
0010
0010
0010
0010
,
0100
0100
0100
0100
,
0100
0100
0100
0100
,
1001
1000
1000
1000
,
1000
1000
1000
1000
,
0100
0100
0100
0100
,
0100
0100
0100
0100
,
0010
0000
0010
0000
0010
0000
0100
0010
,
0100
0001
0001
0001
,
1000
1000
0001
0001
,
0100
0000
0100
0010
0100
0000
0010
0000
,
1000
1000
0001
0001
,
0100
0100
0010
0010
,
1000
0010
0100
0010
,
1000
0010
0100
0001
,
1000
1000
0100
0100
,
0010
0010
0001
0001
,
0100
0100
0010
0010
,
1000
1000
0001
0001
,
0010
0010
0100
0100
,
1000
1000
0100
0100
,
0010
0010
0100
0100
,
0001
0001
0100
0100
,
0010
0000
1000
0000
0000
1000
0010
0000
,
0100
0000
0100
0000
0000
0010
0001
0000
,
0100
0000
0100
0000
0000
0001
1000
0000
,
0100
0000
0100
0000
0000
0010
1000
0000
,
0010
0000
0010
0000
0000
0001
0100
0000
,
0010
0000
0010
0000
0000
0001
1000
0000
,
0100
0100
0010
0010
,
1000
0001
1000
0000
,
0100
0000
0100
0100
,
0100
0010
0100
0100
,
0010
0010
1000
1000
,
0001
1000
0001
0000
,
0100
0010
0100
0100
,
0100
0010
0010
1000
,
0001
0001
0100
0100
,
0010
0010
1000
0010
,
0100
0000
0000
0000
,
0000
0000
0000
0000
,
0010
0000
0000
0000
,
0000
0000
0000
0000
,
1000
0000
0000
0000
,
0000
0000
0000
0000
,
0010
0000
0000
0000
,
0000
0000
0000
0000
,
1000
0100
0010
0000
,
0001
0010
0100
0000
,
1000
1000
0100
0000
,
0010
0100
0010
0100
,
1000
0001
1000
0000
,
0100
0010
0100
0000
,
0001
0001
0001
0000
,
0100
0010
0100
0000
,
1001
0000
0010
0000
0000
0100
0010
0000
,
1000
0000
0010
0000
0000
0100
0010
0000
,
1000
0000
0001
0000
0000
0010
0100
0000
,
0001
0000
0010
0000
0000
1000
0001
0000
,
0100
0000
0010
0000
0000
0100
0010
0000
,
1000
0000
0001
0000
0000
0010
0001
0000
,
0100
0100
1000
1000
,
0010
0010
0100
0001
;

//---------------dance-single - Copied from Copied f----------------
#NOTEDATA:;
#CHARTNAME:Copied from Copied f;
#STEPSTYPE:dance-single;
#DESCRIPTION:Copied from Copied f;
#CHARTSTYLE:;
#DIFFICULTY:Beginner;
#METER:2;
#RADARVALUES:0.190544,0.248422,0.016673,0.091700,0.000000,160.000000,158.000000,2.000000,11.000000,0.000000,0.000000,0.000000,0.000000,0.000000,0.190544,0.248422,0.016673,0.091700,0.000000,160.000000,158.000000,2.000000,11.000000,0.000000,0.000000,0.000000,0.000000,0.000000;
#CREDIT:Copied from Copied f;
#DISPLAYBPM:158.000000;
#NOTES:
0000
0000
0000
0000
,
0000
0000
0000
0000
,
1000
0100
1000
0000
,
0010
0010
0001
0000
,
0100
0100
0010
0000
,
1000
0001
1000
0000
,
0100
0100
0100
0000
,
0010
0010
0010
0000
,
0001
1000
0001
0000
,
0100
0001
0100
0000
,
2000
0000
0000
0000
,
3001
0000
0001
0000
,
0100
0000
0100
0000
,
0010
0000
0010
0000
,
0100
0000
0100
0000
,
0011
0000
0010
0000
,
0100
0000
0100
0000
,
1000
0000
1000
0000
,
0010
0000
0010
0000
,
0100
0000
0100
0000
,
0010
0000
0010
0000
,
1000
0000
1000
0000
,
0010
0010
0010
0000
,
0100
0000
0001
0000
,
1000
0000
0010
0000
,
0100
0000
0010
0000
,
0001
0000
0010
0000
,
2000
0000
3100
0000
,
0020
0000
0031
0000
,
0200
0000
0310
0000
,
0002
0000
1003
0000
,
2000
0000
3100
0000
,
0020
0000
0130
0000
,
2000
0000
0000
3000
,
0002
0000
0000
0003
,
0100
0010
0000
0010
,
0100
1000
0000
0010
,
0100
0001
0000
1000
,
0010
0100
0000
0001
,
0010
0100
0000
0100
,
1000
0010
0000
0001
,
0100
0100
0010
0010
,
1000
1000
0010
0000
,
0000
0000
0100
0000
,
0010
0000
1000
0000
,
0100
0000
0010
0000
,
1000
1000
1000
0000
,
0010
0000
0100
0000
,
0001
0000
0010
0000
,
0100
0000
1000
0000
,
0010
0010
0010
0000
,
0020
0000
0000
0000
,
0000
0000
0000
0000
,
0000
0000
0000
0000
,
0000
0000
0000
0000
,
0032
0000
0000
0000
,
0000
0000
0000
0000
,
0000
0000
0000
0000
,
0000
0000
0000
0000
,
0003
1000
1000
0000
,
0100
0100
0010
0000
,
0001
0000
0001
0000
,
0100
0100
1000
0000
,
0010
0000
0010
0000
,
0100
0100
0100
0000
,
0010
0000
0001
0000
,
1000
1000
1000
0000
,
0010
0000
0010
0010
,
0010
0000
0100
0100
,
0100
0000
1000
1000
,
1000
0000
0010
0010
,
0010
0000
0100
0100
,
0100
0000
0001
0001
,
0001
0000
1000
0000
,
0001
0000
1001
0000
;
