#VERSION:0.83;
#TITLE:One Call Away;
#SUBTITLE:;
#ARTIST:Charlie Puth;
#TITLETRANSLIT:;
#SUBTITLETRANSLIT:;
#ARTISTTRANSLIT:;
#GENRE:;
#ORIGIN:;
#CREDIT:;
#BANNER:AV.avi;
#BACKGROUND:BG.png;
#PREVIEWVID:;
#JACKET:jacket.jpg;
#CDIMAGE:;
#DISCIMAGE:;
#LYRICSPATH:;
#CDTITLE:;
#MUSIC:one call away.mp3;
#OFFSET:-0.098000;
#SAMPLESTART:42.720001;
#SAMPLELENGTH:15.000000;
#SELECTABLE:YES;
#BPMS:0.000=90.960,
62.000=45.480,
64.000=90.960,
128.000=45.480,
144.000=90.960,
176.000=42.960,
177.000=34.960;
#STOPS:;
#DELAYS:;
#WARPS:;
#TIMESIGNATURES:0.000=4=4;
#TICKCOUNTS:0.000=4;
#COMBOS:0.000=1;
#SPEEDS:0.000=1.000=0.000=0;
#SCROLLS:0.000=1.000;
#FAKES:;
#LABELS:0.000=Song Start;
#BGCHANGES:0.000=MV.avi=1.000=1=1=1=StretchRewind==CrossFade==,
99999=-nosongbg-=1.000=0=0=0 // don't automatically add -songbackground-
;
#KEYSOUNDS:;
#ATTACKS:
;

//---------------dance-single - ----------------
#NOTEDATA:;
#CHARTNAME:;
#STEPSTYPE:dance-single;
#DESCRIPTION:;
#CHARTSTYLE:;
#DIFFICULTY:Challenge;
#METER:12;
#RADARVALUES:0.503119,0.619235,0.702932,0.580995,0.362225,491.000000,393.000000,98.000000,81.000000,0.000000,26.000000,0.000000,0.000000,0.000000,0.503119,0.619235,0.702932,0.580995,0.362225,491.000000,393.000000,98.000000,81.000000,0.000000,26.000000,0.000000,0.000000,0.000000;
#CREDIT:;
#NOTES:
0000
0000
0002
0000
,
0023
0000
1000
0001
0230
0000
0000
0000
,
1000
0001
0010
0001
2300
0000
0000
0000
,
3002
0000
0023
0000
,
1030
0000
0010
0100
2000
0000
0001
0000
3020
0000
0000
0000
0000
0000
0000
0000
,
0032
0000
0010
0100
2003
0000
0000
0000
,
0000
0100
0010
0100
3002
0000
0000
0000
,
0203
0000
0010
1000
0302
0000
0000
0000
,
0000
0000
0000
0000
2000
0000
3000
0000
0113
0000
1000
0000
0100
0000
0010
0001
,
1000
0000
0011
0100
1000
0000
0010
0100
0011
0000
0010
0000
0100
0000
1010
0100
,
0001
0000
1100
0000
0010
1001
0000
0000
1010
0000
0100
0000
0010
0000
1000
0001
,
0000
0000
0011
1000
0100
0000
0010
0100
1001
0000
0010
0000
0100
0000
1100
0010
,
0100
0000
1100
0010
0100
1001
0000
0110
1001
0000
0100
0000
0010
0000
0100
0010
,
0000
0000
1001
0100
0000
0000
0010
1000
0011
0000
0100
0000
0010
0000
1001
0010
,
0000
0000
1001
0000
0100
0011
0000
0000
0110
0000
0001
1000
0000
0001
0000
0100
,
0000
0000
0000
0000
0000
0000
0000
0000
0000
0000
0000
0000
0000
0000
0000
0000
0000
0000
0000
0000
0000
0000
0000
0000
1010
0000
0000
0000
0000
0000
0000
0000
0000
0000
0000
0000
0000
0000
0000
0000
0000
0000
0000
0000
0000
0000
0000
0000
0001
0000
0000
0000
0000
0000
0000
0000
0000
0000
0000
0000
0000
0000
0000
0000
0000
0000
0000
0000
0000
0000
0000
0000
0000
0000
0000
0000
0000
0000
0000
0000
0000
0000
0000
0000
0000
0000
0000
0000
0000
0000
0000
0000
0000
0000
0000
0000
1010
0000
0000
0000
0000
0000
0000
0000
0000
0000
0000
0000
0100
0000
0000
0000
0000
0000
0010
0000
0000
0000
0000
0000
0000
0000
0000
0000
0000
0000
0001
0000
0000
0000
0000
0000
0000
0000
0000
0000
0000
0000
0010
0000
0000
0000
0000
0000
0000
0000
0000
0000
0000
0000
0000
0000
0000
0000
0000
0000
0100
0000
0000
0000
0000
0000
0000
0001
0000
0010
0100
0000
1000
0000
0000
0000
0000
0000
0000
0000
0000
0000
0000
0000
0100
0000
0000
0000
0000
0000
0000
0000
0000
0000
0000
0000
,
1001
0000
0100
0000
1000
0000
0100
0010
0100
0000
1001
0000
0010
0000
0100
0000
,
0011
0000
1000
0000
0100
0000
1000
0100
0010
0001
1200
0300
0200
1301
0020
0030
,
1100
0000
0010
0000
0101
0000
1000
0010
1000
0000
0110
0000
0001
0000
0100
0000
,
1001
0000
0010
0000
0100
0000
1000
0100
0010
0001
1010
0100
0000
0101
0000
0000
,
1010
0000
0010
0000
1000
0000
0100
0010
0100
0000
1001
0000
0010
0000
0100
0000
,
1010
0000
0100
0000
1000
0000
0100
0010
0100
0001
0110
0000
1000
0011
1000
0000
,
0110
0000
1000
0000
0100
0000
1000
0100
0010
0000
1001
0000
0100
0000
0010
0000
,
1100
0000
0001
0000
0100
0000
1000
0100
0010
0001
1020
0000
0230
0000
0320
0000
,
1230
0000
0010
0300
0001
0000
0100
0000
0020
0000
1001
0030
0200
0000
0302
0000
,
0110
0000
1000
0000
0010
0003
0100
0010
1000
0001
1200
0000
0320
1001
0230
0000
,
0312
0000
1000
0003
0010
0000
0100
0001
0200
0000
1001
0300
2000
0000
3200
0000
,
0011
0000
0001
0300
1000
0000
1000
0010
1000
0001
2100
0000
3020
0101
2030
0000
,
3012
0000
0203
0000
0010
0300
1000
0010
2000
0000
3011
0000
0200
0000
0302
0000
,
1010
0000
0100
0003
0010
0000
0100
0001
0100
0010
1100
0000
0000
0011
1000
0001
,
1100
0001
0000
0100
0000
0010
0001
1000
0100
0010
1100
0000
0001
0000
1000
0000
,
1010
0100
0000
0001
0000
0100
0010
1000
0001
0100
0011
0000
0100
1010
0001
0000
,
0201
0000
0000
0000
0320
0000
2030
3200
2301
0000
0000
0000
3200
0320
0032
0023
,
1230
0000
0000
0000
0000
0000
0000
0000
2320
0000
0000
0000
3000
0000
0002
0000
2033
0000
0000
0000
0000
0000
0000
0000
3100
0000
1000
0100
0010
0000
0001
0010
,
0200
2300
3200
0320
0230
0320
2030
3002
,
0113
0000
0000
0000
0000
0000
0000
0000
0000
0000
0000
0000
0000
0000
0000
0000
0000
0000
0000
0000
0000
0000
0000
0000
1100
0000
0000
0000
0000
0000
0000
0000
0000
0000
0000
0000
0000
0000
0000
0000
0000
0000
0000
0000
0000
0000
0000
0000
1001
0000
0000
0000
0000
0000
0000
0000
0000
0000
0000
0000
0000
0000
0000
0000
0000
0000
0000
0000
0000
0000
0000
0000
0110
0000
0000
0000
0000
0000
0000
0000
0000
0000
0000
0000
0000
0000
0000
0000
0000
0000
0000
0000
0000
0000
0000
0000
1100
0000
0000
0000
0000
0000
0000
0000
0000
0000
0000
0000
0011
0000
0000
0000
0000
0000
0000
0000
0000
0000
0000
0000
1100
0000
0000
0000
0000
0000
0000
0000
0000
0000
0000
0000
0011
0000
0000
0000
0000
0000
0000
0000
0000
0000
0000
0000
1100
0000
0000
0000
0000
0000
0000
0000
0000
0000
0000
0000
1000
0000
0000
0000
0000
0000
0100
0010
0000
0001
0000
0000
0010
0000
0000
0000
0000
0000
0001
0000
0000
0000
0000
0000
0010
0000
0000
0000
0000
0000
0100
0000
0000
0000
0000
0000
,
0020
0000
1000
0000
0001
0000
0130
0010
0200
0000
1001
0000
0320
0000
0230
0000
,
0011
0000
0010
0300
1001
0000
1001
0000
1001
0010
1100
0000
0010
1001
0100
0000
,
1100
0000
0010
0000
0101
0000
1000
0010
2000
0000
0110
0000
0001
0000
3200
0000
,
1001
0000
0310
0000
0100
0000
1000
0100
0010
0001
1010
0100
1010
0101
0010
0000
,
1001
0000
0010
0000
1000
0000
0100
0010
0200
0000
1001
0000
0320
0000
0230
0000
,
1010
0300
0002
0000
1000
0000
0103
0010
0100
0001
0110
0000
1000
0011
1000
0000
,
0110
0000
1000
0000
0100
0000
1000
0100
0020
0000
1001
0000
0230
0000
0320
0000
,
1100
0030
0002
0000
0100
0000
1000
0103
0010
0001
2010
0000
3200
0000
0302
0000
,
0203
0320
0230
0000
,
0000
0000
0000
0000
0000
0000
0000
0300
0000
0000
0000
0000
0000
0000
0000
0000
;

//---------------dance-single - Copied from----------------
#NOTEDATA:;
#CHARTNAME:Copied from;
#STEPSTYPE:dance-single;
#DESCRIPTION:Copied from;
#CHARTSTYLE:;
#DIFFICULTY:Hard;
#METER:8;
#RADARVALUES:0.367861,0.440588,0.078901,0.265393,0.229529,359.000000,348.000000,11.000000,37.000000,0.000000,0.000000,0.000000,0.000000,0.000000,0.367861,0.440588,0.078901,0.265393,0.229529,359.000000,348.000000,11.000000,37.000000,0.000000,0.000000,0.000000,0.000000,0.000000;
#CREDIT:Copied from;
#NOTES:
// measure 0
0000
0000
0002
0000
,  // measure 1
0023
0000
1000
0001
0230
0000
0000
0000
,  // measure 2
1000
0001
0010
0001
2300
0000
0000
0000
,  // measure 3
3002
0000
0023
0000
,  // measure 4
1030
0000
0010
0100
2000
0000
0001
0000
3020
0000
0000
0000
0000
0000
0000
0000
,  // measure 5
0032
0000
0010
0100
2003
0000
0000
0000
,  // measure 6
0000
0100
0010
0100
3002
0000
0000
0000
,  // measure 7
0203
0000
0010
1000
0302
0000
0000
0000
,  // measure 8
0000
0000
0000
0000
2000
0000
3000
0000
0013
0000
0000
0000
1000
0000
0100
0010
,  // measure 9
0000
0000
0100
1000
0000
0000
0100
0010
0001
0000
0000
0000
0010
0000
0100
0010
,  // measure 10
0000
0000
0100
0000
0000
0010
0000
0000
0100
0000
0000
0000
1000
0000
0010
1000
,  // measure 11
0000
0000
0010
0001
0000
0000
0010
0100
1000
0000
0000
0000
0100
0000
0010
0001
,  // measure 12
0000
0000
0100
0001
0000
1000
0000
1000
0010
0000
0100
0000
0010
0000
0100
0010
,  // measure 13
0000
0000
0001
0010
0000
0000
0100
1000
0100
0000
0010
0000
0100
0000
0001
0100
,  // measure 14
0000
0000
0010
0000
0000
1000
0000
0000
0010
0000
0100
0001
0000
0010
0000
0100
,  // measure 15
0000
0000
0000
0000
1000
0000
0000
0000
0100
0000
0000
0000
0000
0000
0000
0000
0010
0000
0001
0010
0000
0100
0000
0010
0000
0000
0100
0000
1000
0000
0100
0000
,  // measure 16
0110
0000
0001
0000
0010
0000
0100
0010
0200
0000
0010
0000
0301
0000
1000
0000
,  // measure 17
0010
0000
0100
0000
1000
0000
0100
0010
0100
0000
0001
0000
1000
0000
0010
0000
,  // measure 18
0100
0000
0001
0000
0010
0000
0100
0001
0200
0000
0010
0000
0301
0000
0010
0000
,  // measure 19
1000
0000
0100
0000
0010
0000
1000
0010
1000
0000
0001
0100
0000
0000
0010
0000
,  // measure 20
0100
0000
1000
0000
0100
0000
0010
0100
0002
0000
1000
0000
0103
0000
0010
0000
,  // measure 21
1000
0000
0100
0000
1000
0000
0100
0010
0100
0001
0200
0000
0310
0000
0100
0000
,  // measure 22
1000
0000
0100
0000
0010
0000
0100
0001
0200
0000
0010
0000
0301
0000
1000
0000
,  // measure 23
0100
0000
0010
0000
0100
0000
1000
0010
1000
0001
1000
0000
0010
0000
0100
0000
,  // measure 24
1000
0000
0100
0000
0010
0000
0100
0001
0200
0000
0010
0000
0301
0000
1000
0000
,  // measure 25
0100
0000
0010
0000
1000
0000
0100
0010
0100
0001
0200
0000
0310
0000
1000
0000
,  // measure 26
0100
0000
0010
0000
0001
0000
0010
1000
0002
0000
0100
0000
1003
0000
0100
0000
,  // measure 27
0010
0000
1000
0000
0100
0000
0010
0100
0001
0100
0020
0000
1030
0000
0100
0000
,  // measure 28
0010
0000
1000
0000
0100
0000
0010
0100
0002
0000
0100
0000
0013
0000
1000
0000
,  // measure 29
0100
0000
0010
0000
1000
0000
0100
0010
0100
0001
0200
0000
0310
0000
1000
0000
,  // measure 30
0100
0000
0010
0000
0001
0000
0100
0010
0200
0000
0001
0000
0310
0000
1000
0000
,  // measure 31
0010
0000
0100
0000
0001
0000
0001
0100
0010
0100
0002
0000
0103
0000
0010
0000
,  // measure 32
2000
0000
0000
0000
3200
0000
0000
0000
0310
0000
0000
0000
1000
0100
0010
0001
,  // measure 33
0020
0000
0230
0000
0301
0000
0100
0010
,  // measure 34
1000
0100
0010
0100
0010
1000
0010
0100
,  // measure 35
0011
1100
0011
1100
0110
1001
0110
0101
,  // measure 36
1010
0000
0000
0000
0110
0000
0100
0010
0100
0000
0001
0000
1000
0000
0100
0000
,  // measure 37
0010
0000
0001
0000
0010
0000
0100
0010
0100
0001
0200
0000
0310
0000
0001
0000
,  // measure 38
0100
0000
0010
0000
1000
0000
0100
0010
0100
0000
0001
0000
0010
0000
0100
0000
,  // measure 39
1000
0000
0100
0000
0010
0000
1000
0010
1000
0001
2000
0000
3010
0000
0100
0000
,  // measure 40
0010
0000
0001
0000
0010
0000
0100
0010
0100
0000
0010
0000
0001
0000
0010
0000
,  // measure 41
0100
0000
0001
0000
0010
0000
0001
1000
0001
1000
0002
0000
0103
0000
0010
0000
,  // measure 42
1000
0000
0100
0000
0010
0000
1000
0001
1000
0000
0010
0000
0100
0000
0001
0000
,  // measure 43
0100
0000
0010
0000
1000
0000
0100
0010
1000
0010
0100
0000
0010
0000
1000
0000
,  // measure 44
0002
0203
0320
0000
,  // measure 45
0000
0000
0030
0000
;

//---------------dance-single - Copied from Copied f----------------
#NOTEDATA:;
#CHARTNAME:Copied from Copied f;
#STEPSTYPE:dance-single;
#DESCRIPTION:Copied from Copied f;
#CHARTSTYLE:;
#DIFFICULTY:Medium;
#METER:5;
#RADARVALUES:0.189566,0.195817,0.007173,0.114764,0.014346,185.000000,184.000000,1.000000,16.000000,0.000000,0.000000,0.000000,0.000000,0.000000,0.189566,0.195817,0.007173,0.114764,0.014346,185.000000,184.000000,1.000000,16.000000,0.000000,0.000000,0.000000,0.000000,0.000000;
#CREDIT:Copied from Copied f;
#NOTES:
0000
0000
2000
0000
,
0200
3000
0000
0000
0000
0000
0000
0000
0320
0000
0000
0000
0000
0000
0000
0000
,
0000
0000
0230
0000
,
0320
0000
2030
0000
,
0000
3200
0320
0000
,
2030
0000
3020
0000
,
0000
0000
0000
0000
0000
0000
0000
0000
0200
0030
0000
0000
0000
0000
0000
0000
,
0320
0000
2030
0000
,
0000
0000
0000
0000
0000
0000
0000
3000
0100
0000
0000
0000
0010
0000
0000
0000
,
0100
0000
0001
0000
0010
0000
0100
0001
,
0000
0000
0001
0000
0000
0001
0000
0000
0100
0000
0000
0000
1000
0000
0000
0000
,
0010
0000
0100
0000
0001
0000
0100
0010
,
0000
0000
0010
0000
0000
0010
0000
0000
0010
0000
0000
0000
0100
0000
0000
0000
,
0010
0000
1000
0000
0001
0000
0100
1000
,
0000
0000
1000
0000
0000
1000
0000
0000
1000
0000
0000
0000
0100
0000
0000
0000
,
0010
0000
0001
0000
0010
0000
0000
1001
,
0100
0000
0010
0000
1000
0001
1000
0000
,
0010
0000
0100
0000
0100
0010
0100
0000
,
0001
0000
0010
0000
1000
0001
1000
0000
,
0100
0000
0010
0000
1000
0010
1000
0000
,
0100
0000
0001
0000
0010
0001
0010
0000
,
0100
0000
1000
0000
0100
0001
0100
0000
,
0010
0000
1000
0000
0100
0001
0100
0000
,
0010
0000
1000
0000
0100
1000
0100
0010
,
0001
0000
0010
0000
1000
0001
1000
0000
,
0100
0000
0010
0000
0100
0010
0001
0000
,
0100
0000
0010
0000
1000
0001
1000
0000
,
0100
0000
0010
0000
0100
0010
0100
0000
,
1000
0000
0010
0000
0100
1000
0100
0000
,
0010
0000
1000
0000
0001
0100
0001
0000
,
0010
0000
0100
0000
1000
0010
1000
0000
,
0100
0000
0000
0010
0000
0000
0000
0000
1000
0000
0001
0000
1000
0000
0000
0000
,
0001
0100
1000
0000
,
0001
0100
0010
0000
,
1000
1000
1000
0100
,
0100
0010
0010
0010
,
0100
0010
0100
1000
,
0100
0000
0010
0000
1000
0100
0010
0001
,
1000
0001
0100
0010
,
1000
0000
0001
0000
1000
0010
1000
0010
,
0100
0001
1000
0010
,
0100
0000
0001
0000
0100
0010
0100
0001
,
0100
0010
1000
0001
,
0100
0000
0010
0000
0100
1000
0100
0010
,
2000
3200
0320
0000
,
0000
0000
0030
0000
;

//---------------dance-single - Copied from Copied f----------------
#NOTEDATA:;
#CHARTNAME:Copied from Copied f;
#STEPSTYPE:dance-single;
#DESCRIPTION:Copied from Copied f;
#CHARTSTYLE:;
#DIFFICULTY:Easy;
#METER:3;
#RADARVALUES:0.119888,0.114226,0.000000,0.114764,0.000000,117.000000,117.000000,0.000000,16.000000,0.000000,0.000000,0.000000,0.000000,0.000000,0.119888,0.114226,0.000000,0.114764,0.000000,117.000000,117.000000,0.000000,16.000000,0.000000,0.000000,0.000000,0.000000,0.000000;
#CREDIT:Copied from Copied f;
#NOTES:
0000
0000
2000
0000
,
0200
3000
0000
0000
0000
0000
0000
0000
0320
0000
0000
0000
0000
0000
0000
0000
,
0000
0000
0230
0000
,
0320
0000
2030
0000
,
0000
3200
0320
0000
,
2030
0000
3020
0000
,
0000
0000
0000
0000
0000
0000
0000
0000
0200
0030
0000
0000
0000
0000
0000
0000
,
0320
0000
2030
0000
,
0000
0000
0000
0000
0000
0000
0000
3000
0100
0000
0000
0000
1000
0000
0000
0000
,
0001
0000
0010
1000
,
0100
0000
0010
0001
,
1000
0000
0100
1000
,
0001
0000
1000
0001
,
0010
0000
1000
0001
,
0100
0000
0010
0001
,
0010
0000
1000
0000
,
1000
0001
0010
0000
,
0100
0001
1000
0000
,
1000
0001
0010
0000
,
0100
0001
0100
0000
,
1000
0001
1000
0000
,
0010
0100
0001
0000
,
1000
0001
1000
0000
,
0010
0100
0001
0000
,
1000
0010
0001
0000
,
0100
0100
0010
0000
,
1000
0001
1000
0000
,
0010
0001
0100
0000
,
1000
0001
1000
0000
,
0010
0001
0010
0000
,
0100
1000
0100
0000
,
0010
0100
0001
0000
,
1000
0000
0100
0000
,
0001
0000
1000
0000
,
0100
0000
0001
0000
,
1000
0000
1000
0000
,
1000
0000
0001
0000
,
1000
0001
1000
0000
,
0010
0100
0010
0000
,
1000
0001
0100
0000
,
0010
0001
1000
0000
,
0100
1000
0100
0000
,
0010
0100
0001
0000
,
1000
0001
1000
0000
,
2000
3200
0320
0000
,
0000
0000
0030
0000
;

//---------------dance-single - Copied from Copied f----------------
#NOTEDATA:;
#CHARTNAME:Copied from Copied f;
#STEPSTYPE:dance-single;
#DESCRIPTION:Copied from Copied f;
#CHARTSTYLE:;
#DIFFICULTY:Beginner;
#METER:2;
#RADARVALUES:0.082999,0.111716,0.000000,0.000000,0.000000,81.000000,81.000000,0.000000,0.000000,0.000000,0.000000,0.000000,0.000000,0.000000,0.082999,0.111716,0.000000,0.000000,0.000000,81.000000,81.000000,0.000000,0.000000,0.000000,0.000000,0.000000,0.000000,0.000000;
#CREDIT:Copied from Copied f;
#NOTES:
0000
0000
1000
0000
,
0100
0000
0010
0000
,
0000
0000
0001
0000
,
0010
0000
0100
0000
,
0000
0000
1000
0000
,
0001
0000
0001
0000
,
0000
0000
0100
0000
,
1000
0000
0100
0000
,
0000
0000
0001
0000
,
1000
0000
0100
0000
,
0010
0000
0001
0000
,
1000
0000
0100
0000
,
0010
0000
0100
0000
,
0001
0000
1000
0000
,
1000
0000
0100
0000
,
0010
0000
0001
0000
,
1000
0000
0100
0000
,
0010
0000
0001
0000
,
1000
0000
0010
0000
,
0100
0000
0001
0000
,
1000
0000
0100
0000
,
0001
0000
0010
0000
,
0001
0000
1000
0000
,
0100
0000
0010
0000
,
0001
0000
1000
0000
,
0100
0000
0000
0000
,
1000
0000
0001
0000
,
0010
0000
0000
0000
,
0100
0000
0010
0000
,
0001
0000
0000
0000
,
1000
0000
0100
0000
,
0010
0000
0000
0000
,
1000
0100
1000
0000
,
0010
0001
0010
0000
,
0100
0000
0100
0000
,
0001
0001
0001
0000
,
1000
0000
0100
0000
,
0010
0000
0000
0000
,
0001
0000
0100
0000
,
0001
0000
0000
0000
,
1000
0000
0100
0000
,
0010
0000
0000
0000
,
0001
0000
1000
0000
,
0100
0000
0000
0000
,
0010
0010
1000
0000
;
