#VERSION:0.83;
#TITLE:Number One For Me;
#SUBTITLE:;
#ARTIST:Maher Zain;
#TITLETRANSLIT:;
#SUBTITLETRANSLIT:;
#ARTISTTRANSLIT:;
#GENRE:;
#ORIGIN:;
#CREDIT:;
#BANNER:AV.avi;
#BACKGROUND:BG.png;
#PREVIEWVID:;
#JACKET:jacket.PNG;
#CDIMAGE:;
#DISCIMAGE:;
#LYRICSPATH:;
#CDTITLE:;
#MUSIC:audio.mp3;
#OFFSET:-0.307000;
#SAMPLESTART:52.520000;
#SAMPLELENGTH:16.000000;
#SELECTABLE:YES;
#BPMS:0.000=46.010,
8.000=92.020,
168.000=46.010,
176.000=91.020,
178.000=92.020;
#STOPS:;
#DELAYS:;
#WARPS:;
#TIMESIGNATURES:0.000=4=4;
#TICKCOUNTS:0.000=4;
#COMBOS:0.000=1;
#SPEEDS:0.000=1.000=0.000=0;
#SCROLLS:0.000=1.000;
#FAKES:;
#LABELS:0.000=Song Start;
#BGCHANGES:0.000=MV.avi=1.200=1=1=1=StretchRewind==CrossFade==,
1.500=MV.avi=1.000=0=0=1=====,
99999=-nosongbg-=1.000=0=0=0 // don't automatically add -songbackground-
;
#KEYSOUNDS:;
#ATTACKS:
;

//---------------dance-single - ----------------
#NOTEDATA:;
#CHARTNAME:;
#STEPSTYPE:dance-single;
#DESCRIPTION:;
#CHARTSTYLE:;
#DIFFICULTY:Challenge;
#METER:15;
#RADARVALUES:0.739009,1.375564,1.679566,0.980866,0.688622,770.000000,520.000000,250.000000,146.000000,0.000000,114.000000,0.000000,0.000000,0.000000,0.739009,1.375564,1.679566,0.980866,0.688622,770.000000,520.000000,250.000000,146.000000,0.000000,114.000000,0.000000,0.000000,0.000000;
#CREDIT:;
#NOTES:
0000
0000
0000
0000
,
0000
0000
0000
0000
,
1001
0100
0000
0100
1010
0000
0100
0000
0010
0000
0100
0001
1010
0000
0001
0000
,
0100
0100
0000
0100
0011
0000
1000
0010
0000
0010
0000
0010
1100
0000
0001
0000
,
1000
0010
0000
0010
1001
0000
0100
0000
1000
0000
1000
0100
1001
0000
0010
0000
,
0001
0010
0000
0100
0011
0000
1000
0000
0100
0010
0000
1000
0110
1000
0001
0000
,
0110
1000
0001
1000
0110
0000
0010
0000
0100
0000
0010
0001
1100
0000
0100
0000
,
0001
0000
0010
0000
0000
0000
1000
0000
0110
0000
0000
0000
0100
0000
0010
0000
1000
0000
0010
0000
0001
0000
0010
0001
1100
0000
0001
0000
1000
0000
0000
0000
,
0001
0000
0100
0000
0000
0000
0100
0000
1001
0000
0100
0000
0010
0000
0001
0000
0100
0000
0000
0000
0100
0000
0010
0100
1001
0000
0100
0000
0001
0000
0000
0000
,
0010
0010
0000
0010
1001
0000
1000
0100
1001
1001
0110
1100
0011
1100
0011
1010
,
0101
0000
0100
0000
0000
0000
0100
0000
1001
0000
0000
0000
0010
0000
0000
0000
1000
0000
0000
0000
0001
0000
0100
0001
1010
0000
0000
0000
0100
0000
0000
0000
,
0010
0000
0100
0000
0000
0000
0100
0000
1001
0000
0000
0000
0010
0000
1000
0000
0100
0000
1000
0000
0001
0000
1000
0100
0011
0000
0100
0000
0010
0000
1000
0000
,
0100
0000
0001
0000
0000
0000
0001
0000
1010
0000
0000
0000
0100
0000
1000
0000
0010
0000
0000
0000
0010
0000
1000
0010
0101
0000
1000
0000
0100
0000
0000
0000
,
0010
0010
0000
0100
1001
0000
0001
0100
1010
0110
0011
1100
0011
1001
0110
1100
,
2001
0000
0100
0000
0000
0000
0100
0000
0011
0000
0000
0000
0010
0000
0000
0000
0001
0000
0000
0000
0010
0000
0100
0010
3101
0000
0000
0000
0100
0000
0000
0000
,
0010
0000
1000
0000
0000
0000
1000
0000
0110
0000
0000
0000
0001
0000
0100
0000
0000
0000
0100
0000
0010
0000
0100
0001
1010
0000
0000
0000
0001
0000
0000
0000
,
1000
0010
0000
0010
1100
0001
0100
0000
0001
0000
0001
1000
0110
0001
0100
0000
,
0010
0000
0010
0000
0000
0000
0100
0000
1001
0000
0000
0000
1000
0000
0010
0000
1002
0000
0100
0000
0003
0000
0100
0000
1000
0100
0010
0001
0010
0100
1000
0100
,
0011
0002
0123
1230
0302
2013
0101
0010
,
3110
0000
0100
0001
0210
0000
1302
0000
0010
0000
2103
0000
0110
0000
3002
0000
,
1013
0000
0000
0000
2000
0000
0000
0000
3120
0000
0000
0000
0132
0000
0000
0000
0023
0000
0000
0000
2130
0000
0000
0001
3120
0000
0000
0000
1030
0000
0001
0000
,
1200
0000
0000
0000
0300
0000
0000
0000
2010
0000
0000
0000
3120
0000
0000
0000
0132
0000
0000
0000
0010
0000
0100
0010
1103
0000
0110
0000
0011
0000
1100
0000
,
0110
0000
0000
0000
2000
0000
0000
0000
3120
0000
0000
0000
1032
0000
0000
0000
0023
0000
0000
0000
2130
0000
0000
0001
0110
0000
0000
0000
0001
0000
0000
0000
,
3101
0000
0000
0000
0010
0000
0001
0000
2100
0000
0000
0000
3102
0000
0000
0000
1000
0000
0000
0000
0213
0000
0000
1000
0011
0000
0000
0000
2300
0000
0000
0000
,
3011
0000
0000
0000
0002
0000
0000
0000
2103
0000
0000
0000
3210
0000
0000
0000
0320
0000
0000
0000
1032
0000
0000
1000
0123
0000
0000
0000
0130
0000
1000
0000
,
1200
0000
0000
0000
0310
0000
0000
0000
2010
0000
0000
0000
3102
0000
0000
0000
0123
0000
1100
0000
0101
0000
1100
0001
2130
0000
0101
0000
0011
0000
3110
0000
,
0110
0110
0000
0110
0000
0000
1001
0000
0110
0000
1001
0110
0000
0000
0101
0000
,
1100
1100
0000
0011
0000
0000
0110
1001
0000
1001
0000
1001
1100
0000
0110
0000
,
0101
0110
0000
0110
0000
0000
1100
0000
0110
0000
1100
0110
0000
0000
1001
0000
,
0110
0000
0110
0000
0000
0000
1001
0000
0000
0000
0000
0000
0110
0000
0000
0000
1100
0000
0011
0000
0000
0000
0110
0000
0110
1000
0100
0010
0001
0100
0010
0100
,
1002
0000
0200
0320
0030
0020
1100
2030
0213
0000
0000
3000
2300
0000
0020
0000
,
3132
0000
0000
0020
0000
0000
0000
0000
0200
0030
0000
0000
2303
0000
0000
0000
0000
0000
0110
0000
0000
0000
0000
0000
3101
0000
0000
0000
0000
0000
2000
0000
0000
0000
0000
0000
3200
0000
0000
0002
0000
0000
0323
0000
0000
0000
0000
0000
,
2130
0000
0000
3021
0000
0230
2010
3002
1323
0000
2000
3200
2330
0200
0320
0000
,
3132
0200
0000
0000
0000
0000
1310
0000
1103
0110
1001
0011
1100
0110
1010
0110
,
2002
0000
0003
3120
0132
0000
0023
0200
,
2331
0000
0002
0000
0023
0000
0131
0000
0102
0000
3003
0020
2031
0200
3320
0000
,
1230
0000
0000
0002
0300
0003
2001
0002
3223
0300
2000
3232
0003
0002
0320
0000
,
2103
0000
0230
0000
0300
0000
0002
3000
0113
0011
1100
0011
0110
1001
0110
1001
,
0210
0000
0302
1100
1023
0000
1032
0023
,
0231
0000
2000
0000
0000
0000
0012
0003
3011
0000
0020
0000
0300
2030
0000
3000
,
1002
0000
0000
0000
0000
0000
0003
0000
0000
0000
0000
0000
2000
0000
0000
0000
0000
0000
0011
0000
0000
0000
0000
0000
3102
0000
0000
0000
0010
0000
0000
0000
0000
1000
0000
0000
0203
0000
0000
0010
0000
0000
1000
0000
0000
0001
0000
0000
,
2000
0300
0000
0000
0000
0000
0000
0000
,
3011
0110
0000
0110
0101
0000
1001
0000
1100
0000
1100
0011
1001
0000
0110
0000
1001
0110
0000
0110
1001
0000
1100
0011
0000
0011
0000
1100
0011
0000
0110
0000
,
1001
0110
0000
0011
0110
0000
0110
0000
1001
0000
1100
0011
1100
0000
0110
0000
1001
0110
0000
1100
1001
0000
0110
0001
1000
0000
0100
0010
0000
0010
0100
0000
,
0101
0001
2000
0001
3120
0000
1032
0000
0023
0000
2130
0001
0110
0000
0001
0000
,
3110
0000
0001
0000
0010
0000
0001
0000
2100
0000
0000
0000
3102
0000
0010
0000
1000
0000
0010
0000
0213
0000
0000
1000
0011
0000
0000
0000
2300
0000
0000
0000
,
3011
0000
0100
0000
0002
0000
0010
0000
2103
0000
0000
0000
3210
0000
0000
0000
0320
0000
0000
0000
1032
0000
0010
1000
0123
0000
0000
0000
0130
0000
1000
0000
,
1200
0001
0310
0001
2010
0000
3102
0000
2013
0100
0000
0001
3120
1000
0001
0000
,
0231
0000
1302
0123
,
2130
0000
3120
0132
,
2013
0000
3012
0213
,
1302
0000
2103
3120
,
1032
0000
0003
0000
;

//---------------dance-single - Copied from----------------
#NOTEDATA:;
#CHARTNAME:Copied from;
#STEPSTYPE:dance-single;
#DESCRIPTION:Copied from;
#CHARTSTYLE:;
#DIFFICULTY:Hard;
#METER:8;
#RADARVALUES:0.310960,0.419220,0.214984,0.369504,0.040310,324.000000,292.000000,32.000000,55.000000,0.000000,0.000000,0.000000,0.000000,0.000000,0.310960,0.419220,0.214984,0.369504,0.040310,324.000000,292.000000,32.000000,55.000000,0.000000,0.000000,0.000000,0.000000,0.000000;
#CREDIT:Copied from;
#NOTES:
// measure 0
0000
0000
0000
0000
,  // measure 1
0000
0000
0000
0000
,  // measure 2
1000
0001
1000
0010
2000
0000
3010
0000
,  // measure 3
0001
0100
0001
0100
0002
0000
0013
0000
,  // measure 4
1000
0010
1000
0010
0100
0001
1000
0010
,  // measure 5
1000
0100
0010
0001
0020
0000
0031
0000
,  // measure 6
1001
0010
1000
0100
1000
0001
1000
0010
,  // measure 7
0200
0000
0310
1000
0100
1000
0010
1000
,  // measure 8
0002
0000
0013
0010
1000
0100
1000
0010
,  // measure 9
0200
0000
0310
0001
1000
0100
0011
0100
,  // measure 10
2000
0000
3010
0100
0010
0100
0001
0100
,  // measure 11
0020
0000
1030
0001
1000
0100
1000
0010
,  // measure 12
0200
0000
0310
1000
0001
0010
0001
0010
,  // measure 13
0002
0000
0013
0100
1000
0010
0100
0001
,  // measure 14
2010
0000
0010
0000
0001
0000
3010
0100
,  // measure 15
0020
0000
1030
0001
0020
0000
0031
1000
,  // measure 16
0200
0000
1300
0010
0200
0000
0310
1000
,  // measure 17
0002
0000
0013
0100
1000
0010
0100
0001
,  // measure 18
0021
0100
0031
0000
2010
0001
3100
0000
,  // measure 19
0010
1000
0001
1000
0020
0000
0130
0000
,  // measure 20
1000
0001
1000
0100
0010
0001
0010
0100
,  // measure 21
2000
0000
3010
1000
0002
0000
0013
0000
,  // measure 22
0110
1000
0001
1000
0100
1000
0020
0000
,  // measure 23
1030
1000
0100
0010
0002
0000
0013
0000
,  // measure 24
1000
0010
0100
0001
1000
0100
0010
0001
,  // measure 25
0020
0000
0031
0010
0011
0000
1100
0000
,  // measure 26
1001
0000
0100
0000
0100
0000
0000
0100
0000
0000
0100
0000
0100
0000
0010
0000
,  // measure 27
0100
1000
0000
1000
0000
0000
0001
0010
0000
0010
0000
0010
0001
0000
0010
0000
,  // measure 28
0001
0010
0000
0010
0000
0000
0100
0000
1000
0000
1000
0100
0000
0000
0010
0000
,  // measure 29
1000
0010
0000
0010
0000
0000
1000
0000
0001
1000
0001
0000
1000
0000
0010
0000
,  // measure 30
0210
0010
0001
0310
,  // measure 31
1002
0010
1000
0103
,  // measure 32
2010
3001
0120
0130
,  // measure 33
2001
0000
3100
0000
0010
1000
0001
1000
,  // measure 34
0002
0013
2010
3010
,  // measure 35
0120
0000
0130
0000
1000
0100
1000
0010
,  // measure 36
1002
1003
0210
0310
,  // measure 37
2010
0000
3010
0000
0001
1000
0001
1000
,  // measure 38
0002
0013
2010
3010
,  // measure 39
0120
0130
1002
1003
,  // measure 40
1200
0000
1300
0000
0010
1000
0001
1000
,  // measure 41
0200
0000
0000
0300
,  // measure 42
2000
3010
0001
1001
0010
0110
1000
1100
,  // measure 43
0010
0110
0001
0011
2001
3001
0110
0000
,  // measure 44
1010
0010
1000
0010
0200
0000
0310
0000
,  // measure 45
0001
1000
0001
1000
0020
0000
1030
0000
,  // measure 46
1000
0010
1000
0001
0020
0000
0130
0000
,  // measure 47
0001
1000
0010
1000
0002
0000
0013
0000
,  // measure 48
2010
0000
3200
0000
,  // measure 49
0320
0000
0032
0000
,  // measure 50
2003
0000
3020
0000
,  // measure 51
0230
0000
0302
0000
,  // measure 52
1003
0000
0000
0000
;

//---------------dance-single - Copied from Copied f----------------
#NOTEDATA:;
#CHARTNAME:Copied from Copied f;
#STEPSTYPE:dance-single;
#DESCRIPTION:Copied from Copied f;
#CHARTSTYLE:;
#DIFFICULTY:Medium;
#METER:5;
#RADARVALUES:0.182353,0.211121,0.020155,0.450124,0.000000,190.000000,187.000000,3.000000,67.000000,0.000000,0.000000,0.000000,0.000000,0.000000,0.182353,0.211121,0.020155,0.450124,0.000000,190.000000,187.000000,3.000000,67.000000,0.000000,0.000000,0.000000,0.000000,0.000000;
#CREDIT:Copied from Copied f;
#NOTES:
0000
0000
0000
0000
,
0000
0000
0000
0000
,
1000
0000
0100
0000
1000
0010
1000
0000
,
0010
0000
0100
0000
0001
1000
0001
0000
,
0010
0000
0001
0000
0010
0100
0010
0000
,
0001
0000
1000
0000
0010
1000
0010
0000
,
2000
3010
0020
0130
,
0002
0000
1003
0000
1000
0001
1000
0000
,
0020
1030
2000
3100
,
0020
0000
1030
0000
0001
1000
0001
0000
,
0020
0031
0020
1030
,
2000
0000
3001
0000
0010
0100
0010
0000
,
2000
3100
0020
1030
,
0002
0000
1003
0000
1000
0100
1000
0000
,
0020
1000
0100
1030
,
0001
1000
0001
0000
0020
0000
0031
0000
,
0010
1000
0010
0000
0200
0000
0310
0000
,
0002
1003
0020
1030
,
1001
0000
0100
1000
0020
0000
1030
0000
,
0001
1000
0010
0000
2000
0000
3001
0000
,
0020
0130
0002
0013
,
2001
3001
0020
0130
,
1000
0001
1000
0000
0020
0000
1030
0000
,
1000
0100
1000
0000
0002
0000
1003
0000
,
1000
0010
1000
0000
0001
0000
1000
0000
,
0020
0130
2000
3010
,
0100
0100
0200
1300
,
0010
0010
0020
1030
,
0001
0001
0002
1003
,
0100
0100
1200
1300
,
0020
0000
2030
0000
,
3002
0000
0023
0000
,
0032
0000
2003
0000
,
3020
0000
0230
0000
,
0320
0000
2030
0000
,
3002
0000
0023
0000
,
0032
0000
2003
0000
,
3020
0000
0230
0000
,
0320
0000
2030
0000
,
3002
0000
0023
0000
,
0032
0000
2003
0000
,
3020
0000
0000
0030
,
2000
0000
0000
3000
0010
0100
0010
0000
,
0002
1003
0020
1030
,
0010
1000
0020
1030
,
0001
1000
0002
0013
,
1000
0010
2000
3010
,
0020
0130
0002
1003
,
0020
0000
1000
1000
,
2030
0000
0010
0010
,
3020
0000
0100
0100
,
0230
0000
0001
0001
,
0302
0000
0000
0003
0000
0000
0000
0000
;

//---------------dance-single - Copied from Copied f----------------
#NOTEDATA:;
#CHARTNAME:Copied from Copied f;
#STEPSTYPE:dance-single;
#DESCRIPTION:Copied from Copied f;
#CHARTSTYLE:;
#DIFFICULTY:Easy;
#METER:3;
#RADARVALUES:0.116130,0.139740,0.000000,0.067183,0.000000,121.000000,121.000000,0.000000,10.000000,0.000000,0.000000,0.000000,0.000000,0.000000,0.116130,0.139740,0.000000,0.067183,0.000000,121.000000,121.000000,0.000000,10.000000,0.000000,0.000000,0.000000,0.000000,0.000000;
#CREDIT:Copied from Copied f;
#NOTES:
0000
0000
0000
0000
,
0000
0000
0000
0000
,
1000
1000
1000
0000
,
0001
0010
0001
0000
,
1000
0010
1000
0000
,
0100
0001
0100
0000
,
1000
0001
1000
0010
,
0100
0000
0000
0001
,
1000
0000
0100
0010
,
0100
0000
0001
1000
,
0001
0000
0100
0010
,
0001
0000
1000
0100
,
0010
0000
1000
0001
,
1000
0000
0010
0100
,
0002
0000
0000
0003
,
0100
0010
0001
0000
,
1000
0010
0001
0000
,
0100
0010
0100
0000
,
2000
0000
3000
0000
,
0002
0000
0003
0000
,
0200
0000
0300
0000
,
0002
0000
0003
0000
,
2000
0000
3000
0000
,
0020
0000
0030
0000
,
0002
0000
0003
0000
,
2000
0000
3000
0000
,
0010
0100
0010
0000
,
1000
0001
1000
0000
,
0010
0100
0001
0000
,
1000
0001
1000
0000
,
0010
0000
0001
0000
,
0001
0000
1000
0000
,
0100
0000
0010
0000
,
0010
0000
0001
0000
,
0001
0000
0100
0000
,
0100
0000
0001
0000
,
0001
0000
0010
0000
,
0100
0000
0100
0100
,
0010
0000
0001
0000
,
0001
0000
1000
0000
,
0010
0000
0010
0000
,
0001
0000
0000
0000
,
2000
0000
0000
3000
0100
0000
0010
0000
,
0100
0001
1000
0000
,
0010
0000
0001
0001
,
0001
0000
1000
1000
,
1000
0000
0010
0100
,
0010
0000
0001
1000
,
0001
0000
0010
0100
,
1000
0000
0010
0100
,
0001
0000
0010
0100
,
0001
0000
1000
0001
,
1000
0000
0000
0000
;

//---------------dance-single - Copied from Copied f----------------
#NOTEDATA:;
#CHARTNAME:Copied from Copied f;
#STEPSTYPE:dance-single;
#DESCRIPTION:Copied from Copied f;
#CHARTSTYLE:;
#DIFFICULTY:Beginner;
#METER:1;
#RADARVALUES:0.099814,0.122272,0.000000,0.013437,0.000000,104.000000,104.000000,0.000000,2.000000,0.000000,0.000000,0.000000,0.000000,0.000000,0.099814,0.122272,0.000000,0.013437,0.000000,104.000000,104.000000,0.000000,2.000000,0.000000,0.000000,0.000000,0.000000,0.000000;
#CREDIT:Copied from Copied f;
#NOTES:
0000
0000
0000
0000
,
0000
0000
0000
0000
,
0001
0000
1000
0000
,
0010
0000
0010
0000
,
0010
0000
0001
0000
,
0010
0000
0010
0000
,
0010
0000
0001
0000
,
0100
0000
1000
0000
,
0001
0000
0100
0000
,
0100
0000
0010
0000
,
1000
0000
0010
0000
,
0010
0000
0100
0000
,
0010
0000
1000
0000
,
0010
0000
0100
0000
,
0002
0000
0000
0000
,
0013
0000
0100
0000
,
0100
0000
1000
0000
,
0001
0000
1000
0000
,
0001
0000
0100
0000
,
0010
0000
1000
0000
,
1000
0000
0010
0000
,
0001
0000
1000
0000
,
0001
0000
1000
0000
,
0100
0000
0100
0000
,
0100
0000
1000
0000
,
0001
0000
0001
0000
,
0001
0001
0100
0000
,
0010
0000
0100
0000
,
0001
0000
0010
0000
,
0010
0000
0100
0000
,
0100
0000
0100
0000
,
0010
0000
0001
0000
,
0001
0000
0010
0000
,
1000
0000
0100
0000
,
0100
0000
0010
0000
,
0100
0000
0001
0000
,
0100
0000
0010
0000
,
0100
0000
0100
0001
,
1000
0000
1000
0000
,
0100
0000
0001
0000
,
0001
0000
0010
0000
,
0100
0000
0000
0000
,
0020
0000
0030
0000
,
0010
0000
0010
0000
,
0010
0000
0100
0000
,
1000
0000
0001
0000
,
0010
0000
1000
0000
,
0010
0000
0100
0000
,
0100
0000
0100
0001
,
0001
0000
1000
0010
,
1000
0000
0100
1000
,
0001
0000
0001
0010
,
1000
0000
0000
0000
;
