#TITLE:Nonstop;
#SUBTITLE:;
#ARTIST:OH MY GIRL;
#TITLETRANSLIT:;
#SUBTITLETRANSLIT:;
#ARTISTTRANSLIT:;
#GENRE:;
#CREDIT:;
#BANNER:AV.avi;
#BACKGROUND:BG.png;
#LYRICSPATH:;
#CDTITLE:;
#MUSIC:audio.ogg;
#OFFSET:-0.288000;
#SAMPLESTART:62.452003;
#SAMPLELENGTH:15.000000;
#SELECTABLE:YES;
#BPMS:0.000000=123.977997
,129.000000=61.988998
,131.000000=123.977997
,227.000000=61.988998
,229.000000=123.977997
;
#STOPS:
;
#BGCHANGES:0.000=MV.avi=0.800=1=0=1===CrossFade==,
2.000=MV.avi=1.000=0=0=1=====,
99999=-nosongbg-=1.000=0=0=0 // don't automatically add -songbackground-
;
#KEYSOUNDS:;
#ATTACKS:;

//---------------dance-single - ----------------
#NOTES:
     dance-single:
     :
     Challenge:
     15:
     0.869826,0.920380,1.425035,1.151543,0.701722,846.000000,648.000000,198.000000,160.000000,0.000000,45.000000,0.869826,0.920380,1.425035,1.151543,0.701722,846.000000,648.000000,198.000000,160.000000,0.000000,45.000000:
0000
0000
0000
0000
0001
0000
0000
0000
0100
0010
0100
0000
0010
0000
0000
0100
,
0000
0000
0010
0000
0000
0000
0000
0000
1000
0001
1000
0000
0010
0000
0000
0100
,
0000
0000
1000
0000
0000
0000
0000
0000
1000
0010
1000
0000
0010
0000
0000
0100
,
0000
0010
0000
0000
0001
0010
0100
1000
,
0100
0000
0010
0000
1001
0000
0000
0000
1100
0010
0100
0000
0011
0000
0000
0100
,
1001
0000
0010
0000
1100
0000
0000
0000
1010
0001
1000
0000
0110
0000
0000
0100
,
0011
1000
0011
1100
0011
1100
0011
1100
,
0011
0000
0000
0000
1100
0000
0000
0000
0001
0000
0010
0000
0100
0000
1000
0000
0100
0000
0010
0000
0001
0000
0010
0000
0100
1000
0100
0010
0001
0000
0010
0000
,
0100
1000
0010
0100
1001
0000
0010
0000
1100
0010
0100
0000
0010
0000
0020
0030
,
0201
0300
0020
0030
1020
0030
0000
0000
1100
0001
1000
0000
0010
0000
0001
0010
,
1001
0010
0100
1000
0011
0000
1000
0000
0110
0001
0100
0010
0100
0000
1000
0000
,
0011
0000
1000
0010
1100
0000
0000
0000
1010
0000
0001
0000
0010
0000
0100
0000
,
1010
0000
0001
0000
1100
0000
0010
0100
1001
0010
0002
0000
0100
0003
0000
0000
,
1100
0000
0010
0000
0110
0000
0001
1000
0011
0100
0020
0000
0100
0030
0001
1000
,
0110
0001
0010
0100
1001
0000
0000
0100
1010
0000
0010
0000
1000
0000
0001
0000
,
0110
0000
0010
0001
1100
0000
0100
0000
0011
0000
1000
0000
0001
0100
0010
0000
,
0110
0001
1000
0000
0210
0000
0300
0002
1013
0100
0010
0000
1000
0100
0000
0001
,
1010
0000
0100
0000
1010
0100
0000
0001
0110
1000
0010
0000
0100
0000
0000
0001
,
0110
0000
1000
0000
0011
0100
0000
0010
0101
0000
1000
0000
0010
0001
0000
0010
,
1100
0000
0000
0000
0000
0000
0100
0000
0000
0010
0000
0000
1001
0000
0000
0000
0100
0000
0000
0000
0010
0000
0000
0000
1100
0000
0000
0000
0001
0000
0000
0000
0010
0000
0000
0000
0100
0000
0000
0000
0001
0000
0000
0000
1000
0000
0000
0000
,
0100
0000
0010
0000
1100
0000
0000
0001
0110
1000
0010
0000
0100
1000
0000
0000
,
0011
0000
0100
0000
1010
0000
0100
0000
0011
1000
0010
0001
0100
0000
0000
0001
,
0110
1000
0020
0000
1130
0000
0001
0100
0011
0100
0001
0010
1000
0100
0010
1000
,
0011
0000
0100
0001
1010
0000
0001
0100
1001
0010
1000
0001
0100
0000
0010
0000
,
1000
0000
0010
0000
0102
0000
0000
2003
0110
0000
3020
0000
1001
0230
0000
0000
,
0321
0000
1030
0002
1010
0000
0000
0003
0110
0000
0000
0000
0011
1000
0001
0100
,
1010
0000
0100
0000
0021
0000
0000
0230
1001
0000
0320
0000
0101
2030
0000
0000
,
3201
0000
0310
0002
1010
0000
0003
0000
0110
0000
0000
0100
1001
0010
0000
0100
,
0011
0000
0100
1000
0110
0000
0000
0110
0000
0000
0110
0000
0011
0000
0000
0011
,
0000
0000
0011
0000
0110
0000
0000
0110
0000
0000
0110
0000
0011
0000
0000
0011
,
0000
0011
0210
0312
2103
3021
1230
1302
,
0123
0000
1230
0000
0312
1000
0010
1000
0010
1000
0010
1000
0010
1000
0010
1000
,
0023
0000
0000
0000
0030
0000
0000
0000
1000
0000
0000
0001
0000
0000
0100
0000
0010
0000
0100
0000
0002
0000
0113
0000
1002
0000
0003
0000
0000
0000
0020
0000
,
1031
0200
0302
0003
0210
0300
0020
0030
2100
3000
0002
0000
1203
0000
0300
0220
,
0030
2300
3022
0003
2030
3200
0000
0302
0023
0200
2330
3000
0101
0000
0000
0020
,
0131
2000
3020
0030
0210
0300
0020
0030
1200
0300
0020
0030
0101
0000
0000
0010
,
1001
0000
0010
0000
1100
0000
0100
0000
0011
0000
0100
0000
1002
0003
0000
0020
,
1031
0200
0302
0003
0210
0300
0020
0030
2100
3000
0020
0000
0132
0000
0003
2002
,
3000
0203
2320
0030
3200
0302
0000
0023
2030
0002
3203
0300
0101
0000
0002
0000
,
1023
0000
0230
0000
2301
0000
3200
0000
1320
0000
0030
0000
1000
0000
0000
0010
,
0000
0100
0001
0010
0100
0000
1002
0010
,
1003
0010
0100
1000
0011
0000
0100
0000
0001
0000
0000
0000
1100
0000
0010
0000
1100
0000
0000
0000
0001
0010
0100
0010
2000
0000
0000
0000
0100
0000
0000
0000
,
3001
0000
0000
0000
0000
0000
0011
0000
0000
0100
0000
0000
0010
0000
0000
0000
1000
0000
0101
0000
0000
0010
0000
0000
0101
0000
0000
0000
0010
0000
1000
0000
0001
0000
0000
0000
0020
0000
0000
0000
0000
0000
0100
0000
0000
0000
0000
0000
,
1030
0000
1010
0100
0001
0000
0110
0000
0110
0000
0010
0000
1000
0000
0100
0010
,
0100
0001
1100
0010
0100
0010
1001
0100
1001
0000
1001
0000
0010
0001
0010
1000
,
0100
0001
1010
0001
0100
0000
1100
0010
1100
0010
0000
1000
0001
0100
0010
1000
,
0100
1000
0110
0001
0100
0000
1010
0000
1010
0100
1001
0000
1010
0000
0010
0000
,
1000
0100
1001
0000
0010
0000
1100
0001
1100
0000
0000
0000
0010
0001
0010
1000
,
0100
0000
0010
0000
1001
0010
0100
1000
0100
0000
0000
0000
1100
0000
0000
0000
1100
0000
0000
0000
0000
0000
0000
0000
1001
0000
0000
0000
0000
0000
0000
0000
,
1010
0100
0010
0000
0110
0000
0000
0001
0110
0000
1000
0000
0101
0000
0000
0000
,
1010
0100
0010
0000
1001
0000
0000
0100
1010
0000
0010
0000
0110
0000
0000
0000
,
0011
1000
0001
0000
1100
0000
0000
0010
0101
0000
0100
0000
1010
0000
0000
0000
,
1010
0000
0100
0000
0011
0000
0010
0000
0101
0000
1000
0000
1001
0000
0100
1000
,
0011
0100
0010
0000
1000
0000
0000
0010
1000
0000
0100
0000
0001
0000
1000
0000
,
0010
1000
0100
0000
0001
0000
0000
0001
0100
0000
1000
0000
0100
0000
0010
1000
,
0001
0010
0100
0000
0020
0000
0000
0000
0230
0000
0000
0000
0301
0000
0000
0010
,
0001
0000
0000
0000
0100
0000
0000
0000
1000
0000
0000
0000
0100
0000
0000
0000
0010
0000
0000
0000
1000
0000
0000
0000
0001
0000
0000
0010
0000
0000
0100
0000
,
1000
0100
1020
1031
1002
0000
0003
0020
1031
0200
0302
0003
0210
0300
0020
0030
,
2100
3000
0002
0000
1203
0000
0300
0220
0030
2300
3022
0003
2030
3200
0000
0302
,
0023
0200
2330
3000
0101
0000
1000
0020
0131
2000
3020
0030
0210
0300
0020
0030
,
1200
0300
0020
0030
0101
0000
0000
0010
1001
0000
0010
0000
1000
0000
0100
0000
,
0011
2000
3012
0000
0003
0200
0302
1100
,
1103
0000
1000
0000
0001
0000
1000
0000
0001
0000
1001
0000
0002
0000
1100
0003
,
1100
0100
0010
2000
3200
0320
0032
0023
,
0230
0000
0300
0000
1000
0000
0000
0100
0000
0000
0010
0000
1000
0000
0001
0000
,
0100
0000
0010
0000
2002
0003
0000
0200
3300
0002
2203
3000
0322
0030
0200
0303
,
0020
0030
2000
3000
0020
0030
1000
0200
0310
2000
3020
0030
2200
0300
3000
0002
,
0203
0320
0230
0300
0000
0000
0002
0020
2033
0020
3230
0000
0302
0003
0020
0030
,
0200
0300
0002
0003
1000
0000
0000
0100
0000
0000
0010
0000
1000
0000
0001
0000
,
0200
0300
0000
0000
0000
0000
0000
0000
;

//---------------dance-single - ----------------
#NOTES:
     dance-single:
     :
     Hard:
     10:
     0.485293,0.547253,0.079169,0.352660,0.327470,472.000000,461.000000,11.000000,49.000000,0.000000,0.000000,0.485293,0.547253,0.079169,0.352660,0.327470,472.000000,461.000000,11.000000,49.000000,0.000000,0.000000:
// measure 0
0000
0000
0000
0000
,  // measure 1
0000
0000
0000
0000
,  // measure 2
0000
0000
0000
0000
,  // measure 3
0000
0000
0000
0000
,  // measure 4
0000
0000
0000
0000
0001
0000
0000
0000
1000
0100
1000
0000
0010
0000
0000
0100
,  // measure 5
0000
0000
0002
0000
0000
0003
0000
0000
0001
0100
0001
0000
0010
0000
0000
0001
,  // measure 6
0000
0000
2000
0000
0000
3000
0000
0000
0010
1000
0010
0000
0100
0000
0000
0001
,  // measure 7
0000
0000
0010
0000
0000
0000
0000
0000
0001
0000
0010
0000
0100
0000
1000
0010
,  // measure 8
1000
0001
1000
0010
1000
0000
0100
0000
0010
0000
0001
0000
0100
0000
0001
0000
,  // measure 9
0001
0000
0001
0000
0001
0000
0000
0000
1001
0000
0000
0000
0010
0000
0001
0100
,  // measure 10
0001
1000
0001
0010
0100
0000
0000
1000
0000
0000
0010
0000
0100
0000
0001
0000
,  // measure 11
1000
0100
0010
0000
1000
0100
1000
0010
,  // measure 12
0100
0001
0100
0010
1000
0010
2000
0000
,  // measure 13
3010
0000
0100
0000
0001
0000
0100
0000
0001
0000
0100
0000
0001
0000
0010
0100
,  // measure 14
1000
0000
0010
0100
0001
0000
0100
0000
0010
0000
1000
0000
0001
0000
0010
0000
,  // measure 15
0001
1000
0010
0000
1000
0010
0001
0100
,  // measure 16
1000
0000
0100
0000
0010
0000
0000
0010
0000
0000
0001
0000
0100
0001
0000
0100
,  // measure 17
0001
0000
0010
0000
0100
0010
0000
0100
0010
0000
0001
0000
1000
0001
0000
1000
,  // measure 18
0001
0000
0010
0000
0001
0010
0000
0001
0010
0000
0100
0000
0010
0100
0000
0010
,  // measure 19
0100
0001
1000
0010
0100
0001
0200
0000
,  // measure 20
0301
0000
0000
0000
0010
0000
0000
0010
0000
0000
0100
0000
0000
0100
0000
0000
,  // measure 21
0001
1000
0001
0010
0001
1000
0002
0000
,  // measure 22
0103
0000
0000
0000
0010
0001
0010
0000
0100
0000
1000
0001
0010
0000
0001
0000
,  // measure 23
1000
0000
0001
0000
0010
0100
0010
0000
0010
0001
0010
0000
0001
0000
0010
0000
,  // measure 24
0100
1000
2001
0000
3001
0000
0120
0000
,  // measure 25
0130
0012
0013
2001
,  // measure 26
3001
0120
0130
0012
,  // measure 27
0013
2100
3100
0120
,  // measure 28
0130
0000
0001
1000
0001
1000
0001
1000
,  // measure 29
0001
1000
0010
1000
0010
1000
0010
1000
,  // measure 30
0010
1000
0010
0100
0001
0010
0100
1000
,  // measure 31
0010
0100
0002
0100
1000
0100
0010
1000
,  // measure 32
0103
0000
0000
0000
0000
0000
0000
0000
0000
0000
0000
0000
1000
0000
0000
0001
,  // measure 33
0000
1000
0001
0000
0100
0000
0010
0000
0100
0000
0010
0000
0000
0000
0000
0010
,  // measure 34
0000
0100
0010
0000
1000
0000
0000
0001
1000
0010
1000
0000
0000
0000
0000
0001
,  // measure 35
0000
0100
0001
0000
0100
0000
0010
0000
1000
0000
0001
0000
0010
0000
0000
0010
,  // measure 36
0000
0000
0001
0000
1000
0000
0010
0000
0100
0000
0000
0000
0110
0000
0000
0001
,  // measure 37
0000
0100
0001
0000
0100
0000
0010
0000
1000
0000
0001
0000
0000
0000
0000
0001
,  // measure 38
0000
0001
1000
0000
0001
0000
0000
0001
0010
0100
1000
0000
0000
0000
2000
0000
,  // measure 39
3200
0000
0320
0000
0230
0000
2300
0000
3200
0000
0300
0000
1000
0000
0000
1000
,  // measure 40
0000
0010
0100
0010
0100
0000
0002
0000
,  // measure 41
0013
0000
0000
0000
0001
1000
0001
0000
1000
0001
1000
0000
0002
0000
0000
0000
,  // measure 42
0103
0000
0000
0000
0010
0100
0010
0000
0100
0010
0100
0000
0020
0000
0000
0000
,  // measure 43
1030
0000
0000
0000
0001
0000
0010
0000
0100
0000
2000
0000
0000
0000
3010
0100
,  // measure 44
0010
0000
0100
0010
0100
0000
0010
0000
1000
0000
0001
0000
0010
0001
0010
0001
,  // measure 45
1000
0000
0010
0000
0200
0000
0000
0000
0310
0000
0000
0000
0001
0010
0001
0000
,  // measure 46
1000
0010
0100
0000
0002
0000
0000
0000
0013
0000
0000
0000
0010
1000
0010
0000
,  // measure 47
0100
0000
0001
0000
0010
0000
0100
0000
2000
0000
0000
3000
0001
0100
0001
0000
,  // measure 48
1000
0010
1000
0000
0001
0000
0100
0000
0001
0000
0010
0000
1000
0000
0000
0000
,  // measure 49
0001
1000
0001
0000
0010
0000
0000
0100
0000
0000
0010
0000
0000
0000
0000
0000
,  // measure 50
0001
0010
0001
0000
1000
0000
0000
0010
0000
0000
0100
0000
0000
0000
0000
0000
,  // measure 51
1000
0001
1000
0000
0010
0000
0000
0100
0000
0000
0001
0000
0000
0000
0000
0000
,  // measure 52
0010
0100
1000
0010
0100
0001
0010
0000
,  // measure 53
0001
0010
0001
0000
1000
0000
0000
0010
0000
0000
0100
0000
0000
0000
0000
0000
,  // measure 54
0010
0100
0010
0000
1000
0000
0000
0001
0000
0000
0010
0000
0000
0000
0000
0000
,  // measure 55
0100
1000
0100
0000
1000
0000
0000
0010
0000
0000
1000
0000
0010
0000
0000
0100
,  // measure 56
0000
0001
0100
0001
0100
0000
0000
0000
,  // measure 57
0000
0000
0000
1000
1000
0000
0000
0010
0000
0100
0001
0000
0100
0000
0010
0000
,  // measure 58
1000
0000
0001
0000
0000
0000
0000
0001
0000
0001
1000
0000
0000
0010
0000
0001
,  // measure 59
0010
0100
1000
0000
0000
0000
0020
0000
0230
0000
0302
0000
2003
0000
3200
0000
,  // measure 60
0320
0000
0031
0000
1000
0000
0000
1000
0000
0000
0010
0000
0100
0000
0010
0000
,  // measure 61
0100
0001
0020
0000
0031
1000
0020
0000
,  // measure 62
0130
0001
0100
0001
0100
0001
0200
0000
,  // measure 63
0301
0010
0001
0200
2300
3020
0230
0302
,  // measure 64
0023
0000
0030
0000
0001
0000
0000
0001
0000
0000
0100
0000
0010
0000
0100
0000
,  // measure 65
0001
0000
0000
0000
1001
0000
0000
0010
0000
0100
0001
0000
0010
0000
0001
0000
,  // measure 66
1000
0000
0010
0000
0000
0000
0000
0001
0000
0100
0001
0000
1000
0000
0000
0010
,  // measure 67
0100
0001
0010
0000
0000
0000
0200
0000
2300
0000
3020
0000
0230
0000
0302
0000
,  // measure 68
0023
0000
0030
0000
0001
0000
0000
0001
0000
0000
1000
0000
0010
0000
1000
0000
,  // measure 69
0020
0030
0000
0000
0000
0000
0000
0000
;

//---------------dance-single - ----------------
#NOTES:
     dance-single:
     :
     Medium:
     7:
     0.355745,0.422113,0.079169,0.151140,0.089964,346.000000,335.000000,11.000000,21.000000,0.000000,0.000000,0.355745,0.422113,0.079169,0.151140,0.089964,346.000000,335.000000,11.000000,21.000000,0.000000,0.000000:
0000
0000
0000
0000
,
0000
0000
0000
0000
,
0000
0000
0000
0000
,
0000
0000
0000
0000
,
0000
0000
0000
0000
1000
0000
0000
0000
0001
0000
0000
0000
0100
0000
0000
0100
,
0000
0000
0100
0000
0000
0000
0000
0000
0010
0000
0000
0000
1000
0000
0000
1000
,
0000
0000
1000
0000
0000
0000
0000
0000
0010
0000
0000
0000
0100
0000
0000
0100
,
0000
0100
0000
0000
0001
1000
0001
1000
,
0001
1000
0001
0000
0100
0000
0010
1000
,
0001
0000
0010
0000
1000
0000
0001
0010
,
0001
1000
0010
0000
0100
0000
0001
0100
,
0001
0010
0001
0000
1000
0000
0010
1000
,
0001
1000
0020
0000
0130
0000
0110
0000
,
0110
0002
0013
0011
,
0011
0000
0001
1000
0001
0000
0010
0100
,
0010
2000
0100
0010
,
3001
0000
0001
0010
0001
1000
0010
0000
,
0100
0000
1000
0100
1000
0010
1000
0000
,
0001
0000
0100
0010
0001
0000
0010
1000
,
0001
0010
0010
0200
,
0310
0000
0001
0000
0001
0000
0010
0001
,
0010
0000
1000
0010
1000
0000
0001
0000
,
0010
0000
0100
0001
0100
0000
0010
1000
,
0001
0000
0100
0010
0001
0010
0100
0000
,
0110
2001
0001
0010
,
0100
0010
0100
0001
,
3010
0002
0010
1000
,
0100
0010
1000
0100
,
0013
0000
0000
0000
1000
0000
0000
1000
0000
0000
1000
0000
0010
0000
0000
0010
,
0000
0000
0010
0000
0100
0000
0000
0100
0000
0000
0100
0000
0001
0000
0000
0001
,
0000
0001
1000
0010
0100
0001
0010
0100
,
1000
0010
0200
0000
0000
0000
0000
0000
,
0300
0000
0000
1000
,
0010
0000
0000
0000
1000
0000
0001
0000
1000
0000
0000
0000
0010
0000
0000
0010
,
0000
0000
0010
0000
0000
0010
0000
0000
0020
0000
0000
0030
0100
0000
0001
0000
,
1000
0000
0000
0000
0010
0000
0100
0000
0001
0000
0000
0000
0010
0000
0000
0010
,
0000
0000
0001
0000
1000
0000
0010
0000
0100
0000
0000
0000
0001
0000
0000
0001
,
0000
0000
1000
0000
0010
0000
0100
0000
0001
0000
1000
0000
0010
0000
0000
0010
,
0000
0000
0010
0000
0000
0010
0000
0000
0010
0000
0100
0000
0001
0000
1000
0000
,
0100
0000
0010
0000
0001
0000
1000
0000
0010
0000
0000
0000
0100
0000
0000
0100
,
0000
0010
1000
0001
1000
0000
0020
0000
,
0130
0000
0001
0010
0001
0000
0002
0000
,
1003
0000
0010
0100
0010
0000
2000
0000
,
3100
0000
0010
0100
0010
0000
0001
0010
,
0001
0000
0020
0000
1030
0000
1000
0001
,
1000
0001
2000
0000
3010
0000
0001
0100
,
0010
0000
0002
0000
1003
0000
0010
0100
,
0001
1000
0020
0000
0130
0000
0001
0010
,
0001
2000
3010
0001
,
0001
1000
1000
0010
,
0010
0100
0100
0001
,
0001
0010
0010
0001
,
0001
1000
1000
1010
,
0001
0010
0001
0110
,
0001
1000
0100
0011
,
0010
1000
0001
2020
,
0000
0000
3030
0000
,
0000
0000
1000
0000
0010
0000
1000
0001
,
0100
0000
0000
0000
0010
0000
0000
0010
0000
0000
0010
0000
0000
0010
0000
0000
,
0010
0100
0001
1000
0010
0100
0001
1000
,
0010
0000
0000
0000
0001
0000
0000
0001
0000
0000
0010
0000
0001
0000
0010
0000
,
0001
0000
1000
0000
0010
0100
0002
0000
,
0013
0001
0010
0001
0010
0001
0020
0000
,
0031
0000
1000
0000
0010
0100
0002
0000
,
0013
0000
0000
0000
1000
0000
0000
1000
0000
0000
1000
0000
0010
0000
1000
0000
,
0010
0000
0000
0000
1001
0000
0000
0100
0000
1000
0010
0000
0100
0000
0001
0000
,
0100
0000
0010
0000
0000
0000
0000
0001
0000
0001
0100
0000
0001
0000
0000
0001
,
0100
0001
0100
0000
0000
0000
0010
0000
1000
0000
0001
0000
0100
0000
0010
0000
,
1000
0000
0000
0000
0001
0000
0000
0001
0000
0000
0010
0000
1000
0000
0010
0000
,
1000
0000
0000
0000
;

//---------------dance-single - ----------------
#NOTES:
     dance-single:
     :
     Easy:
     5:
     0.271435,0.322792,0.035986,0.187126,0.000000,264.000000,259.000000,5.000000,26.000000,0.000000,0.000000,0.271435,0.322792,0.035986,0.187126,0.000000,264.000000,259.000000,5.000000,26.000000,0.000000,0.000000:
0000
0000
0000
0000
,
0000
0000
0000
0000
,
0000
0000
0000
0000
,
0000
0000
0000
0000
,
0000
1000
1000
0010
,
0010
0100
0100
0001
,
0001
0000
1000
0001
1000
0000
0001
1000
,
0001
0200
0010
0310
,
0000
0001
0010
0001
,
1000
2000
3010
0001
,
0010
0100
1000
0001
,
1000
0020
0100
1030
,
0001
0020
0001
0130
,
0001
2000
0010
3100
,
0001
0100
0010
1000
,
0001
0020
0100
0031
,
1000
2010
0000
3010
,
0010
0102
0000
0100
,
0103
0010
1000
0001
,
0010
0200
1000
0010
,
1300
0001
0001
1000
,
1000
0010
0100
0020
,
1030
0001
0001
1000
,
1000
0010
0100
0010
,
0001
0020
0000
0000
,
0000
2030
0000
0000
,
0000
3002
0000
0000
,
0000
0023
0000
0000
,
0000
0130
0100
1000
,
1000
0010
0010
0001
,
0001
0000
0001
1000
0001
1000
0001
1000
,
0001
1000
0002
0000
0000
0000
0000
0000
,
0003
0000
0000
0010
,
0010
0100
0010
0000
0010
0100
0010
0000
,
0010
1000
0010
0000
0010
0100
0010
0000
,
0010
1000
0010
0000
0010
0100
0001
0000
,
1000
0010
0100
0001
,
0001
0010
0001
0000
0001
1000
0001
0000
,
0001
0100
0001
0000
0001
0010
0001
0000
,
0010
1000
0001
0000
0010
0100
0001
0000
,
0001
1000
1000
0200
,
0000
0310
0010
0020
,
0000
0100
0130
0002
,
0000
1000
1003
0010
,
0100
0001
0010
0200
,
0000
1300
0010
0200
,
0000
0301
0010
1000
,
0100
0010
0001
1000
,
1000
2000
0000
3010
,
0001
0010
0100
0001
,
1000
0010
0100
0001
,
1000
0100
0010
0001
,
1000
0010
0100
0001
,
0001
0001
1000
0100
,
0100
0100
0010
1000
,
1000
0001
0001
0002
,
0000
0000
0003
0000
,
0000
0000
1000
0000
1000
0010
1000
0000
,
1000
0100
1000
0000
1000
0010
1000
0000
,
1000
0100
1000
0000
1000
0001
1000
0000
,
1000
0010
0100
0000
0001
0000
0010
0000
,
0001
2010
3010
0102
,
0103
1000
1000
2000
,
3010
0001
0100
0001
,
0010
0001
0001
1000
,
0010
0000
0001
1000
0100
0000
0001
1000
,
0100
0000
0001
1000
0100
1000
0002
0000
,
1003
0000
0010
0100
0001
0000
0010
1000
,
0001
0010
0010
0010
,
0110
0000
0000
0000
;

//---------------dance-single - ----------------
#NOTES:
     dance-single:
     :
     Beginner:
     2:
     0.178900,0.223471,0.028789,0.129549,0.000000,174.000000,170.000000,4.000000,18.000000,0.000000,0.000000,0.178900,0.223471,0.028789,0.129549,0.000000,174.000000,170.000000,4.000000,18.000000,0.000000,0.000000:
0000
0000
0000
0000
,
0000
0000
0000
0000
,
0000
0000
0000
0000
,
0000
0000
0000
0000
,
0000
1000
0100
1000
,
0000
0010
0100
0010
,
0000
0001
1000
0001
,
0000
0010
0010
0010
,
0000
0001
0100
0001
,
0000
0020
0000
0130
,
0000
1000
0100
0010
,
0000
0002
0000
1003
,
0000
0010
0100
0020
,
0000
1030
1000
2000
,
0000
3010
0000
0001
,
0000
0100
0100
0010
,
0000
0001
1000
0001
,
0000
0010
0100
0010
,
0000
0001
0010
0001
,
0000
0200
0000
1300
,
0000
0010
1000
0001
,
0000
0010
0100
0010
,
0000
0001
1000
0001
,
0000
0010
0001
1000
,
0000
0010
0000
0100
,
0000
0001
0000
1000
,
0000
0010
0000
0100
,
0000
0001
0000
0010
,
0000
0001
1000
0001
,
0000
0010
0100
0010
,
0000
0002
0000
0000
,
0000
2003
0000
0000
,
3000
0000
0000
1000
,
0010
1000
0001
0100
,
0100
0100
0100
0010
,
1000
0001
1000
0001
,
0001
0001
0001
0010
,
0100
0001
1000
0100
,
0100
0100
0100
0010
,
1000
0001
1000
0010
,
0010
0001
0001
2000
,
0000
3010
0000
0002
,
0000
0103
0000
0020
,
0000
1030
0000
0200
,
0000
1300
0000
0002
,
0000
1003
0000
0020
,
0000
0130
0000
0002
,
0000
0013
0000
2000
,
0000
3100
0000
0010
,
0000
0010
0000
0001
,
0000
0001
0000
1000
,
0000
1000
0000
0010
,
0000
0010
0000
0110
,
0000
0000
0000
1010
,
0000
0000
0000
0101
,
0000
0000
0000
2002
,
0000
0000
3003
0000
,
0000
0100
0100
0100
,
0100
0010
0010
0010
,
0010
0001
0001
0001
,
0001
2000
0000
0000
,
0000
3010
0000
0010
,
0000
0100
0100
0100
,
0000
0001
0000
1000
,
0000
0010
0000
0100
,
0000
0001
0001
0001
,
0001
1000
1000
1000
,
1000
0010
0010
0010
,
0010
0100
0010
0100
,
0100
0000
0000
0000
;
