#VERSION:0.83;
#TITLE:No More Sad Songs;
#SUBTITLE:;
#ARTIST:Little Mix, Machine Gunkelly;
#TITLETRANSLIT:;
#SUBTITLETRANSLIT:;
#ARTISTTRANSLIT:;
#GENRE:;
#ORIGIN:;
#CREDIT:;
#BANNER:AV.avi;
#BACKGROUND:bg.png;
#PREVIEWVID:;
#JACKET:jacket.jpg;
#CDIMAGE:;
#DISCIMAGE:;
#LYRICSPATH:;
#CDTITLE:;
#MUSIC:audio.ogg;
#OFFSET:-0.170000;
#SAMPLESTART:47.460083;
#SAMPLELENGTH:14.999999;
#SELECTABLE:YES;
#BPMS:0.000=101.925;
#STOPS:;
#DELAYS:;
#WARPS:;
#TIMESIGNATURES:0.000=4=4;
#TICKCOUNTS:0.000=4;
#COMBOS:0.000=1;
#SPEEDS:0.000=1.000=0.000=0;
#SCROLLS:0.000=1.000;
#FAKES:;
#LABELS:0.000=Song Start;
#BGCHANGES:0.000=MV.avi=1.000=1=0=1===CrossFade==,
99999=-nosongbg-=1.000=0=0=0 // don't automatically add -songbackground-
;
#KEYSOUNDS:;
#ATTACKS:
;

//---------------dance-single - ----------------
#NOTEDATA:;
#CHARTNAME:;
#STEPSTYPE:dance-single;
#DESCRIPTION:;
#CHARTSTYLE:;
#DIFFICULTY:Challenge;
#METER:14;
#RADARVALUES:0.645215,0.603274,1.008540,1.841681,0.586488,412.000000,320.000000,92.000000,168.000000,0.000000,42.000000,0.000000,0.000000,0.000000,0.645215,0.603274,1.008540,1.841681,0.586488,412.000000,320.000000,92.000000,168.000000,0.000000,42.000000,0.000000,0.000000,0.000000;
#CREDIT:;
#NOTES:
0000
0000
0002
0000
1103
0010
0000
0010
0000
0000
0100
0000
0000
0010
0000
0000
,
0100
0000
0002
0000
0103
0000
0000
0010
0000
0000
0100
0000
0000
0010
0000
0000
,
0100
0000
0020
0000
0131
0010
0000
0100
0000
0000
0100
0000
0000
0100
0000
0000
,
0100
0000
0010
0000
0100
0000
0000
0100
0000
0000
0100
0000
0000
0100
0000
0000
,
2100
0000
0010
0000
3101
0010
0000
0010
0000
0000
1000
0000
0100
1000
0020
0001
,
1000
0030
0002
0000
0203
0000
0000
0320
0000
0030
0001
0000
1000
0001
0010
0100
,
0000
0000
0001
1000
0011
0100
0000
0100
0000
0000
0001
0000
1000
0001
0100
0020
,
0000
0030
0100
0010
0100
0000
0000
0100
0000
0000
0100
0000
0010
1000
0001
0020
,
0000
0030
0200
0000
1301
0100
0000
0002
0000
0000
0013
0000
0100
0001
0100
0001
,
0010
0000
0100
0000
0002
0000
0000
0023
0000
0000
0130
0000
0001
0100
1000
0010
,
0000
0000
0001
0100
1010
0010
0000
0010
0000
0000
1000
0000
0001
1000
0010
0100
,
0000
0000
1000
0001
1000
0000
0000
0010
0000
0000
0100
0000
1000
0100
0010
0001
,
0210
0000
0001
0300
1020
0000
0030
1010
0002
0000
0103
0000
0101
1000
0000
0101
,
1000
0000
0001
0000
1020
0000
0030
1010
0200
0000
0300
0000
0101
1000
0000
0101
,
1000
0000
0010
0000
1020
0000
0030
1010
0200
0000
0300
0000
0101
1000
0000
0101
,
0010
0000
0001
0000
1020
0000
0030
1010
0200
0000
0310
0000
0101
1000
0010
0101
,
2000
0000
0100
0000
3010
0010
0000
0010
0002
0000
0203
0300
0001
1000
0000
0200
,
0310
0000
0002
0003
0200
0000
0300
0020
2030
0000
3200
0300
0010
0100
0000
0002
,
0103
0000
0020
2030
0101
0010
0000
0002
3203
0000
0320
0030
0000
0000
0000
2000
,
3000
0100
0002
0013
0200
0000
0000
0000
0302
0000
0000
0003
2000
0000
0000
3000
,
0102
0000
0020
0000
1233
0000
0000
0320
1031
0000
0200
0300
1010
0002
0003
0000
,
0210
0300
0022
0003
2230
0300
3000
0020
0131
0000
0200
0300
1010
0002
0003
0000
,
0210
0300
0022
0003
2230
3000
0300
0200
0311
0000
0020
0030
1001
0200
0300
0000
,
1002
0103
0010
1000
0022
0003
0000
0230
2301
0000
0020
0030
3022
0030
0000
0200
,
0303
0000
2200
3000
0322
0003
0000
0230
1301
0000
0020
0030
0101
2000
3000
0000
,
0120
0030
2200
3000
0322
0030
0003
0200
1310
0000
0020
0030
0101
2000
3000
0000
,
0120
0030
2200
3000
0322
0003
0030
0020
1130
0000
0200
0300
1001
0020
0030
0000
,
2001
3010
0100
0001
2200
3000
0000
0320
1032
0000
0200
0300
2003
0020
0030
0000
,
3220
0030
0302
0000
1103
0020
2030
3000
0102
0000
0203
0320
1001
0030
2000
0000
,
3102
0000
0203
0000
1301
0020
0230
0300
1002
0203
0300
0002
1010
0003
0200
0000
,
0312
0000
2003
0000
3101
0020
2030
3000
0102
0000
0203
0320
1001
0030
2000
0000
,
3101
0000
0010
0000
1001
0020
0230
0300
1002
0203
0300
0002
1010
0003
0200
0000
,
0312
0000
0203
0000
1301
0020
2030
3000
0102
0000
0203
0320
1001
0030
2000
0000
,
3101
0000
0010
0000
1001
0020
0230
0300
1002
0203
0300
0002
1010
0003
0200
0000
,
0312
0000
2003
0000
3101
0020
2030
3000
0102
0000
0203
0320
1001
0030
2000
0000
,
3101
0000
0010
0000
1001
0020
0230
0300
1002
0203
0300
0002
1010
0003
0200
0000
,
0320
0000
0230
0000
0302
0000
0000
0000
2003
0000
0000
3000
0000
0000
0000
0000
;

//---------------dance-single - ----------------
#NOTEDATA:;
#CHARTNAME:;
#STEPSTYPE:dance-single;
#DESCRIPTION:;
#CHARTSTYLE:;
#DIFFICULTY:Hard;
#METER:9;
#RADARVALUES:0.394646,0.480153,0.164436,0.043850,0.394646,252.000000,237.000000,15.000000,4.000000,0.000000,0.000000,0.000000,0.000000,0.000000,0.394646,0.480153,0.164436,0.043850,0.394646,252.000000,237.000000,15.000000,4.000000,0.000000,0.000000,0.000000,0.000000,0.000000;
#CREDIT:;
#NOTES:
// measure 0
0000
0000
0000
0000
,  // measure 1
0000
0000
0000
0000
,  // measure 2
0000
0000
0000
0000
,  // measure 3
0000
0000
0000
0000
,  // measure 4
0000
0000
0000
0000
1000
0000
0000
1000
0000
0000
0100
0000
1000
0000
0001
0000
,  // measure 5
0100
0000
0001
0000
0010
0000
0000
0010
0000
0000
0001
0000
1000
0000
0010
0000
,  // measure 6
0100
0000
0001
0000
0010
0000
0000
0010
0000
0000
0010
0000
0001
0000
1000
0000
,  // measure 7
0100
0000
1000
0000
0001
0000
0000
0001
0000
0000
0001
0000
1000
0000
0010
0000
,  // measure 8
0100
0000
0001
0000
0010
0000
0000
0010
0000
0000
0010
0000
0001
0000
1000
0000
,  // measure 9
0100
0000
1000
0000
0010
0000
0000
0010
0000
0000
0100
0000
0001
0000
0010
0000
,  // measure 10
0100
0000
1000
0000
0001
0000
0000
0001
0000
0000
0100
0000
0010
0000
1000
0000
,  // measure 11
0100
0000
0010
0000
0001
0000
0000
0001
0000
0000
0001
0000
0100
0000
0010
0000
,  // measure 12
0100
0000
0001
0000
1000
0000
0000
1000
0000
0000
1000
0000
0001
0100
0000
0001
,  // measure 13
0100
0000
0001
0000
1000
0000
0000
1000
0000
0000
1000
0000
0010
0100
0000
0010
,  // measure 14
0100
0000
0001
0000
0010
0000
0000
0010
0000
0000
0010
0000
0001
1000
0000
0001
,  // measure 15
1000
0000
0001
0000
0100
0000
0000
0100
0000
0000
0100
0000
0001
1000
0100
0010
,  // measure 16
0001
0000
1000
0000
0100
0000
0000
0100
0000
0000
0100
0000
1000
0000
0000
1000
,  // measure 17
0000
0000
1000
0000
0001
0000
0000
0001
0000
0000
0001
0000
0010
0000
0000
0010
,  // measure 18
0000
0000
0010
0000
0001
0000
0000
0001
0000
0000
0001
0000
1000
0000
0000
1000
,  // measure 19
0000
1000
0200
0000
2300
0000
3002
0000
,  // measure 20
0103
0000
0000
0000
1001
0000
0000
0001
0000
0000
0010
0000
0000
0001
0000
0000
,  // measure 21
1000
0000
0001
0000
1001
0000
0000
0100
0000
0000
1000
0000
0000
0001
0000
0000
,  // measure 22
0010
0000
0100
0000
0110
0000
0000
0010
0000
0000
0010
0000
0000
0010
0000
0000
,  // measure 23
0100
0001
1000
0001
0010
0000
0000
0010
0000
0000
0010
0000
0001
0000
0000
0100
,  // measure 24
0000
0000
1000
0000
1001
0000
0000
0001
0000
0000
0001
0000
0000
0100
0000
0000
,  // measure 25
0001
0000
0010
0000
0011
0000
0000
0001
0000
0000
1000
0000
0000
0100
0000
0000
,  // measure 26
1000
0000
0001
0000
0101
0000
0000
0001
0000
0000
0010
0000
0000
0001
0000
0000
,  // measure 27
1000
0000
0000
0000
0001
0000
0000
0100
0000
0000
0010
0000
0000
1000
0000
0000
,  // measure 28
0001
0000
0010
0000
0011
0000
0100
0000
1000
0001
1000
0010
1000
0000
0000
0000
,  // measure 29
1001
0000
0000
0000
0001
0000
0100
0000
0001
0010
0100
1000
0001
0000
0000
0000
,  // measure 30
0101
0000
0000
0000
0010
1000
0100
0010
0001
1000
0010
0100
0001
0000
0000
0000
,  // measure 31
0011
0000
0000
0000
0010
0100
0001
0100
0010
1000
0001
0010
0100
0000
0000
0000
,  // measure 32
0011
0000
0000
0000
0001
0010
0100
1000
0010
0100
0001
1000
0100
0000
0000
0000
,  // measure 33
1100
0000
0000
0000
0100
1000
0001
1000
0010
1000
0001
0010
0100
0000
0000
0000
,  // measure 34
0110
0000
0000
0000
0001
0100
0010
0100
0001
0010
0100
1000
0001
0000
0000
0000
,  // measure 35
0101
0000
0000
0000
0010
1000
0001
0010
0100
1000
0001
0100
0010
0000
0000
0000
,  // measure 36
0011
0200
0300
0000
;

//---------------dance-single - ----------------
#NOTEDATA:;
#CHARTNAME:;
#STEPSTYPE:dance-single;
#DESCRIPTION:;
#CHARTSTYLE:;
#DIFFICULTY:Medium;
#METER:6;
#RADARVALUES:0.275626,0.299581,0.087699,0.208285,0.049331,176.000000,168.000000,8.000000,19.000000,0.000000,0.000000,0.000000,0.000000,0.000000,0.275626,0.299581,0.087699,0.208285,0.049331,176.000000,168.000000,8.000000,19.000000,0.000000,0.000000,0.000000,0.000000,0.000000;
#CREDIT:;
#NOTES:
0000
0000
0000
0000
,
0000
0000
0000
0000
,
0000
0000
0000
0000
,
0000
0000
0000
0000
,
0000
0000
0100
0000
0100
1000
0100
0000
,
0001
1000
0001
0000
0001
0010
0001
0000
,
0100
1000
1100
0000
0001
0100
0001
0000
,
0010
1000
0010
0000
0001
0010
0100
0000
,
0001
1000
1001
0000
0010
0100
0010
0000
,
0001
1000
0001
0000
0100
0010
0100
0000
,
0001
1000
1001
0000
0001
0100
0001
0000
,
0001
0010
0100
0000
0001
1000
0010
0000
,
0110
0000
0000
0000
0010
0000
0000
0010
0000
0000
0000
0000
0100
0000
0000
0100
,
0000
0000
0000
0000
0001
0000
0000
0001
0000
0000
0000
0000
1000
0000
0000
1000
,
0000
0000
0000
0000
0100
0000
0000
0100
0000
0000
0000
0000
1000
0000
0000
1000
,
0000
0000
0000
0000
0001
0000
0000
0001
0000
0000
0000
0000
0100
0000
0001
0000
,
0100
0000
0010
0000
0110
0000
1000
0010
,
1000
0000
0010
0000
1010
0000
0001
0100
,
0001
0001
0101
0001
,
1000
0000
0000
0000
0001
0000
0000
0000
0010
0000
0000
0000
0022
0000
0000
0033
,
0000
0000
0100
0000
0100
1000
0002
0000
,
0013
0000
0100
0000
0010
1000
0002
0000
,
0013
0000
0100
0000
0010
1000
0002
0000
,
0013
0100
0100
0002
,
0003
0000
1000
0000
0010
0100
0002
0000
,
1003
0000
0100
0000
0001
0010
0200
0000
,
1300
0000
0010
0000
0001
0100
0002
0000
,
0013
0100
0100
2000
,
3001
0100
0001
0010
0001
1000
0002
0000
,
0103
0000
0100
1000
0010
1000
0002
0000
,
0013
0000
0100
1000
0001
1000
0200
0000
,
0310
0000
0001
1000
0010
1000
0002
0000
,
0013
0000
0100
1000
0001
0100
0002
0000
,
0013
0000
0000
0000
0010
0000
1000
0001
0000
1000
0000
0000
0020
0000
0000
0000
,
0130
0000
0001
1000
0100
0010
0002
0000
,
1003
0000
1000
0010
0001
0010
2000
0000
,
3010
0000
0000
0000
0200
0000
0000
0300
0000
0000
0000
0000
0000
0000
0000
0000
;

//---------------dance-single - ----------------
#NOTEDATA:;
#CHARTNAME:;
#STEPSTYPE:dance-single;
#DESCRIPTION:;
#CHARTSTYLE:;
#DIFFICULTY:Easy;
#METER:3;
#RADARVALUES:0.151907,0.200064,0.065774,0.065774,0.000000,97.000000,91.000000,6.000000,6.000000,0.000000,0.000000,0.000000,0.000000,0.000000,0.151907,0.200064,0.065774,0.065774,0.000000,97.000000,91.000000,6.000000,6.000000,0.000000,0.000000,0.000000,0.000000,0.000000;
#CREDIT:;
#NOTES:
0000
0000
0000
0000
,
0000
0000
0000
0000
,
0000
0000
0000
0000
,
0000
0000
0000
0000
,
0000
1000
0000
0001
,
0000
0010
0000
0100
,
0000
0101
0000
0001
,
0000
1000
0000
0010
,
0000
1001
0000
0001
,
0000
0010
0000
0100
,
0000
0101
0000
0001
,
0000
0010
0000
1000
,
0000
0001
0001
1000
,
0000
0010
0100
0010
,
0000
0001
1000
0100
,
0000
1000
0010
0001
,
0000
0001
0000
0100
,
0000
1000
0000
0010
,
0000
0001
0000
0100
,
0000
1000
0000
0000
,
0000
1001
0001
2000
,
3001
0010
0001
0200
,
0301
1000
0010
2000
,
3001
0100
0100
0100
,
0000
1000
0001
0020
,
0130
0001
1000
0200
,
0301
0001
0010
0200
,
0310
1000
0001
0100
,
0000
0001
1000
0001
,
0000
0100
1000
0100
,
0000
0001
0010
0100
,
0000
0010
1000
0100
,
0000
0110
0100
0001
,
0000
0010
1000
0100
,
0000
0001
0010
0100
,
0000
0001
1000
0001
,
0000
0101
0001
0000
;

//---------------dance-single - ----------------
#NOTEDATA:;
#CHARTNAME:;
#STEPSTYPE:dance-single;
#DESCRIPTION:;
#CHARTSTYLE:;
#DIFFICULTY:Beginner;
#METER:1;
#RADARVALUES:0.050114,0.077285,0.021925,0.000000,0.000000,32.000000,30.000000,2.000000,0.000000,0.000000,0.000000,0.000000,0.000000,0.000000,0.050114,0.077285,0.021925,0.000000,0.000000,32.000000,30.000000,2.000000,0.000000,0.000000,0.000000,0.000000,0.000000,0.000000;
#CREDIT:;
#NOTES:
0000
0000
0000
0000
,
0000
0000
0000
0000
,
0000
0000
0000
0000
,
0000
0000
0000
0000
,
0000
1000
0000
0000
,
0000
0001
0000
0000
,
0000
0010
0000
0000
,
0000
0100
0000
0000
,
0000
0001
0000
0000
,
0000
1000
0000
0000
,
0000
0010
0000
0000
,
0000
0000
0000
0000
,
0000
1001
0000
0000
,
0000
0001
0000
0000
,
0000
0010
0000
0000
,
0000
1000
0000
0000
,
0000
0100
0000
0000
,
0000
0100
0000
0000
,
0000
0100
0000
0000
,
0000
0001
0000
0000
,
0000
0010
0000
0000
,
0000
1000
0000
0000
,
0000
0010
0000
0000
,
0000
0100
0000
0000
,
0000
0001
0000
0000
,
0000
1000
0000
0000
,
0000
0001
0000
0000
,
0000
0000
0000
0000
,
0000
1001
0000
0000
,
0000
1000
0000
0000
,
0000
0100
0000
0000
,
0000
1000
0000
0000
,
0000
0010
0000
0000
,
0000
1000
0000
0000
,
0000
0100
0000
0000
,
0000
0001
0000
0000
;
