#TITLE:My First and Last;
#SUBTITLE:;
#ARTIST:NCT Dream;
#TITLETRANSLIT:;
#SUBTITLETRANSLIT:;
#ARTISTTRANSLIT:;
#GENRE:;
#CREDIT:;
#BANNER:AV.avi;
#BACKGROUND:bg.png;
#LYRICSPATH:;
#CDTITLE:;
#MUSIC:audio.ogg;
#OFFSET:-0.341000;
#SAMPLESTART:54.179001;
#SAMPLELENGTH:15.000000;
#SELECTABLE:YES;
#BPMS:0.000000=107.977997
,177.000000=53.988998
,185.000000=107.977997
;
#STOPS:
;
#BGCHANGES:0.000=MV.avi=1.200=1=0=1===CrossFade==,
6.000=MV.avi=1.000=0=0=1=====,
99999=-nosongbg-=1.000=0=0=0 // don't automatically add -songbackground-
;
#KEYSOUNDS:;
#ATTACKS:;

//---------------dance-single - ----------------
#NOTES:
     dance-single:
     :
     Challenge:
     15:
     0.873874,0.872033,1.977945,0.740775,0.626222,801.000000,542.000000,259.000000,97.000000,0.000000,78.000000,0.873874,0.872033,1.977945,0.740775,0.626222,801.000000,542.000000,259.000000,97.000000,0.000000,78.000000:
// measure 0
0000
0000
0000
0000
0000
0000
1001
0000
0100
0010
0000
1000
0110
0000
0001
0010
0000
0001
1010
0000
0001
0100
0000
0001
,  // measure 1
1010
0000
0001
0100
0000
1000
0011
0000
0100
1000
0000
0001
1010
0000
0001
0100
0000
0001
1010
0000
0100
0010
0000
0001
,  // measure 2
1100
0000
0001
0010
0000
1000
0110
0000
0001
1000
0000
0100
1010
0000
0001
0100
0000
1000
0011
0000
0100
0001
0000
1000
,  // measure 3
0101
0000
1000
0001
0000
0100
1010
0000
0001
0100
0000
1000
0110
0000
1000
0001
0000
1000
0110
0000
0001
1000
0000
0001
,  // measure 4
0110
0000
0000
0000
0001
0000
0100
0000
0000
0000
0010
0000
1100
0000
0000
0000
0001
0000
1000
0000
0000
0000
0001
0000
0110
0000
0000
0000
1000
0000
0010
0000
0000
0000
1000
0000
0011
0000
0000
0000
1000
0000
0100
0000
0000
0001
0000
0000
,  // measure 5
0110
0000
0000
0000
0001
0000
1000
0000
0000
0100
0000
0000
0012
0000
0000
0000
0000
0000
0000
0000
0000
0000
0000
0000
0100
0000
0000
0000
0010
0000
1000
0000
0000
0000
0000
0000
0010
0000
0000
0000
0000
0000
0100
0000
0000
0000
0000
0000
,  // measure 6
1013
0000
0000
0000
0000
0000
0100
0000
0000
0010
0000
0000
2001
0000
0000
0000
0000
0000
0010
0000
0000
0000
0000
0000
0101
0000
0000
0000
0000
0000
0100
0000
0000
0000
0010
0000
0101
0000
0000
0000
0000
0000
0001
0000
0000
0000
0000
0000
,  // measure 7
3110
0000
0000
0000
0000
0000
0001
0000
0000
0100
0000
0000
0020
0000
0000
0030
0000
0000
0020
0000
0000
0030
0000
0000
0020
0000
0000
0030
1000
0000
0020
0000
0000
0030
0000
0000
0020
0000
0000
0030
0000
0000
0101
0000
0000
0000
0000
0000
,  // measure 8
0010
1001
0011
0200
1001
0010
1310
1010
,  // measure 9
1001
0000
2000
3000
0110
0000
0010
0100
1001
0000
0010
1000
0011
0000
0011
0100
,  // measure 10
1001
0010
0000
0200
0011
0000
0000
0000
1310
0000
0001
0000
1100
0000
1100
0000
,  // measure 11
0011
0000
1000
0010
1100
0001
0000
1000
0101
0010
0000
0100
1010
0001
1010
0100
,  // measure 12
1001
0000
0000
0010
0000
0000
0000
0000
0000
0200
0000
0000
1010
0000
0000
0000
0000
0000
0000
0000
0000
0000
0000
0000
0311
0000
0000
0000
0000
0000
0001
0000
0000
0000
0100
0000
1010
0000
0000
0000
0000
0000
1010
0000
0000
0000
0000
0000
,  // measure 13
0101
0000
0020
1030
0011
0100
0000
0010
1001
0100
0000
0001
0110
1000
0110
0001
,  // measure 14
1010
0000
0000
0001
0000
0000
0000
0000
0000
0020
0000
0000
0000
0000
0000
0000
0000
0000
0000
0000
0000
0000
0000
0000
1100
0000
0000
0000
0000
0000
0031
0000
0000
0000
0100
0000
1010
0000
0000
0000
0000
0000
1010
0000
0000
0000
0000
0000
,  // measure 15
0010
0000
0000
0100
0000
0000
1001
0000
0000
0001
0000
0010
1100
0000
0000
0001
0000
0010
1100
0000
0000
0010
0000
0100
,  // measure 16
0011
0000
0000
2000
0000
0001
0110
0000
0000
0000
0000
0000
0101
0000
0000
0001
0000
0100
3011
0000
0000
0002
0000
0000
,  // measure 17
0113
1000
0001
0100
1010
0000
0001
0000
0101
0010
1000
0000
0011
0000
0011
1000
,  // measure 18
0101
0000
0000
0010
0000
0000
0000
0000
0000
1000
0000
0000
0110
0000
0000
0001
0000
0000
0000
0000
0000
0000
0000
0000
1001
0000
0000
0000
0000
0000
0100
0000
0000
0000
0001
0000
1010
0000
0000
0000
0000
0000
2010
0000
0000
0000
0000
0000
,  // measure 19
3110
0000
0001
0100
1010
0000
0001
0010
1001
0100
0000
0100
0011
1000
0011
0100
,  // measure 20
1001
0000
0000
0100
0000
0000
0000
0000
0000
0020
0000
0000
1100
0000
0000
0000
0000
0000
0030
0000
0000
0000
0000
0000
1010
0000
0000
0000
0000
0000
1000
0000
0000
0000
0100
0000
0011
0000
0000
0000
0000
0000
0021
0000
0000
0000
0000
0000
,  // measure 21
1031
0000
0000
0010
0100
0000
0010
0000
1000
0001
0100
0010
0000
1000
0000
0010
,  // measure 22
1001
0000
0000
0100
0000
0000
0000
0000
0000
0010
0000
0000
0101
0000
0000
1000
0000
0000
0020
0000
0000
0000
0000
0000
1001
0000
0000
0000
0000
0000
0032
0000
0000
0000
0010
0000
1103
0000
0000
0000
0000
0000
1100
0000
0000
0000
0000
0000
,  // measure 23
0110
0000
0000
0000
0000
0000
0001
0000
0000
1000
0000
0000
0110
0000
0000
0000
0000
0000
0000
0000
0000
0000
1100
0000
0011
0000
0000
0000
0000
0000
0000
0000
0000
0000
1001
0000
0110
0000
0000
0000
0000
0000
0110
0000
0000
0000
0000
0000
,  // measure 24
1002
0000
0000
0003
2000
0000
0000
0000
0011
0000
0000
0000
0012
0000
0213
0000
,  // measure 25
0321
3232
2310
0000
3120
0000
1230
1310
,  // measure 26
2010
0000
3023
0000
1200
0000
0030
0000
1302
0000
0000
0000
1203
0000
1001
0300
,  // measure 27
0012
0000
0000
0023
0000
0000
1001
0000
0000
0230
0000
0000
0312
0000
0000
2103
0000
0000
0101
0000
0000
3101
0000
0010
,  // measure 28
1001
0000
0010
1000
0000
0100
1002
0000
0000
0000
0000
0000
0120
0000
0000
0130
0000
0000
1020
0000
0000
2130
0000
0000
,  // measure 29
3120
2233
0311
0002
0123
0032
0113
0021
,  // measure 30
0131
3002
0110
2003
3201
2300
0011
3021
,  // measure 31
1001
0000
0000
0030
0000
0110
1001
0000
0000
0000
0000
1001
0110
0000
0000
0000
0000
0110
1001
0000
0000
0000
0000
1100
,  // measure 32
0011
0000
0110
0010
1001
0001
1100
1100
,  // measure 33
0011
0000
1000
0000
0011
0100
0010
0000
1100
0000
0001
0000
0110
0000
0110
0000
,  // measure 34
1001
0010
0100
0000
0110
0000
1000
0100
1001
0000
0100
0000
0011
1000
0011
0100
,  // measure 35
1001
0000
0000
0000
0000
0000
0100
0000
0000
0000
0000
0000
0011
0000
0000
0100
0000
0000
1000
0000
0000
0000
0011
0000
1100
0000
0000
0000
0000
0000
0001
0000
0000
0000
1100
0000
0011
0000
0000
0000
0000
0000
0100
0000
0000
0000
0000
0000
,  // measure 36
0100
0000
0100
0000
1010
0001
1000
0000
0011
0100
0010
1000
0110
0000
0110
0000
,  // measure 37
1001
0010
1000
0001
1010
0000
0001
0000
1001
0010
0001
0000
0101
1000
0101
0000
,  // measure 38
1001
0100
0010
0000
0210
0000
0000
0300
0011
0000
0000
0000
1001
0000
1001
0000
,  // measure 39
0110
1000
0010
0000
1002
0000
0000
0003
1010
0000
0000
0010
1001
0000
1001
0000
,  // measure 40
0110
0001
1000
0000
0110
0000
0010
0000
0101
0000
0100
0001
1010
0000
1010
0000
,  // measure 41
1100
0001
0100
0000
0110
0000
0010
0000
1001
0100
1000
0001
0110
0000
0110
0000
,  // measure 42
1001
0100
0010
0000
0120
0000
0000
0030
1001
0000
0000
0000
0110
0000
0110
0001
,  // measure 43
1010
0000
0000
0100
0000
0000
0010
0000
0000
0000
0000
0000
0200
0000
0000
0000
0000
0000
0300
0000
0000
0000
0110
0000
1001
0000
0000
0000
0000
0000
0000
0000
0000
0000
0011
0000
1100
0000
0000
0000
0000
0000
0000
0000
0000
0000
1001
0000
,  // measure 44
0120
0000
0000
0000
2031
0000
3110
0000
0002
0203
1320
0032
0203
0000
1320
0000
,  // measure 45
0032
1003
0120
0032
2003
0000
3120
0000
0230
0300
1020
0032
0000
0203
0321
2030
,  // measure 46
0000
3020
0230
0320
1032
0000
0000
0000
0120
0000
0130
0000
1020
0000
2130
0000
,  // measure 47
3120
0000
0000
0233
0000
0000
1310
0000
0001
0010
0000
0100
1010
0000
0001
0010
0000
0100
0011
0000
1000
0110
0000
0010
,  // measure 48
0101
0000
0001
0010
0000
0100
1010
0000
0000
1000
0000
0000
0110
0000
0000
0001
0000
0000
1010
0000
0000
1010
0000
0000
,  // measure 49
0011
0000
0000
0100
0000
0001
1010
0000
0000
0100
0000
0000
0011
0000
0000
0100
0000
0000
1010
0000
0000
1010
0000
0000
,  // measure 50
1100
0000
0002
0000
0110
0000
1003
0010
0101
0000
1000
0000
0110
0000
0110
0000
,  // measure 51
0011
0200
1302
0023
1230
0320
0101
2130
,  // measure 52
0011
0000
3002
0000
1010
0103
0010
0000
1001
0000
0010
0000
1100
0000
1100
0000
,  // measure 53
0011
0000
0000
0000
0000
0011
1100
0000
0000
0000
0000
0101
1010
0000
0000
0000
0000
1001
0110
0000
0000
0000
0000
0110
,  // measure 54
1001
0020
0000
0030
0000
0000
0000
0000
;

//---------------dance-single - ----------------
#NOTES:
     dance-single:
     :
     Hard:
     9:
     0.378570,0.393584,0.259653,0.297837,0.000000,347.000000,313.000000,34.000000,39.000000,0.000000,0.000000,0.378570,0.393584,0.259653,0.297837,0.000000,347.000000,313.000000,34.000000,39.000000,0.000000,0.000000:
0000
0000
1000
0000
0100
0000
1000
1000
,
0100
0000
0010
0000
1000
0000
0010
0010
,
0100
0000
0001
0000
0100
0000
0001
0001
,
1000
0000
0010
0000
0100
0000
0010
0010
,
0100
2000
0100
0010
,
3001
0002
1000
0013
,
0011
0020
1000
0100
,
1030
0000
0001
1000
0001
1000
0001
0000
,
1001
0020
1030
0002
,
1003
0000
0010
1000
0001
1000
0010
0100
,
0001
0010
0002
0000
0013
0000
2000
0000
,
3010
0000
0010
0100
0001
0100
0010
1000
,
0001
0010
0200
0000
0310
0000
2000
0000
,
3001
0000
0010
0100
0001
1000
0010
0100
,
0001
0010
0200
0000
1300
0000
0002
0000
,
1003
0110
0011
1100
,
1001
0000
0120
0000
0130
0000
0001
0010
,
0001
0000
1000
0010
1000
0001
0100
0010
,
1000
0001
0020
0000
0130
0000
0002
0000
,
1003
0000
0010
1000
0001
0100
0010
1000
,
0001
0010
0200
0000
1300
0000
1001
0000
,
0110
0021
0100
0031
,
1001
0000
0010
1000
0001
1000
0010
0000
,
0110
0000
1000
0001
1000
0001
2000
0000
,
3001
0000
1002
0000
0013
0000
0010
1000
,
0001
1000
0020
0000
0130
0000
2000
0000
,
3001
0100
0020
0000
0130
0000
2000
0000
,
3001
0000
0001
0010
0001
0010
0001
0000
,
1001
0000
0010
0000
0001
1000
0010
0100
,
0001
1000
0200
0000
0310
0000
2000
0000
,
3001
0000
0010
1000
0001
1000
0020
0000
,
0130
1001
1001
1010
,
1001
0000
0010
1000
0001
1000
0010
0000
,
0110
0000
0001
1000
0010
0000
1001
0000
,
0011
0000
0001
1000
0001
0100
0010
0100
,
0001
1000
0010
0100
0001
0010
0100
1000
,
1000
1000
0010
1000
0010
0100
0010
0100
,
0010
0100
0001
1000
0010
0100
0001
1000
,
0100
0010
0002
0000
0013
0000
1001
0010
,
0100
0001
2000
0000
3010
0000
0010
0100
,
0001
1000
0010
0010
1000
0001
0010
0010
,
0001
1000
0010
0010
0100
0001
1000
0010
,
0100
0001
2000
0000
3010
0000
0001
0010
,
0001
2001
0010
3001
,
0110
0000
2001
3010
0010
0100
0020
1030
,
0001
0100
0002
0013
1000
0010
1000
0010
,
0100
0010
1001
0000
0010
1000
0001
1000
,
0010
0100
0002
0000
0013
0100
2000
0000
,
3001
0100
0010
0100
0001
1000
0020
0000
,
0130
1001
0011
1100
,
1002
0000
1003
0010
0100
0001
0010
0010
,
0001
0000
0010
1000
0001
1000
0010
0100
,
0020
0000
1030
0001
1000
0010
0100
0100
,
0010
1001
1001
0011
,
2002
3003
0000
0000
;

//---------------dance-single - ----------------
#NOTES:
     dance-single:
     :
     Medium:
     6:
     0.276018,0.290009,0.076369,0.305474,0.000000,253.000000,243.000000,10.000000,40.000000,0.000000,0.000000,0.276018,0.290009,0.076369,0.305474,0.000000,253.000000,243.000000,10.000000,40.000000,0.000000,0.000000:
0000
1000
0001
2000
,
3001
0010
0100
0020
,
0130
0001
0010
0002
,
1003
0010
0100
0020
,
1030
2001
0010
0001
,
3010
0002
0000
1000
,
1003
0010
0100
0010
,
1000
0002
0000
0013
,
0000
2010
0001
3010
,
0001
0000
0010
0000
0100
0000
0001
1000
,
0001
0002
0013
1000
,
0010
0000
0001
1000
0010
0000
0001
0000
,
0010
2000
3010
0020
,
0130
0000
1000
0001
1000
0000
0001
0010
,
0001
0200
1300
0020
,
0130
2001
0000
0001
,
3001
0000
0010
0000
0100
0000
0010
0100
,
0010
0000
0001
0010
0001
0000
1000
0001
,
1000
0020
1000
0130
,
0001
0000
1000
0001
1000
0000
0010
0100
,
0010
2000
0100
3010
,
0001
0020
0100
1000
,
0130
0001
1000
0001
,
1000
0002
0010
0013
,
1001
0000
0010
0000
0010
0000
0010
0100
,
0010
0100
0020
0000
0100
0000
0130
0000
,
1000
0001
2000
0000
0001
0000
3001
0000
,
0010
0000
0100
0000
0100
0000
0001
1000
,
0001
0000
0010
0000
0001
0000
1000
0001
,
1000
0020
0130
2000
,
3001
0000
0100
1000
0001
0000
0020
0000
,
0130
1001
1001
1002
,
0000
0000
1003
0000
1000
0000
0010
1000
,
0010
0000
0001
0000
0010
0000
0001
0010
,
0001
0000
1000
0000
1000
0000
0001
1000
,
0001
0010
0010
0010
,
0010
0000
0100
0010
0100
0000
0001
1000
,
0001
0000
0001
0010
0001
0000
0001
1000
,
0001
0020
0130
2000
,
3001
0020
0130
0002
,
0013
0000
1000
0001
1000
0000
0010
0100
,
0010
0000
1000
0100
1000
0000
0001
0010
,
0001
2000
3001
0020
,
0130
0002
1000
1003
,
0000
0020
1030
2000
,
3001
0020
0130
0002
,
1003
0000
2000
0000
3010
0000
0001
0100
,
0010
0000
0002
0000
1003
0000
0010
1000
,
0010
0000
0200
0000
0310
0000
0001
1000
,
0001
0011
0011
1200
,
1300
0000
0010
1000
0001
0000
0010
1000
,
0001
0000
0010
0000
0010
0000
0001
0010
,
0001
0000
0010
0000
1000
0000
0010
1000
,
0010
0100
0100
0100
,
0200
0300
0000
0000
;

//---------------dance-single - ----------------
#NOTES:
     dance-single:
     :
     Easy:
     4:
     0.156010,0.166102,0.015274,0.206195,0.000000,143.000000,141.000000,2.000000,27.000000,0.000000,0.000000,0.156010,0.166102,0.015274,0.206195,0.000000,143.000000,141.000000,2.000000,27.000000,0.000000,0.000000:
0000
1000
0010
1000
,
0000
1000
0001
1000
,
0000
0001
1000
0001
,
0000
0100
0010
0100
,
0000
2000
0010
3010
,
0000
0002
0000
0000
,
1003
0010
0010
0010
,
0000
0200
0000
0310
,
0000
1000
1000
2000
,
0000
3001
0000
0001
,
0000
0020
0100
1030
,
0000
0001
0000
0001
,
0000
2000
0100
3010
,
0000
0001
0000
0010
,
0000
2000
0001
3010
,
0000
2002
0000
0000
,
3003
0010
0010
0010
,
0000
1000
0100
1000
,
0000
0002
0000
0013
,
0000
1000
0001
1000
,
0000
0200
0000
0310
,
0000
0001
0001
0001
,
0000
2000
0000
3010
,
0000
0220
0000
0330
,
0000
2000
0000
3010
,
0000
0002
0000
0013
,
0000
2000
0000
3010
,
0000
0100
0100
0100
,
0000
0020
0000
1030
,
0000
0001
0001
0001
,
0000
2000
0000
3010
,
0000
0100
0100
0100
,
0000
1000
1000
1000
,
0000
0010
1000
0010
,
0000
0001
0001
1000
,
0000
0010
0100
0010
,
0000
0001
0001
0001
,
0000
1000
0010
1000
,
0000
0200
0000
0310
,
0000
0002
0000
1003
,
0000
1000
0010
1000
,
0000
0100
0010
0100
,
0000
2000
0000
3001
,
0000
0002
0000
0003
,
0000
1000
0000
0010
,
0000
0001
0000
0010
,
0000
1000
0010
1000
,
1000
0002
0000
1003
,
0000
0010
0100
0010
,
0010
2000
0000
3001
,
0000
0001
0001
0001
,
0001
1000
0001
2000
,
0000
3010
0010
0010
,
0100
0010
0010
0010
,
0020
0000
0000
0030
0000
0000
0000
0000
;

//---------------dance-single - ----------------
#NOTES:
     dance-single:
     :
     Beginner:
     1:
     0.045821,0.082860,0.000000,0.068732,0.000000,42.000000,42.000000,0.000000,9.000000,0.000000,0.000000,0.045821,0.082860,0.000000,0.068732,0.000000,42.000000,42.000000,0.000000,9.000000,0.000000,0.000000:
0000
1000
0000
0000
,
0000
1000
0000
0000
,
0000
0001
0000
0000
,
0000
0010
0000
0000
,
0000
2000
0000
0000
,
0000
3001
0000
0000
,
0000
0002
0000
0000
,
0000
1003
0000
0000
,
0000
1000
0000
0000
,
0000
2000
0000
0000
,
0000
3010
0000
0000
,
0000
0001
0000
0000
,
0000
0002
0000
0000
,
0000
0013
0000
0000
,
0000
0020
0000
0000
,
0000
0030
0000
0000
,
0000
0000
2000
0000
0000
0000
0000
3000
,
0000
0000
0000
0000
,
0000
0000
0002
0000
0000
0000
0000
0003
,
0000
0000
0000
0000
,
0000
2000
0000
0000
,
0000
3000
0000
0000
0000
0000
0000
0000
,
0000
0020
0000
0000
,
0000
0030
0000
0000
0000
0000
0000
0000
,
0000
0010
0000
0000
,
0000
0000
0000
0000
,
0000
0001
0000
0000
,
0000
0000
0000
0000
,
0000
0001
0000
0000
,
0000
0000
0000
0000
,
0000
1000
0000
0000
,
0000
0000
0000
0000
,
0000
0001
0000
0000
,
0000
0000
0000
0000
,
0000
0010
0000
0000
,
0000
0000
0000
0000
,
0000
1000
0000
0000
,
0000
0000
0000
0000
,
0000
0010
0000
0000
,
0000
0010
0000
0000
,
0000
0001
0000
0000
,
0000
0000
0000
0000
,
0000
1000
0000
0000
,
0000
0100
0000
0000
,
0000
0010
0000
0001
,
0000
0010
0000
0000
,
0000
1000
0000
0000
,
0000
0001
0000
0000
,
0000
0000
0000
0000
,
0000
0010
0000
0000
,
0000
1000
0000
0000
,
0000
1000
0000
0000
,
0000
1000
0000
0000
,
0000
0100
0000
0000
,
0000
0100
0000
0000
;
