#TITLE:Million Ways;
#SUBTITLE:;
#ARTIST:Hrvy;
#TITLETRANSLIT:;
#SUBTITLETRANSLIT:;
#ARTISTTRANSLIT:;
#GENRE:;
#CREDIT:;
#BANNER:AV.avi;
#BACKGROUND:BG.png;
#LYRICSPATH:;
#CDTITLE:;
#MUSIC:Million Ways.mp3;
#OFFSET:-0.412000;
#SAMPLESTART:36.040001;
#SAMPLELENGTH:15.000000;
#SELECTABLE:YES;
#BPMS:0.000000=106.000000
,115.000000=53.000000
,123.000000=106.000000
;
#STOPS:
;
#BGCHANGES:0.000=MV.avi=1.000=1=1=1=StretchRewind==CrossFade==,
99999=-nosongbg-=1.000=0=0=0 // don't automatically add -songbackground-
;
#KEYSOUNDS:;
#ATTACKS:;

//---------------dance-single - ----------------
#NOTES:
     dance-single:
     :
     Challenge:
     14:
     0.749760,0.828643,1.046206,0.804109,0.808432,607.000000,486.000000,121.000000,93.000000,0.000000,40.000000,0.749760,0.828643,1.046206,0.804109,0.808432,607.000000,486.000000,121.000000,93.000000,0.000000,40.000000:
0000
0000
0000
0000
0000
0000
0000
0000
1000
0000
0100
0000
0001
0000
0010
0100
,
1001
0000
0100
0000
1000
0000
0100
0010
1100
0000
0001
0000
1000
0000
0010
0000
,
1001
0000
0000
0000
1000
0100
0000
0100
1001
0000
0010
1000
0100
0000
0001
0010
,
1100
0000
0010
0000
0100
0000
0001
0100
1010
0000
0002
0000
0003
0000
0000
0100
,
1010
0000
0002
0000
2003
0010
0000
3010
0100
0000
0010
0001
1010
0000
0100
0010
,
1001
0000
0010
0000
0100
0000
0010
0001
1100
0000
0010
0000
0100
0000
0001
0100
,
1001
0000
0000
0000
0010
0100
0000
0100
0011
0000
1000
0001
0100
0000
0010
0100
,
1001
0000
0010
0000
0100
0000
0010
0001
1100
0000
0020
0000
0030
0000
0000
0100
,
1001
0000
0010
0000
0100
0010
0000
0010
0101
0000
1000
0100
0010
0000
0100
0010
,
0101
1000
0000
0001
0100
0000
0010
0000
1200
0000
0000
0000
0300
0000
0010
0100
,
1010
0001
0000
1000
0010
0000
0100
0000
0012
0000
1000
0100
0013
0000
0001
0100
,
1001
0100
0010
0001
0010
0100
0010
0000
1100
0000
0010
0000
0000
1000
0100
0010
,
1001
0010
0100
1000
0100
0010
0100
0000
0011
0000
1000
0100
1010
0000
0000
0101
,
0000
0010
0101
1000
0110
0000
0001
1010
0100
0000
0010
0100
0010
0000
1000
0110
,
0000
0100
1010
0001
0110
0000
0010
0101
1000
0000
0100
0010
0100
0001
1000
0100
,
0010
0000
0100
0000
1000
0000
0100
0000
0010
0000
0001
0000
0010
0000
1000
0000
0100
0000
0010
0000
0001
0100
0010
1000
0100
0010
1000
0000
0001
0000
0100
0000
,
0010
0001
0010
0100
1000
0100
0010
0001
0020
0000
0130
0000
0110
0000
0000
1100
,
0011
0000
1010
0000
0101
0000
0000
0010
1100
0000
0010
0000
0101
0000
1000
0100
,
1010
0001
0010
0100
1001
0100
0010
0001
1010
0000
0100
0000
0120
0000
0000
0032
,
2103
0000
3020
0000
0231
0000
0000
0010
2301
0000
3002
0000
0113
0000
0000
0000
,
0110
0000
0000
0000
0000
0000
0000
0000
0000
0000
0000
0000
0000
0000
0000
0000
1000
0000
0000
0000
0000
0000
0000
0000
0000
0000
0000
0000
0000
0000
0000
0000
0001
0000
0000
0000
0000
0000
0000
0000
0000
0000
0000
0000
0000
0000
0000
0000
0110
0000
0000
0000
0000
0000
0000
0000
0000
0000
0000
0000
0000
0000
0000
0000
0000
0000
0000
0000
0000
0000
0000
0000
1000
0000
0000
0000
0000
0000
0001
0000
0000
0000
0000
0000
0100
0000
0000
0000
0000
0000
0010
0000
0000
0000
0000
0000
1000
0000
0000
0000
0000
0000
0000
0000
0000
0000
0000
0000
0000
0000
0000
0000
0000
0000
0000
0000
0000
0000
0000
0000
0001
0000
0000
0000
0000
0000
0000
0000
0000
0000
0000
0000
0000
0000
0000
0000
0000
0000
0000
0000
0000
0000
0000
0000
0120
0000
0000
0000
0000
0000
0000
0000
0000
0000
0000
0000
0000
0000
0000
0000
0000
0000
0000
0000
0000
0000
0000
0000
0000
0000
0000
0000
0000
0000
0000
0000
0000
0000
0000
0000
0032
0000
0000
0000
0000
0000
0000
0000
0000
0000
0000
0000
,
1203
0000
0320
0000
1032
0000
0000
0010
1203
0000
0302
0000
1013
0000
1000
0100
,
0010
0001
0010
0100
1000
0100
0010
0100
1000
0000
0010
0010
0200
0000
0000
0010
,
2301
0000
3002
0000
0213
0000
0000
0010
2301
0000
3002
0000
1013
0000
0000
0100
,
1001
0000
0010
0000
0100
0000
0000
0000
0000
0001
0000
0000
1000
0000
0000
0010
0000
0000
0200
0000
0000
0001
0000
0000
,
1000
0000
0001
0000
0010
0000
0001
0000
1000
0010
0000
0001
0000
0000
0001
0000
,
1000
0010
1000
0000
0001
0000
0001
0000
0010
0000
1000
0000
0302
0000
1000
0000
,
0100
0000
0010
0000
1000
0000
0010
0000
0100
0010
0000
1000
0000
0000
1000
0000
,
0100
0000
0000
0000
0010
0000
0100
0000
0023
0000
0000
0000
0000
0000
2030
0000
0000
0000
0000
0000
3020
0000
0000
0000
2000
0030
0100
0010
0000
0001
0000
0001
,
3200
0000
0010
0000
0001
0000
0320
0000
0000
0000
0000
0000
0000
0000
0002
0000
2003
0000
0000
3000
0101
0000
0000
0000
2030
0000
0001
0100
0010
0001
0010
0100
,
3002
0100
0010
0000
0100
0000
0023
0000
0000
1000
0100
0001
0100
1000
0100
1000
0100
0001
0100
1000
0100
0000
1030
0000
0110
0000
0000
0000
0000
0000
0011
0000
,
1100
0000
0101
0000
1010
0000
0000
0100
0011
0000
0100
0000
1010
0000
0001
0010
,
0101
1000
0100
0010
1001
0010
0100
1000
0101
0000
0010
0000
0210
0000
0000
2300
,
3012
0000
0203
0000
1320
0000
0000
0100
1032
0000
2003
0000
3110
0000
0000
0000
,
0110
0000
0000
0000
0000
0000
0000
0000
0000
0000
0000
0000
0000
0000
0000
0000
0001
0000
0000
0000
0000
0000
0000
0000
0000
0000
0000
0000
0000
0000
0000
0000
1000
0000
0000
0000
0000
0000
0000
0000
0000
0000
0000
0000
0000
0000
0000
0000
0110
0000
0000
0000
0000
0000
0000
0000
0000
0000
0000
0000
0000
0000
0000
0000
0000
0000
0000
0000
0000
0000
0000
0000
0001
0000
0000
0000
0000
0000
1000
0000
0000
0000
0000
0000
0010
0000
0000
0000
0000
0000
0100
0000
0000
0000
0000
0000
0001
0000
0000
0000
0000
0000
0000
0000
0000
0000
0000
0000
0000
0000
0000
0000
0000
0000
0000
0000
0000
0000
0000
0000
1000
0000
0000
0000
0000
0000
0000
0000
0000
0000
0000
0000
0000
0000
0000
0000
0000
0000
0000
0000
0000
0000
0000
0000
0210
0000
0000
0000
0000
0000
0000
0000
0000
0000
0000
0000
0000
0000
0000
0000
0000
0000
0000
0000
0000
0000
0000
0000
0000
0000
0000
0000
0000
0000
0000
0000
0000
0000
0000
0000
2300
0000
0000
0000
0000
0000
0000
0000
0000
0000
0000
0000
,
3021
0000
0230
0000
2301
0000
0000
0100
3021
0000
2030
0000
3101
0000
0001
0010
,
0101
1000
0100
0010
1001
0010
0100
0010
0101
0000
0100
1000
0021
0000
0000
1000
,
0132
0000
2003
0000
3021
0000
0000
0100
1032
0000
0203
0000
1301
0000
1100
0010
,
0000
0000
0011
0000
1000
0000
0000
0000
0000
0000
0110
0000
0001
1000
0100
0010
1001
0000
0000
0000
0110
0000
0010
0000
0210
0000
0000
0000
0000
0000
2300
0000
,
3021
0000
0230
0000
2301
0000
0000
0100
3021
0000
2030
0000
3101
0000
0001
0010
,
0101
1000
0100
0010
1001
0010
0100
0010
0101
0000
0100
1000
0021
0000
0000
1000
,
0132
0000
2003
0000
3021
0000
0000
0100
1032
0000
0203
0000
1301
0000
0000
0000
,
0100
0000
0000
0000
0010
0000
0000
0000
1000
0000
0000
0000
0020
0000
0000
0000
0000
0000
0030
0000
0000
0000
0000
0000
1000
0000
0000
0000
0001
0000
0000
0000
0110
0000
0000
0000
2001
0000
0000
0000
0000
0000
0000
0000
0000
3020
0000
0000
,
0132
0000
2003
0000
3120
0000
0000
1000
0132
0000
0023
0000
1130
0000
0100
0001
,
1100
0010
1000
0001
0110
0001
1000
0001
1100
0000
1000
0010
0102
0000
0000
0010
,
1203
0000
0000
0000
0000
0000
0320
0000
0000
0000
0000
0000
0132
0000
0000
0000
0000
0000
0000
0000
0000
1000
0000
0000
0203
0000
0000
0000
0320
0000
0000
0000
2030
0000
0000
0000
3200
0000
0000
0000
0320
0000
0000
0000
2030
0000
0000
0000
,
3002
0000
0000
0000
0103
0100
0000
0200
0000
0000
0000
0000
0300
0000
0000
0000
;

//---------------dance-single - Copied from----------------
#NOTES:
     dance-single:
     Copied from:
     Hard:
     10:
     0.501487,0.485059,0.017293,0.069171,0.471225,406.000000,404.000000,2.000000,8.000000,0.000000,0.000000,0.501487,0.485059,0.017293,0.069171,0.471225,406.000000,404.000000,2.000000,8.000000,0.000000,0.000000:
// measure 0
0000
0000
0000
0000
0000
0000
0000
0000
1000
0000
0100
0000
0010
0000
0001
0100
,  // measure 1
0001
0000
1000
0000
0010
0000
0100
0010
0100
0000
0001
0000
1000
0000
0001
0000
,  // measure 2
1000
0000
0000
0000
1000
1000
0000
1000
0001
0000
0100
0000
0010
0000
0100
0000
,  // measure 3
0010
0000
1000
0000
0001
0000
0100
0000
0010
0000
2000
0000
0000
3000
0000
0000
,  // measure 4
0001
0000
0100
0000
0010
1000
0000
1000
0010
0000
0100
0000
0001
0000
0010
0000
,  // measure 5
0100
1000
0100
0010
0001
0010
0100
0020
,  // measure 6
0030
0000
0000
0000
1000
0001
0000
0001
0100
0000
0010
0000
1000
0000
0100
0000
,  // measure 7
0010
0001
0010
0100
0010
0200
0300
0000
,  // measure 8
1000
0000
0010
0000
1000
1000
0000
0100
0000
0000
0100
0010
0100
0000
1000
0001
,  // measure 9
0000
1000
0000
0100
0010
0000
0001
0000
0020
0000
0000
0000
0030
0000
1000
0001
,  // measure 10
0000
0001
0000
0100
0010
0000
0100
0000
0002
0000
0000
0000
0003
0000
1000
0100
,  // measure 11
0010
0001
0010
0100
1000
0100
0010
0000
0100
0000
0000
0000
0000
0100
0001
0100
,  // measure 12
0010
0100
0001
0100
0010
0100
0001
0000
0010
0000
0000
0000
0000
0000
0100
1000
,  // measure 13
0000
0010
0000
0010
0100
0000
0100
0000
0020
0000
0000
0000
0030
0000
0001
1000
,  // measure 14
0000
0100
0000
0010
0100
0000
1000
0000
0002
0000
0000
0000
0003
0000
0100
0010
,  // measure 15
0100
0001
0100
0010
0100
0001
0100
0000
0010
0000
0000
0000
0000
0100
0010
1000
,  // measure 16
0001
0010
0100
1000
0100
0010
0001
0010
0100
0000
0010
0000
0100
0000
0000
1000
,  // measure 17
0100
0000
0010
0000
0100
0000
0000
0010
0100
0000
0001
0000
1000
0000
0010
0100
,  // measure 18
0001
0100
0010
0100
0001
0100
0010
0100
0001
0000
0100
0000
0010
0000
0000
1000
,  // measure 19
0001
0000
0100
0000
0010
0000
0000
1000
0001
0000
0100
0000
0010
0000
0000
1000
,  // measure 20
0010
0000
0100
0000
0001
0000
0000
1000
0010
0000
0100
0000
0001
0000
0000
0100
,  // measure 21
0001
0000
0100
0000
0010
0000
0000
1000
0010
0000
0100
0000
0010
0000
1000
0100
,  // measure 22
0010
0001
0010
0100
1000
0100
0010
0001
0010
0000
0100
0000
0010
0000
0000
0100
,  // measure 23
0001
0000
0100
0000
0010
0000
0000
1000
0010
0000
0100
0000
0001
0000
0000
0100
,  // measure 24
0010
0000
1000
0000
0001
0000
0000
0010
0100
0000
1000
0000
0001
0000
0100
0000
,  // measure 25
0010
0001
0010
0100
0001
0010
0100
1000
,  // measure 26
0001
1000
0100
0010
0100
0001
1000
0001
,  // measure 27
0100
0001
0010
0100
1000
0100
0010
0001
,  // measure 28
0010
0000
0100
0000
0010
0000
0000
0100
0000
0000
0010
0000
0020
0030
0000
0000
,  // measure 29
1001
0000
0100
0000
0010
0000
0100
0001
,  // measure 30
0100
0000
0010
0000
0100
0000
0010
0000
1000
0000
0001
0000
0110
0000
0000
1000
,  // measure 31
0001
0000
0100
0000
0010
0000
0000
0001
1000
0000
0010
0000
0100
0000
1000
0100
,  // measure 32
0010
0100
1000
0100
0010
0100
1000
0100
0010
0000
0100
0000
0010
0000
0000
0100
,  // measure 33
0001
0000
0100
0000
0010
0000
0000
1000
0010
0000
0100
0000
0001
0000
0000
1000
,  // measure 34
0001
0000
0100
0000
0010
0000
0000
0010
0100
0000
0001
0000
1000
0000
0000
0010
,  // measure 35
0100
0000
0001
0000
1000
0000
0000
0010
0100
0000
0001
0000
1000
0000
0100
0010
,  // measure 36
0100
0001
0100
0010
0100
0001
0100
0010
0100
0000
1000
0000
0001
0000
0000
1000
,  // measure 37
0100
0000
0010
0000
0100
0000
0000
0001
0010
0000
0100
0000
0010
0000
0000
1000
,  // measure 38
0010
0000
0100
0000
0010
0000
0000
0001
0100
0000
0010
0000
0100
0000
0000
0010
,  // measure 39
1000
0000
0001
0000
0100
0000
0000
0010
1000
0000
0010
0000
0100
0000
0001
0100
,  // measure 40
0010
0100
0001
0100
0010
0100
0001
0100
0010
0000
0100
0000
1000
0000
0000
0100
,  // measure 41
0010
0000
1000
0000
0001
0000
0000
0010
0100
0000
1000
0000
0001
0000
0000
0100
,  // measure 42
0010
0000
1000
0000
0001
0000
0000
0010
0100
0000
1000
0000
0001
0000
0000
0100
,  // measure 43
0010
0000
1000
0000
0001
0000
0000
0010
0100
0000
1000
0000
0001
0000
0100
0010
,  // measure 44
0100
0001
0100
0010
0100
0001
0100
0010
0100
0000
0001
0000
1000
0000
0000
0100
,  // measure 45
0010
0000
1000
0000
0001
0000
0000
0010
0100
0000
0001
0000
1000
0000
0000
0010
,  // measure 46
0100
0000
0001
0000
1000
0000
0000
0010
0100
0000
0001
0000
1000
0000
0000
0000
;

//---------------dance-single - Copied from Copied f----------------
#NOTES:
     dance-single:
     Copied from Copied f:
     Medium:
     6:
     0.261860,0.261335,0.043232,0.069171,0.000000,212.000000,207.000000,5.000000,8.000000,0.000000,0.000000,0.261860,0.261335,0.043232,0.069171,0.000000,212.000000,207.000000,5.000000,8.000000,0.000000,0.000000:
0000
0000
0000
1000
,
0100
0010
0001
0010
,
0100
0000
0010
0000
1000
0100
0010
0000
,
0001
0100
0010
1000
,
0001
0000
0100
0000
0001
1000
0001
0000
,
0100
0010
1000
0001
,
0100
0000
0010
0000
1000
0100
0010
0000
,
0001
0010
1000
0001
,
0100
0000
0010
0000
0100
0001
0100
0000
,
1000
0100
0010
0001
,
1000
0000
0010
0000
0100
0001
0100
0000
,
0010
1000
0010
0100
,
0001
0000
1000
0000
0010
0100
0001
0000
,
1000
0010
0100
0001
,
1000
0000
0010
0000
0100
0001
0100
0000
,
0010
1000
0010
0100
,
0001
0000
1000
0100
0010
0000
0100
0000
,
0001
0100
0010
0000
1000
0000
0100
0000
,
0010
0100
0001
0000
1000
0010
1000
0000
,
0100
0010
1000
0001
,
0100
0001
0100
0000
1000
0010
1000
0000
,
0100
0010
1000
0001
,
0100
0001
0100
0000
0010
1000
0010
0000
,
0100
0001
1000
0010
,
1000
0001
1000
0000
0010
0000
0200
0000
,
0010
0001
0310
0002
,
1000
0100
0013
2000
,
0100
0010
3001
0002
,
0100
1003
0000
0020
,
0130
0002
1003
2000
,
3010
0020
0130
1001
,
0010
0100
0001
0100
,
0010
0000
1000
0001
1000
0000
0010
0000
,
0100
0001
1000
0010
,
0100
0000
1000
0010
1000
0000
0100
0000
,
0010
0001
0100
0010
,
1000
0000
0100
0010
0100
0000
0001
0000
,
1000
0010
0100
0001
,
1000
0010
0100
0001
,
0100
0001
0100
0000
1000
0000
0010
0000
,
0100
0000
1000
0010
0100
0000
0001
0000
,
0100
0010
1000
0001
,
1000
0001
1000
0000
1000
0100
1000
0000
,
0010
0100
0010
0100
,
0001
0000
1000
0001
1000
0000
0010
0000
,
0100
0001
1000
1100
,
0011
0110
1001
0000
;

//---------------dance-single - ----------------
#NOTES:
     dance-single:
     :
     Easy:
     3:
     0.161810,0.200487,0.017293,0.060524,0.000000,131.000000,129.000000,2.000000,7.000000,0.000000,0.000000,0.161810,0.200487,0.017293,0.060524,0.000000,131.000000,129.000000,2.000000,7.000000,0.000000,0.000000:
0000
0000
0000
1000
,
0100
0000
0010
0100
,
0001
0000
0010
1000
,
0001
0000
0010
0100
,
0001
0000
1000
0100
,
0010
0000
0001
0100
,
0010
0000
1000
0010
,
0100
0000
0001
0100
,
0010
0000
1000
0010
,
0100
0000
0010
0000
,
0100
0000
1000
0000
,
0001
0000
0100
0000
,
0010
0000
0100
0000
,
0001
0000
1000
0000
,
0010
0000
0100
0000
,
0010
0000
0100
0010
,
0100
0010
0100
1001
,
0010
0100
0001
0000
,
1000
0010
0100
0000
,
0001
0010
1000
0000
,
0100
0010
1000
0000
,
0100
0010
0100
0000
,
0001
1000
0010
0000
,
0100
0001
0100
0000
,
1000
0001
0100
0020
,
0000
0130
0000
2000
,
0000
3001
0000
0020
,
0000
0130
0000
0002
,
0000
1003
0000
2000
,
0000
3000
0000
0020
,
0000
0030
0000
0100
,
0000
0010
0000
0100
,
0010
0100
0000
1000
,
0000
0001
0000
1000
,
0001
1000
0000
0100
,
0000
0010
0000
1000
,
0001
1000
0000
0100
,
0000
0010
0000
0001
,
0100
0001
0000
0100
,
0010
1000
0001
0100
,
0010
1000
0001
0100
,
0010
1000
0010
0100
,
0001
0100
0010
0100
,
0010
1000
0001
0100
,
0010
0100
0010
1000
,
0001
0100
0010
1000
,
0011
0000
0200
0300
0000
0000
0000
0000
;

//---------------dance-single - Copied from----------------
#NOTES:
     dance-single:
     Copied from:
     Beginner:
     1:
     0.061760,0.098892,0.017293,0.000000,0.000000,50.000000,48.000000,2.000000,0.000000,0.000000,0.000000,0.061760,0.098892,0.017293,0.000000,0.000000,50.000000,48.000000,2.000000,0.000000,0.000000,0.000000:
0000
0000
0000
0001
,
0000
0000
0000
1000
,
0000
0000
0000
1000
,
0000
0000
0000
1000
,
0000
0000
0000
0110
,
0000
0000
0000
1000
,
0000
0000
0000
1000
,
0000
0000
0000
0001
,
0000
0000
0000
0001
,
0000
0000
0000
1000
,
0000
0000
0000
0001
,
0000
0000
0000
1000
,
0000
0000
0000
0001
,
0000
0000
0000
0100
,
0000
0000
0000
0001
,
0000
0000
0000
1000
,
0000
0000
0000
0110
,
0000
0000
0000
0001
,
0000
0000
0000
0001
,
0000
0000
0000
1000
,
0000
0000
0000
0001
,
0000
0000
0000
1000
,
0000
0000
0000
0001
,
0000
0000
0000
1000
,
0000
0000
0000
0100
,
0000
0000
0000
0001
,
0000
0000
0000
1000
,
0000
0000
0000
1000
,
0000
0000
0000
0001
,
0000
0001
0000
0100
,
0000
0001
0000
1000
,
0000
0000
0000
0001
,
0000
0000
0000
0100
,
0000
0000
0000
0001
,
0000
0000
0000
0001
,
0000
0000
0000
1000
,
0000
0000
0000
0001
,
0000
0000
0000
0001
,
0000
0000
0000
0001
,
0000
0000
0000
0001
,
0000
0000
0000
0010
,
0000
0000
0000
0100
,
0000
0000
0000
0001
,
0000
0000
0000
0001
,
0000
0000
0000
1000
,
0000
0000
0000
0100
;
