#TITLE:Mean it;
#SUBTITLE:;
#ARTIST:Lauv, Lany;
#TITLETRANSLIT:;
#SUBTITLETRANSLIT:;
#ARTISTTRANSLIT:;
#GENRE:;
#CREDIT:;
#BANNER:AV.avi;
#BACKGROUND:BG.png;
#LYRICSPATH:;
#CDTITLE:;
#MUSIC:mean it.mp3;
#OFFSET:-0.127000;
#SAMPLESTART:45.080002;
#SAMPLELENGTH:16.000000;
#SELECTABLE:YES;
#BPMS:0.000000=96.019997
,164.000000=48.009998
,166.000000=96.019997
;
#STOPS:
;
#BGCHANGES:0.000=MV.avi=1.200=1=1=1=StretchRewind==CrossFade==,
4.000=MV.avi=1.000=0=0=1=====,
99999=-nosongbg-=1.000=0=0=0 // don't automatically add -songbackground-
;
#KEYSOUNDS:;
#ATTACKS:;

//---------------dance-single - ----------------
#NOTES:
     dance-single:
     :
     Challenge:
     14:
     0.726181,0.733615,1.839914,0.456621,0.580849,757.000000,483.000000,274.000000,68.000000,0.000000,61.000000,0.726181,0.733615,1.839914,0.456621,0.580849,757.000000,483.000000,274.000000,68.000000,0.000000,61.000000:
0000
0000
0000
0000
,
0000
0000
0000
0000
,
2000
0000
0010
0000
0101
0000
0000
0001
0000
0100
0010
0000
0101
0000
0010
0000
,
0000
0000
0001
0000
0110
0000
0000
0100
3020
0001
1000
0000
0101
0000
1000
0000
,
0032
0000
1000
0000
0110
0000
0000
0010
0000
0100
0010
0000
1100
0000
0010
0000
,
0000
0000
0100
0000
1010
0000
0000
0100
0000
0010
1000
0000
1010
0000
0100
0000
,
0023
0000
1000
0000
0101
0000
0000
0001
0000
1000
0001
0000
0101
0000
1000
0000
,
0000
0000
0100
0000
1001
0000
0000
0100
0000
1000
0001
0000
1100
0000
0001
0000
,
2030
0000
0000
0000
0101
0000
0000
0000
0000
0000
0000
0100
0011
0000
0100
0000
,
3020
0000
0000
0000
2130
0000
0000
0000
3020
0000
0000
0000
0030
0000
0100
0001
,
0200
0000
0000
0000
1001
0000
0010
1000
0000
0001
0000
0000
1010
0000
0001
0010
,
0000
1000
0000
0000
1010
0000
0001
0010
2300
0001
0000
0000
0011
0100
0001
0100
,
3002
0010
0000
0000
1010
0000
0100
0010
0000
0100
0000
0000
1010
0100
1000
0010
,
0000
0100
0000
0000
1010
0000
0010
1000
0000
0000
0000
0000
0110
0000
0010
0100
,
0023
0000
0000
0000
1001
0000
0100
0001
0000
1000
0000
0000
0101
0000
1000
0100
,
0000
0001
0000
0000
1001
0000
0000
1000
0000
0001
0000
0000
0101
0000
0000
1000
,
0032
0100
0000
0010
0000
0100
0000
0010
0000
1000
0000
0010
0000
0100
0000
0000
,
2003
0100
0010
3101
,
1010
0000
0000
1001
0110
0000
0110
0000
0001
0110
1001
0000
0110
0000
0000
0000
,
0110
0000
0000
0110
1001
0000
0110
0000
0110
0000
0110
1000
0001
1100
0001
0000
,
0110
0000
0000
1100
0011
0000
1010
0000
0100
1010
0101
0000
0110
0000
0000
0000
,
1100
0000
0000
1100
0011
1000
0110
0000
0110
0000
0000
1100
0011
1000
0110
0000
,
0110
0000
0000
0110
1001
0000
1100
0000
0010
1100
0011
0000
1100
0000
0000
0000
,
1001
0000
0000
0110
1001
0010
0101
0000
0010
1100
0011
0100
0011
1100
0001
0000
,
0101
0000
0000
1001
0110
0000
1100
0000
0001
0110
1001
0000
0110
0000
1000
0000
,
0110
0000
0000
1001
0110
0000
0110
0000
1001
0000
0000
1001
0120
0000
1031
0000
,
0110
0000
0000
1100
0011
0000
1001
0000
0100
0011
1100
0000
1001
0000
0000
0000
,
0110
0000
0010
1100
0011
1000
0011
0000
1100
0000
1001
0010
0100
0011
0100
0001
,
1100
0000
0001
1100
0010
0000
0011
0000
0100
0011
1100
0000
0011
0000
0000
0000
,
1001
0000
0000
1100
0011
0100
1001
0000
0011
0000
0000
1100
0011
0100
1001
0000
,
0011
0000
0000
0011
1100
0000
1010
0000
0001
1100
0011
0000
1001
0000
0000
0000
,
1100
0000
0000
1100
0011
0100
1001
0000
0100
0011
1100
0000
1001
0110
0000
0000
,
1001
0000
0000
1100
0011
0000
1001
0010
0001
1100
0011
0000
1001
0000
0100
0000
,
1010
0000
0000
1001
0110
0000
0011
0000
0000
0011
1100
0000
1001
0110
1001
0000
,
2000
0000
0020
0230
0000
0302
0000
0203
0000
0320
0000
0230
0000
0000
3302
0023
,
0000
0000
0030
1100
0011
0100
1000
0000
0001
1100
0110
0000
1002
0000
0000
2000
,
3023
0000
0200
0302
0000
0000
0203
2300
0000
3002
0000
0203
0000
0300
0230
0302
,
0000
0000
0003
1100
0011
0100
1000
0000
0010
1100
0011
0000
0200
0000
0000
0000
,
2300
0020
0030
0200
0000
0302
0000
0203
0000
0320
0000
0032
0000
0203
0000
0320
,
0000
0000
3000
1130
0011
0100
1010
0000
0001
0110
1001
0000
1200
0000
0000
0000
,
2300
0020
0000
0230
0000
0302
0000
0203
0000
0320
0000
0230
0000
0302
0000
0000
,
0203
3300
0020
0000
0230
0300
0002
0000
1203
0000
0300
0011
1001
0000
1001
0000
,
0100
1001
0110
0000
1001
0000
0000
0000
1001
0000
0000
1001
0110
0000
1001
0000
,
1001
0000
1001
0010
0100
1010
0100
0000
1002
0000
0000
1013
0101
0000
0011
0000
,
1000
0011
1100
0000
1001
0100
0010
0000
1010
0000
0000
1010
0101
0010
1001
0000
,
1001
0000
0000
1010
0101
0010
1001
0000
1020
0000
0000
1031
0110
0000
1010
0000
,
0001
1010
0101
0000
1010
0000
0000
0000
0110
0000
0000
1001
0110
0001
1100
0000
,
0001
1010
0101
0010
1001
0110
0001
0000
1100
0000
0000
0110
1001
0000
1010
0000
,
0100
1001
0110
0000
1001
0000
0010
0000
1001
0000
0000
0110
1001
0000
1001
0000
,
0011
0000
0110
1010
0102
1000
0110
0000
1203
0000
0000
1310
0101
0000
0110
0000
,
1000
0101
1010
0000
0110
0000
0000
0000
1001
0000
0001
1010
0101
0010
0101
0000
,
1010
0000
0110
0001
1000
0101
1000
0000
1010
0000
0100
1010
0001
0000
0101
0000
,
1000
0101
1010
0000
0101
0000
0000
0000
0110
0000
0000
1010
0101
1000
0110
0000
,
0101
0000
0000
1010
0101
1000
0110
0000
0101
0000
0000
0101
1010
0000
0011
0000
,
0100
1010
0101
0000
0110
0000
0000
0000
1010
0000
0000
1010
0101
1000
0110
0000
,
1000
0101
1010
0000
0110
1001
0000
0000
0110
0000
0000
1100
0011
0000
1100
0010
,
0100
0011
1100
0000
0110
0000
0001
0000
1010
0000
0000
0110
1001
0000
2000
0000
,
3020
0230
0302
2003
3000
0000
0000
0000
;

//---------------dance-single - Copied from----------------
#NOTES:
     dance-single:
     Copied from:
     Hard:
     10:
     0.413453,0.385274,0.020145,0.389471,0.543916,431.000000,428.000000,3.000000,58.000000,0.000000,0.000000,0.413453,0.385274,0.020145,0.389471,0.543916,431.000000,428.000000,3.000000,58.000000,0.000000,0.000000:
// measure 0
0000
0000
0000
0000
,  // measure 1
0000
0000
0000
0000
,  // measure 2
0000
0000
1000
0000
0010
0000
0000
1000
0000
0010
0100
0000
0010
0000
0100
0000
,  // measure 3
0000
0000
1000
0000
0010
0000
0000
0010
0000
1000
0001
0000
0010
0000
0001
0000
,  // measure 4
0000
0000
0001
0000
0010
0000
0000
0100
0000
0010
0100
0000
0001
0000
0100
0000
,  // measure 5
0000
0000
0010
0000
0100
0000
0000
0010
0000
0100
0001
0000
0100
0000
0010
0000
,  // measure 6
0000
0000
0001
0000
0010
0000
0000
1000
0000
0001
1000
0000
0010
0000
0001
0000
,  // measure 7
0000
0000
1000
0000
0001
0000
0000
0010
0000
0001
1000
0000
0010
0000
1000
0000
,  // measure 8
0200
0000
0300
0000
1010
0000
0000
0000
0000
0000
0000
0010
1000
0000
0010
0000
,  // measure 9
0200
0000
0000
0000
0302
0000
0000
0000
0203
0000
0000
0000
0300
0000
0010
1000
,  // measure 10
0020
0000
0000
0000
0000
0000
0130
0001
0000
1000
0000
0000
0000
0000
1000
0100
,  // measure 11
0000
0001
0000
0000
0000
0000
1000
0100
0000
1000
0000
0000
0000
0010
1000
0010
,  // measure 12
0000
0100
0000
0000
0000
0000
0010
0100
0000
0010
0000
0000
0000
0010
0001
0100
,  // measure 13
0000
0010
0000
0000
0000
0000
0100
0001
0000
0000
0000
0000
0000
0000
0100
0010
,  // measure 14
0200
0000
0000
0000
0000
0000
0310
1000
0000
0001
0000
0000
0000
0000
0001
0010
,  // measure 15
0000
1000
0000
0000
0000
0000
0000
0001
0000
1000
0000
0000
0000
0000
0000
0001
,  // measure 16
0000
0010
0000
0100
0000
0010
0000
0100
0000
0001
0000
0100
0000
0010
0000
0000
,  // measure 17
2000
0000
3020
0000
0230
0300
1010
0000
,  // measure 18
1000
0000
0000
0010
0100
0000
0001
0000
0010
1000
0100
0000
0010
0000
0000
0000
,  // measure 19
1000
0000
0000
1000
0010
0100
0001
0000
0100
0000
0000
1000
0010
0100
0001
0000
,  // measure 20
0100
0000
0000
0010
0100
0000
0001
0000
0010
0100
0001
0000
0100
0000
0000
0000
,  // measure 21
1000
0000
0000
0100
1000
0010
0100
0000
0001
0000
0000
1000
0010
1000
0001
0000
,  // measure 22
1000
0000
0000
0100
0010
0000
0100
0000
0001
0100
0010
0000
0100
0000
0000
0000
,  // measure 23
1000
0000
0000
1000
0010
1000
0001
0000
0100
0000
0000
0010
0100
0001
0100
0000
,  // measure 24
0010
0000
0000
0100
0010
0000
0100
0000
1000
0010
1000
0000
0001
0000
0100
0000
,  // measure 25
0010
0000
0000
0010
0100
0000
0010
0000
0010
0000
0000
0001
1100
0000
0001
0000
,  // measure 26
0001
0000
0000
0100
0010
0000
1000
0000
0010
0100
0010
0000
0100
0000
0000
0000
,  // measure 27
0001
0000
0000
0001
0100
0001
0100
0000
0010
0000
0000
0100
1000
0100
0010
0000
,  // measure 28
0100
0000
0000
0001
0100
0000
0010
0000
0000
1000
0010
0000
1000
0000
0000
0000
,  // measure 29
0100
0000
0000
0100
0010
0100
0001
0000
0100
0000
0000
1000
0010
1000
0001
0000
,  // measure 30
0100
0000
0000
0010
0100
0000
0010
0000
0001
0010
0001
0000
0100
0000
0000
0000
,  // measure 31
0010
0000
0000
0100
1000
0100
0010
0000
0100
0000
0000
0001
0100
0010
0100
0000
,  // measure 32
0010
0000
0000
0100
0010
0000
1000
0001
1000
0000
0010
0000
0100
0000
0001
0000
,  // measure 33
0100
0000
0000
0100
0010
0000
0100
0000
0000
1000
0001
0000
0100
0010
0100
0000
,  // measure 34
0020
0000
0230
0302
0000
2003
0000
3002
0000
0203
0000
0302
0000
0000
2003
3200
,  // measure 35
0000
0000
0300
0000
0000
0001
0100
0000
0002
0000
0000
0000
2003
0000
0000
0000
,  // measure 36
3020
0000
0230
2300
0000
0000
3002
0023
0000
2030
0000
3002
0000
0003
0002
2003
,  // measure 37
0000
0000
3000
0000
0000
0100
0001
0000
0200
0000
0000
0000
0302
0000
0000
0000
,  // measure 38
0023
0230
0000
0302
0000
2003
0000
3002
0000
0203
0000
2300
0000
3002
0000
0203
,  // measure 39
0000
0000
0000
0300
0000
0100
1000
0000
0200
0000
0000
0000
0302
0000
0000
0000
,  // measure 40
0023
0230
0000
0302
0000
2003
0000
3002
0000
0203
0000
0302
0000
2003
0000
0000
,  // measure 41
3002
0003
0200
0000
0302
0003
2000
0000
3020
0000
0030
0001
1000
0000
0001
0000
,  // measure 42
0000
0010
0100
0000
0010
0000
0000
0000
1000
0000
0000
0100
0010
0100
0001
0000
,  // measure 43
0100
0000
0000
1000
0100
0010
0100
0000
0002
0000
0000
0103
1000
0000
0010
0000
,  // measure 44
0000
0001
0100
0000
0010
0100
0010
0000
1000
0000
0000
0100
0010
0100
0001
0000
,  // measure 45
0100
0000
0000
0100
0010
0001
0100
0000
0020
0000
0000
1030
0100
0000
0001
0000
,  // measure 46
0000
0010
0100
0000
0010
0000
0000
0000
1000
0000
0000
0100
0010
0100
0001
0000
,  // measure 47
0100
0000
0000
1000
0100
0010
0100
0000
0001
0000
0000
0010
0100
0000
0010
0000
,  // measure 48
0100
1000
0100
0000
0100
0000
0001
0000
0100
0000
0000
0100
0010
0000
0100
0000
,  // measure 49
0100
0000
0000
0010
2000
0000
0000
0000
3010
0000
0000
0001
0100
0000
0010
0000
,  // measure 50
0000
0010
0100
0000
0010
0000
0000
0000
1000
0000
0000
1000
0100
0010
0100
0000
,  // measure 51
0001
0000
0000
0010
0100
0001
0100
0000
0010
0000
0000
1000
0001
0000
0100
0000
,  // measure 52
0000
0010
0100
0000
0010
0000
0000
0000
0001
0000
0000
0010
0100
0001
0100
0000
,  // measure 53
0010
0000
0000
0100
1000
0100
0010
0000
0100
0000
0000
0001
0100
0000
0010
0000
,  // measure 54
0000
0100
0010
0000
1000
0000
0000
0000
0100
0000
0000
0100
0001
0100
0010
0000
,  // measure 55
0100
0000
0000
1000
0100
0010
0100
0000
0010
0000
0000
0001
0100
0000
0010
0100
,  // measure 56
0010
0000
0100
0000
0001
0000
1000
0000
0010
0000
0000
0100
0010
0000
1000
0000
,  // measure 57
0100
0010
0001
0100
0000
0000
0000
0000
;

//---------------dance-single - Copied from Copied f----------------
#NOTES:
     dance-single:
     Copied from Copied f:
     Medium:
     5:
     0.270519,0.250428,0.040290,0.107440,0.003358,282.000000,276.000000,6.000000,16.000000,0.000000,0.000000,0.270519,0.250428,0.040290,0.107440,0.003358,282.000000,276.000000,6.000000,16.000000,0.000000,0.000000:
0000
0000
0000
0000
,
0000
0000
0000
0000
,
0001
1000
0100
0010
0001
0000
0100
0000
,
1000
0100
0010
0000
0010
0100
0010
0000
,
1000
0001
1000
0000
0100
0010
0100
0000
,
0001
0010
0001
0000
0100
0010
0100
0000
,
1000
0001
1000
0000
0100
0010
0100
0000
,
0001
0010
0001
0000
0100
0010
0100
0000
,
0001
1010
0000
0110
,
0100
1001
0000
0010
,
0100
0010
0100
0000
0002
0000
0103
0000
,
1000
0010
1000
0000
0020
0000
0130
0000
,
0001
1000
0001
0000
0200
0000
0310
0000
,
0001
0100
0001
0000
2000
0000
3010
0000
,
0002
0103
0020
0130
,
1000
0001
1000
0000
0200
0000
0310
0000
,
0100
0001
0100
0000
1000
0010
1000
0000
,
0001
0100
0010
1001
,
0100
0010
0100
0010
,
1000
0001
1000
0000
0100
0010
0100
0000
,
0001
0010
0001
0100
,
1000
0001
1000
0000
0100
0010
0100
0000
,
0001
0010
0100
0010
,
1000
0001
1000
0000
0100
0010
0100
0000
,
0001
0010
0100
0001
,
0100
0010
0100
0000
0010
0000
1001
0000
,
0100
0000
0010
0000
1000
0010
1000
0000
,
0100
0001
0100
0000
0010
0100
0010
0000
,
1000
0000
0001
0000
0100
1000
0100
0000
,
0010
0100
0001
0000
0010
0100
0010
0000
,
1000
0000
0001
0000
0100
0010
0100
0000
,
1000
0001
1000
0000
0100
0010
0100
0000
,
0001
0000
0010
0000
0010
0100
0001
0000
,
0100
0000
0010
0000
1000
0010
0100
0000
,
1001
0000
0100
0000
0010
0100
0001
0000
,
0200
0310
0002
1003
,
0100
0010
0100
0000
1000
0010
1000
0000
,
0002
0103
2000
3010
,
0100
0001
0100
0000
0010
0100
0001
0000
,
0020
0130
2000
3001
,
0100
0001
0000
0000
0100
0000
0000
0000
0010
0000
1000
0000
0010
0000
0000
0000
,
0100
0010
0100
0010
,
0100
0000
0010
0000
1000
0001
1000
0000
,
0100
0010
0100
0000
0002
0000
0103
0000
,
1000
0010
1000
0000
0100
0000
0010
0000
,
1000
0010
0002
0103
,
1000
0010
1000
0000
0100
0000
0010
0000
,
0100
0000
0000
0000
0010
0000
1000
0000
0002
0000
0000
0003
0100
0000
0000
0000
,
1000
0010
0100
0100
,
0010
0010
0100
0001
,
0100
0001
0100
0000
1000
0000
0010
0000
,
0100
0001
0100
0000
0010
0000
1000
0000
,
0100
0010
0100
0000
0001
0000
0010
0000
,
0100
0010
0100
0000
1000
0000
0010
0000
,
0001
0010
0001
0000
0100
0000
0010
0000
,
1000
0001
1000
0000
0010
0000
0100
0000
,
0001
0100
0010
1000
,
0100
0000
0010
0100
0000
0000
0000
0000
;

//---------------dance-single - Copied from Copied f----------------
#NOTES:
     dance-single:
     Copied from Copied f:
     Easy:
     2:
     0.141975,0.153102,0.000000,0.000000,0.000000,148.000000,148.000000,0.000000,0.000000,0.000000,0.000000,0.141975,0.153102,0.000000,0.000000,0.000000,148.000000,148.000000,0.000000,0.000000,0.000000,0.000000:
0000
0000
0000
0000
,
0000
0000
0000
0000
,
1000
0000
0100
0000
,
0010
0000
1000
0000
,
0001
0000
0100
0000
,
0010
0000
1000
0000
,
0100
0000
0010
0000
,
0001
0000
0100
0000
,
1000
0000
0100
0000
,
0010
0000
0010
0000
,
0100
0000
0100
0000
,
1000
0000
1000
0000
,
0001
0000
0001
0000
,
0010
0000
0010
0000
,
1000
0000
0100
0000
,
0010
0000
0001
0000
,
1000
0000
0100
0000
,
0010
0010
0010
0000
,
1000
0001
1000
0000
,
0100
1000
0100
0010
,
0100
0010
1000
0000
,
0001
1000
0001
0100
,
0001
0001
0100
0000
,
0010
1000
0010
0100
,
0001
0000
1000
0001
,
0100
0100
0100
0000
,
0010
0100
0010
0000
,
0001
1000
0001
0000
,
0010
0001
0010
0000
,
0100
0100
0100
0000
,
1000
0001
1000
0000
,
1000
0100
0010
0000
,
0100
0100
0010
0000
,
0100
0010
0100
0000
,
1000
0001
1000
0000
,
0100
0000
0100
0000
,
0010
0001
0010
0000
,
0100
0000
0100
0000
,
1000
0001
1000
0000
,
0010
0000
0010
0000
,
0100
0001
0100
0000
,
0010
0000
1000
0000
,
1000
0000
0001
0100
,
0001
0010
0100
0000
,
1000
0000
0100
1000
,
0100
0010
0100
0000
,
1000
0000
0001
0010
,
0100
0010
0100
0000
,
0001
0000
1000
1000
,
1000
0000
0100
0000
,
0010
0000
0100
0010
,
0100
0001
0100
0000
,
1000
0000
0100
1000
,
0010
1000
0100
0000
,
0010
0000
1000
0100
,
1000
0010
0100
0000
,
0001
0000
1000
0000
,
0100
0000
0000
0000
;

//---------------dance-single - Copied from Copied f----------------
#NOTES:
     dance-single:
     Copied from Copied f:
     Beginner:
     1:
     0.059476,0.095689,0.026860,0.000000,0.000000,62.000000,58.000000,4.000000,0.000000,0.000000,0.000000,0.059476,0.095689,0.026860,0.000000,0.000000,62.000000,58.000000,4.000000,0.000000,0.000000,0.000000:
0000
0000
0000
0000
,
0000
0000
0000
0000
,
1000
0000
0000
0000
,
0100
0000
0000
0000
,
1000
0000
0000
0000
,
0001
0000
0000
0000
,
0010
0000
0000
0000
,
0100
0000
0000
0000
,
0010
0000
0000
0000
,
1000
0000
0000
0000
,
0001
0000
0000
0000
,
0010
0000
0000
0000
,
0100
0000
0000
0000
,
0010
0000
0000
0000
,
1000
0000
0000
0000
,
0001
0000
0000
0000
,
0100
0000
0000
0000
,
1000
0000
0000
0000
,
0100
0000
0000
0000
,
0010
0000
0000
0000
,
0100
0000
0000
0000
,
1000
0000
0000
0000
,
0001
0000
0000
0000
,
1000
0000
0000
0000
,
0010
0000
0000
0000
,
0100
0000
0000
0000
,
1001
0000
0000
0000
,
0010
0000
0000
0000
,
0100
0000
0000
0000
,
0010
0000
0000
0000
,
0001
0000
0000
0000
,
1000
0000
0000
0000
,
0010
0000
0000
0000
,
1000
0000
0000
0000
,
1010
0000
0000
0000
,
1000
0000
0000
0000
,
0010
0000
0000
0000
,
0001
0000
0000
0000
,
1000
0000
0000
0000
,
0010
0000
0000
0000
,
0001
0000
0000
0000
,
1010
0000
1000
0000
,
0010
0000
0000
0000
,
1000
0000
0000
0000
,
0001
0000
0000
0000
,
0010
0000
0000
0000
,
0100
0000
0000
0000
,
0010
0000
0000
0000
,
1000
0000
0000
0000
,
1000
0000
1010
0000
,
0010
0000
0000
0000
,
0100
0000
0000
0000
,
0010
0000
0000
0000
,
0001
0000
0000
0000
,
0100
0000
0000
0000
,
0010
0000
0000
0000
,
1000
0000
0000
0000
,
0010
0000
0000
0000
;
