#VERSION:0.83;
#TITLE:Me!;
#SUBTITLE:;
#ARTIST:Taylor Swift, Brendon Urie;
#TITLETRANSLIT:;
#SUBTITLETRANSLIT:;
#ARTISTTRANSLIT:;
#GENRE:;
#ORIGIN:;
#CREDIT:;
#BANNER:AV.avi;
#BACKGROUND:bg.png;
#PREVIEWVID:;
#JACKET:jacket.png;
#CDIMAGE:;
#DISCIMAGE:;
#LYRICSPATH:;
#CDTITLE:;
#MUSIC:me.mp3;
#OFFSET:-0.371000;
#SAMPLESTART:33.880001;
#SAMPLELENGTH:16.000000;
#SELECTABLE:YES;
#BPMS:0.000=91.010,
48.000=45.505,
50.000=91.010,
118.000=45.505,
120.000=91.010,
152.000=45.505,
154.000=91.010;
#STOPS:;
#DELAYS:;
#WARPS:;
#TIMESIGNATURES:0.000=4=4;
#TICKCOUNTS:0.000=4;
#COMBOS:0.000=1;
#SPEEDS:0.000=1.000=0.000=0;
#SCROLLS:0.000=1.000;
#FAKES:;
#LABELS:0.000=Song Start;
#BGCHANGES:0.000=MV.avi=1.600=1=1=1=StretchRewind==CrossFade==,
2.000=MV.avi=1.000=0=0=1=====,
99999=-nosongbg-=1.000=0=0=0 // don't automatically add -songbackground-
;
#KEYSOUNDS:;
#ATTACKS:
;

//---------------dance-single - ----------------
#NOTEDATA:;
#CHARTNAME:;
#STEPSTYPE:dance-single;
#DESCRIPTION:;
#CHARTSTYLE:;
#DIFFICULTY:Challenge;
#METER:13;
#RADARVALUES:0.613081,0.676139,0.617230,0.544615,0.617230,591.000000,506.000000,85.000000,75.000000,0.000000,15.000000,0.000000,0.000000,0.000000,0.613081,0.676139,0.617230,0.544615,0.617230,591.000000,506.000000,85.000000,75.000000,0.000000,15.000000,0.000000,0.000000,0.000000;
#CREDIT:;
#NOTES:
0000
0000
0000
0000
,
0100
0000
0000
0000
1000
0000
0000
0000
0100
0000
0000
0000
0010
0000
0100
0010
1000
0000
0001
0000
0010
0000
0000
0000
0001
0000
0000
0000
0100
0000
1000
0001
,
0010
0000
0000
0000
1000
0000
0000
0000
0010
0000
0000
0000
0100
0000
1000
0100
0010
0000
1000
0000
0001
0000
0000
0000
0010
0000
0000
0000
0100
0000
0001
0100
,
1000
0000
0000
0000
0100
0000
0000
0000
0010
0000
0000
0000
1000
0000
0001
0010
0100
0000
1000
0000
0010
0000
0000
0000
0001
0000
0000
0000
1000
0000
0100
0001
,
0010
0000
0000
0000
0100
0000
1000
0000
0100
0000
0010
0000
0001
0000
0000
0000
0100
0000
1000
0100
0010
0000
0000
0000
1000
0000
0000
0000
0001
0000
0000
0000
,
0100
0000
0000
0000
0010
0000
0100
0000
0010
0000
0001
0000
0010
0000
0100
1000
0010
0000
0100
0000
1000
0000
0000
0000
0010
0000
0000
0000
0100
0000
0010
1000
,
0010
0000
0000
0000
0100
0000
1000
0000
0100
0000
0010
0000
0001
0000
1000
0100
0010
0000
0001
0000
0100
0000
0000
0000
0010
0000
0000
0000
1000
0000
0100
0010
,
0001
0000
0000
0000
1000
0000
0100
0000
0010
0000
0001
0000
0100
0000
1000
0010
0100
0000
1000
0000
0010
0000
0000
0000
0100
0000
0000
0000
0010
0000
1000
0001
,
0100
0000
0000
0000
0010
0000
1000
0000
0100
0000
0010
0000
0001
0000
0000
0000
0100
0000
0001
1000
0010
0000
0000
0000
1000
0000
0000
0000
0001
0000
1000
0000
,
0110
0000
1000
0000
0100
0000
0000
0000
1001
0000
0000
0000
0010
0000
0100
0010
1001
0000
0010
0000
0000
0000
0100
0000
1010
0000
0100
0000
0000
0000
0000
0000
,
1010
0000
0001
0000
0100
0000
0000
0000
0110
0000
0000
0000
1000
0000
0100
0010
1001
0000
0010
0000
0000
0000
0100
0000
1010
0000
0001
0000
0000
0000
0000
0000
,
1001
0000
0010
0000
0100
0000
0000
0000
0011
0000
0000
0000
1000
0000
0010
0001
1100
0000
0010
0000
0000
0000
0100
0000
1001
0000
0010
0000
0000
0000
0100
0000
,
1000
1000
0100
0010
0001
0001
0010
0100
0010
0001
1000
0000
0200
0300
0200
0300
2010
0000
0000
0000
0001
0000
0000
0000
0110
0000
0000
0000
3001
0000
0000
0000
,
0000
0000
0200
0300
0210
0300
0020
0000
0100
0030
0020
0000
1001
0000
0032
0000
,
0000
0003
0100
0000
0011
0000
1000
0000
0100
0010
0001
0010
0101
1000
0200
0000
,
0000
0000
0310
0000
1010
0000
0001
0000
0100
1000
0100
0010
1001
0010
0200
0000
,
0300
0000
2000
3000
2001
3000
2000
0000
0100
0000
0100
0000
3011
0000
0100
0000
,
0000
0000
0020
0030
1020
0030
0020
0000
0100
0000
0230
0000
1001
0000
0320
0000
,
0000
0000
0130
0000
1100
0000
0010
0000
0100
1000
0100
0010
1001
0010
0200
0000
,
0000
0000
1300
0000
1001
0000
0010
0000
1000
0100
0010
1000
0011
0100
0020
0000
,
0000
0000
0000
0000
0130
0000
0000
0000
1001
0000
0000
0000
0100
0000
0010
0000
0101
0000
1000
0000
0100
0000
0010
0000
1001
0000
0010
0000
0100
0000
0010
0100
,
1001
0000
0100
0000
0010
0000
0000
0000
0200
0000
0300
0000
0200
0000
0300
0000
0200
0000
0000
0000
0000
0000
0000
0000
1001
0000
0300
0000
0000
0000
0010
1000
,
0100
1000
0100
0000
1001
0000
0100
0000
0100
0000
0100
0000
1001
0000
0010
0100
,
0000
0000
0100
0000
1001
0000
0100
0000
0100
0000
0100
0000
1100
0000
0010
0100
,
0000
0000
1000
0000
1001
0000
0010
0000
0010
0000
0010
0000
1001
0000
0010
0100
,
0000
0000
0000
0000
0100
0000
0000
0000
0012
0000
0000
0000
0003
0000
1000
0000
0100
0000
0010
0000
0001
0000
0010
0000
0100
0000
0100
0000
0001
0000
1000
0100
,
0010
0100
0001
0000
1010
0000
0100
0000
0100
0000
0100
0000
1010
0000
0001
0100
,
0000
0000
0010
0000
1001
0000
0010
0000
0010
0000
0010
0000
0110
0000
0001
1000
,
0000
0000
0100
0000
0101
0000
1000
0100
0010
0000
0001
0000
1010
0000
0001
0100
,
0000
0000
0000
0000
0010
0000
0000
0000
1010
0000
0000
0000
0000
0000
1000
0000
0100
0010
0001
0010
0100
1000
0100
0010
0001
0010
0100
0000
1002
0003
1002
0003
,
0102
0000
0000
0000
0213
0000
0001
0000
2300
0000
3200
0300
0210
0300
0020
0000
,
0100
0030
0020
0000
1001
0000
0032
1000
0010
0003
0100
0000
0011
0000
1000
0000
,
0100
0010
0001
0010
0101
1000
0200
0000
0001
0010
1300
0001
1010
0100
0002
0000
,
0103
1000
0100
0010
1001
0010
0100
0000
0010
0100
2000
3000
2001
3000
2000
0000
,
0100
0000
0100
0000
3011
0000
0100
0000
0000
0000
0020
0030
1020
0030
0020
0000
,
0100
0230
1001
0320
0000
0032
1100
0013
,
0100
1000
0100
0010
1001
0010
0200
0000
0000
0000
0320
0000
1001
0000
0100
0000
,
1030
0100
0010
1000
0011
0100
0020
0000
0000
0000
0130
0000
1001
0000
0100
0010
,
0101
0000
1000
0000
0100
0000
0010
0000
1001
0000
0010
0000
0100
0000
0010
0100
1001
0000
0100
0000
0010
0000
0000
0000
0200
0000
0300
0000
0200
0000
0300
0000
0200
0000
0000
0000
0000
0000
0000
0000
0010
0000
0000
0000
0000
0000
0000
0000
1001
0000
0000
0000
0300
0000
0000
0000
0010
0000
0000
0000
0100
0000
0000
0000
,
0000
0000
0002
0003
0102
0003
0002
0000
1000
0000
0203
0000
1010
0000
0302
0100
,
0000
0003
1000
0000
0011
0000
0100
0000
1000
0100
0010
0001
1010
0100
0020
0000
,
0000
0030
2000
3000
2010
0000
3200
0000
0310
0001
0010
0100
1001
0100
0010
0000
,
0000
0000
2000
3000
2010
3000
2000
0000
0100
0000
0010
0000
0101
3000
0010
0100
,
0000
0000
0020
0030
1020
0030
0020
0100
1000
0000
0230
0000
0011
0000
2300
0010
,
0000
0000
3100
0000
1001
0000
0010
0000
1000
0100
0010
0001
1010
0100
0020
0000
,
0000
0030
2000
3000
2001
0000
0100
0000
3010
0001
0010
0100
0011
1000
0020
0000
,
0000
0030
0100
0000
0011
0000
1000
0010
0100
0010
1000
0010
0100
1000
0100
0010
,
0001
0010
0100
0000
0020
0030
0020
0030
0020
0000
0000
0000
0030
0000
0000
0000
;

//---------------dance-single - Copied from----------------
#NOTEDATA:;
#CHARTNAME:Copied from;
#STEPSTYPE:dance-single;
#DESCRIPTION:Copied from;
#CHARTSTYLE:;
#DIFFICULTY:Hard;
#METER:9;
#RADARVALUES:0.423244,0.433990,0.000000,0.254154,0.413907,408.000000,408.000000,0.000000,35.000000,0.000000,0.000000,0.000000,0.000000,0.000000,0.423244,0.433990,0.000000,0.254154,0.413907,408.000000,408.000000,0.000000,35.000000,0.000000,0.000000,0.000000,0.000000,0.000000;
#CREDIT:Copied from;
#NOTES:
0000
0000
0000
0000
,
0001
0000
0000
0100
0010
1000
0010
0100
0010
0000
0100
0000
0010
0000
0100
0000
,
0002
0000
0000
0103
1000
0100
0010
0001
0010
0000
0100
0000
0010
0000
1000
0000
,
0020
0000
0000
0130
1000
0100
0010
0001
0010
0000
0100
0000
0010
0000
1000
0000
,
0002
0000
0000
0103
1000
0100
0010
0000
0001
0000
0010
0000
0100
0000
0010
0000
,
1000
0000
0000
1000
0100
0010
0001
0010
0100
0000
0010
0000
1000
0000
0010
0000
,
0200
0000
0000
1300
0100
0010
0100
0000
0001
0000
0010
0000
0100
0000
1000
0000
,
0020
0000
0000
0130
0010
0100
0001
0100
0010
0000
0100
0000
1000
0000
0100
0000
,
0020
0000
0000
1030
0100
0010
0001
0000
0010
0000
0100
0000
0010
0000
0100
0001
,
0100
0001
0100
0000
1000
0000
0100
0010
0000
0010
0000
0010
0100
0010
0000
0000
,
1000
0100
0010
0000
0001
0000
0010
0100
0000
0100
0000
0100
0010
0100
0000
0000
,
1000
0100
0010
0000
0001
0000
0001
1000
0000
1000
0000
1000
0001
1000
0000
0000
,
0010
0100
0001
1000
0010
0100
0000
0000
2000
0000
0000
0000
0000
0000
3000
0000
,
0000
1000
1000
2000
0000
3200
0000
0320
,
0000
0000
0130
0000
0100
0000
0100
0000
0001
0010
0100
1000
0010
0100
2000
0000
,
0000
0000
3100
0000
0100
0000
0100
0000
1000
0100
0010
0001
0010
0100
0010
0000
,
0000
1000
1000
2000
0000
0000
3100
0010
,
0000
0001
0001
0002
0000
0203
0000
0320
,
0000
0000
1030
0000
1000
0000
1000
0000
0100
0010
0100
0001
0100
0010
0200
0000
,
0000
0000
0310
0000
0010
0000
0010
0000
1000
0010
0100
0001
0100
0010
0200
0000
,
0000
0000
0000
0000
0310
0000
1000
0100
0010
0001
0010
0100
0010
0001
0100
0001
,
0010
0100
0010
0000
0100
0000
0100
0000
0200
0000
0000
0000
0310
0000
0000
0000
,
0002
0000
0000
0000
1003
0000
0000
0000
0100
0000
1000
0000
0100
0000
0100
0010
,
0000
0000
0010
0000
0010
0000
0000
0000
1000
0000
0100
0000
0010
0000
0001
0100
,
0000
0000
0100
0000
0010
0000
0000
0000
1000
0000
0100
0000
0010
0000
0001
0010
,
0000
0000
0100
0000
0010
0000
0000
1000
0100
0010
0100
1000
0100
0010
0100
1000
,
0100
0010
0100
0000
0010
0000
0000
0000
0001
0000
0001
0000
0010
0000
0010
0100
,
0000
0000
0100
0000
0010
0000
0000
0000
1000
0000
1000
0000
0001
0000
0001
0100
,
0000
0000
0100
0000
0010
0000
0000
0000
1000
0000
0100
0000
0010
0000
0001
0010
,
0000
0000
0100
0000
0010
0000
0000
0000
1000
0100
0010
1000
0001
0100
0000
0000
,
2000
0000
3100
0010
0000
0100
0100
0200
,
0000
0300
0020
0000
0000
0030
2000
0000
0000
3000
0100
0000
0100
0000
0100
0000
,
1000
0100
0010
0100
1000
0100
0010
0000
0001
0100
0010
0100
0001
0100
0010
0000
,
1000
0100
0010
0100
1000
0100
0010
0000
0000
0000
0001
0000
0001
0000
0002
0000
,
0000
0000
0103
0010
0000
1000
1000
2000
,
0000
3200
0000
0320
0000
0130
0100
0010
,
1000
0100
0010
0001
0010
0100
0020
0000
0000
0030
0100
0000
0100
0000
0010
0000
,
1000
0100
0010
0001
0010
0100
0020
0000
0000
0000
0130
0000
0001
0000
0100
0000
,
0010
1000
0100
0010
0001
0010
0000
0000
1000
0000
0100
0000
0010
0000
0100
0002
,
0000
0000
0103
0000
0010
0000
0000
0000
1000
0000
0100
0000
0010
0000
1000
0002
,
0000
0000
0103
0000
0010
0000
0000
0000
1000
0100
0010
0100
1000
0100
0010
0000
,
0000
0000
0100
0000
0100
0000
0010
0000
0100
0010
0100
0001
0100
0010
0100
0000
,
0000
0000
1000
0000
1000
0000
2000
0000
0100
0000
0010
0000
3001
0000
0010
0100
,
0000
0000
0001
0000
0001
0000
0001
0100
0010
0000
1000
0000
0100
0000
0010
0100
,
0000
0000
0100
0000
0010
0000
0100
0000
1000
0100
0010
0001
0010
0100
0020
0000
,
0000
0000
0031
0000
0001
0000
0010
0000
0100
1000
0100
0010
0100
1000
0200
0000
,
0000
0000
0310
0000
0100
0000
1000
0100
0010
0100
1000
0010
0100
1000
0100
0010
,
1000
0100
0010
0000
0100
0000
0100
0000
0200
0000
0000
0000
0000
0300
0000
0000
;

//---------------dance-single - Copied from Copied f----------------
#NOTEDATA:;
#CHARTNAME:Copied from Copied f;
#STEPSTYPE:dance-single;
#DESCRIPTION:Copied from Copied f;
#CHARTSTYLE:;
#DIFFICULTY:Medium;
#METER:6;
#RADARVALUES:0.259340,0.294727,0.065354,0.232369,0.000000,250.000000,241.000000,9.000000,32.000000,0.000000,0.000000,0.000000,0.000000,0.000000,0.259340,0.294727,0.065354,0.232369,0.000000,250.000000,241.000000,9.000000,32.000000,0.000000,0.000000,0.000000,0.000000,0.000000;
#CREDIT:Copied from Copied f;
#NOTES:
0000
0000
0000
0000
,
1000
0001
1000
0010
1000
0001
1000
0010
,
1000
0000
0100
0010
0100
0001
0100
0010
,
0100
0000
1000
0100
0010
0100
1000
0100
,
0010
0000
0001
0010
0100
1000
0100
0010
,
0000
0000
1000
0010
1000
0001
1000
0010
,
1000
0000
0100
0001
0100
0010
0100
0001
,
0100
0000
1000
0010
1000
0001
1000
0010
,
1000
0000
0100
0001
0100
0010
0100
0010
,
1001
0110
1100
0000
,
0011
0110
1001
0000
,
1100
0110
1001
0000
,
1000
0000
2000
3100
,
0000
0010
0010
0020
0000
0230
0000
0320
,
0000
0030
0100
0000
1000
1000
0100
0010
,
0000
0000
0001
0000
0100
0100
0010
0100
,
0000
0001
0001
0002
0000
0000
0103
0000
,
0000
1000
1000
2000
0000
3200
0000
0320
,
0000
0030
0001
0000
0100
1000
0100
0010
,
0000
0000
0001
0000
0100
0010
0100
0002
,
0000
0003
1000
0000
0100
0000
0100
0000
,
0100
0000
0010
0010
0020
0000
0130
0000
,
2000
0000
3001
0000
0100
0001
0100
0010
,
0200
0000
0310
0000
0001
1000
0010
1000
,
0002
0000
1003
0000
0100
0001
0100
0010
,
0200
0000
0310
0000
1000
0100
0010
0001
,
0010
0100
0010
0000
1000
0001
1000
0010
,
2000
0000
3010
0000
0001
0100
0010
0100
,
0002
0000
0103
0000
1000
0010
1000
0000
,
0100
0001
0100
0000
1000
0000
0000
0000
,
2000
0000
3100
0000
0000
0010
0010
0020
,
0000
0230
0000
0302
0000
0003
0100
0000
,
1000
0100
0010
0001
0000
0000
0010
0000
,
0100
0010
0100
0001
0000
1000
1000
2000
,
0000
0000
3100
0000
0000
0001
0001
0002
,
0000
2003
0000
3020
0000
0030
0100
0000
,
1000
0100
0010
0002
0000
0000
0103
0100
,
1000
0010
1000
0020
0000
0000
0130
0000
,
0001
0000
1000
0100
,
0010
0100
0010
0000
0001
0000
0010
0000
,
1000
0001
1000
0000
0100
0010
0100
0010
,
0000
0001
0001
0000
1000
0100
0010
1000
,
0000
0100
0100
0200
0000
0000
0310
0000
,
0000
0001
0001
0002
0000
0203
0000
0320
,
0000
0030
1000
0000
0100
0100
0100
0010
,
0000
0000
0001
0000
1000
1000
1000
0200
,
0000
0310
0001
0001
,
0001
0000
0100
0100
0200
0000
0300
0000
;

//---------------dance-single - Copied from Copied f----------------
#NOTEDATA:;
#CHARTNAME:Copied from Copied f;
#STEPSTYPE:dance-single;
#DESCRIPTION:Copied from Copied f;
#CHARTSTYLE:;
#DIFFICULTY:Easy;
#METER:3;
#RADARVALUES:0.164940,0.189707,0.007262,0.029046,0.000000,159.000000,158.000000,1.000000,4.000000,0.000000,0.000000,0.000000,0.000000,0.000000,0.164940,0.189707,0.007262,0.029046,0.000000,159.000000,158.000000,1.000000,4.000000,0.000000,0.000000,0.000000,0.000000,0.000000;
#CREDIT:Copied from Copied f;
#NOTES:
0000
0000
0000
0000
,
1000
0000
0100
0000
1000
0000
0010
1000
,
0010
0000
0001
0000
0010
0000
0100
0010
,
0100
0000
0001
0000
0010
0000
1000
0001
,
1000
0100
0010
1000
,
0010
0000
0100
0000
0001
0000
0100
0001
,
0100
0000
1000
0000
0010
0000
0100
0010
,
0100
0000
0001
0000
1000
0000
0010
0100
,
0010
1000
0001
0010
,
1000
1000
1000
0000
,
0010
0010
0010
0000
,
0100
0100
0100
0000
,
0001
0000
1000
0100
,
0010
0100
0010
1000
,
0001
0100
0010
1000
,
0010
0100
0001
0100
,
0010
0100
0001
1000
,
0010
0100
0010
1000
,
0001
0100
0010
1000
,
0010
0100
0010
0100
,
0001
1000
0001
0001
,
0001
0000
0100
0010
,
0100
0010
1000
1000
,
1000
0000
0100
0100
,
0100
0000
0010
0010
,
0010
0000
0001
0100
,
0001
0000
0010
1000
,
0010
0000
0100
0010
,
0100
0000
0001
0010
,
0001
0000
1000
0000
,
2000
0000
3000
0010
,
0020
0000
0000
0000
0000
0030
0100
0000
,
0100
1000
0000
0010
,
0100
0100
0000
0010
,
0002
0103
0000
1000
,
2000
3100
0000
0010
,
0001
0100
0000
1000
,
0010
0100
0000
0001
,
1000
0000
0100
0100
,
0000
0010
0001
0001
,
0000
0100
0010
0100
,
0000
0001
1000
0001
,
0000
0010
0100
0010
,
0000
1000
0001
1000
,
0000
0100
0010
0100
,
0000
0001
0010
0001
,
0000
0100
1000
0000
,
0000
0000
1001
0000
;

//---------------dance-single - Copied from Copied f----------------
#NOTEDATA:;
#CHARTNAME:Copied from Copied f;
#STEPSTYPE:dance-single;
#DESCRIPTION:Copied from Copied f;
#CHARTSTYLE:;
#DIFFICULTY:Beginner;
#METER:1;
#RADARVALUES:0.089213,0.120723,0.000000,0.000000,0.000000,86.000000,86.000000,0.000000,0.000000,0.000000,0.000000,0.000000,0.000000,0.000000,0.089213,0.120723,0.000000,0.000000,0.000000,86.000000,86.000000,0.000000,0.000000,0.000000,0.000000,0.000000,0.000000,0.000000;
#CREDIT:Copied from Copied f;
#NOTES:
// measure 0
0000
0000
0000
0000
,  // measure 1
1000
0000
0000
0000
,  // measure 2
0100
0000
0000
0000
,  // measure 3
0010
0000
0000
0000
,  // measure 4
0001
0000
0000
0000
,  // measure 5
0100
0000
0000
0000
,  // measure 6
1000
0000
0000
0000
,  // measure 7
0010
0000
0000
0000
,  // measure 8
0100
0000
0000
0000
,  // measure 9
1000
1000
1000
0000
,  // measure 10
0001
0001
0001
0000
,  // measure 11
0100
0100
0100
0000
,  // measure 12
0010
0000
1000
0000
,  // measure 13
1000
0000
1000
0000
,  // measure 14
0001
0000
1000
0000
,  // measure 15
0001
0000
0001
0000
,  // measure 16
1000
0000
0001
0000
,  // measure 17
0001
0000
0001
0000
,  // measure 18
0001
0000
1000
0000
,  // measure 19
1000
0000
0100
0000
,  // measure 20
0010
0000
0001
0000
,  // measure 21
0000
0000
1000
0000
,  // measure 22
1000
0000
0100
0000
,  // measure 23
1000
0000
0010
0000
,  // measure 24
0001
0000
1000
0000
,  // measure 25
0001
0000
0100
0000
,  // measure 26
0100
0000
0001
0000
,  // measure 27
0000
0000
0001
0000
,  // measure 28
0001
0000
1000
0000
,  // measure 29
1000
0000
1000
0000
,  // measure 30
0100
0000
0001
0000
,  // measure 31
1000
0000
0010
0000
,  // measure 32
1000
0000
0001
0000
,  // measure 33
1000
0000
0100
0000
,  // measure 34
1000
0000
0001
0000
,  // measure 35
0010
0000
1000
0000
,  // measure 36
0010
0000
0100
0000
,  // measure 37
0001
0000
1000
0000
,  // measure 38
0001
0000
0100
0000
,  // measure 39
0001
0000
1000
0000
,  // measure 40
0010
0000
0100
0000
,  // measure 41
1000
0000
0001
0000
,  // measure 42
0001
0000
1000
0000
,  // measure 43
0001
0000
1000
0000
,  // measure 44
1000
0000
0001
0000
,  // measure 45
0100
0000
1000
0000
,  // measure 46
0010
0000
1000
0000
,  // measure 47
0000
0000
1000
0000
;
