#VERSION:0.83;
#TITLE:Maharajah ~Fenomeno Edition~;
#SUBTITLE:;
#ARTIST:Alice Schach and the Magic Orchestra;
#TITLETRANSLIT:;
#SUBTITLETRANSLIT:;
#ARTISTTRANSLIT:;
#GENRE:;
#ORIGIN:;
#CREDIT:;
#BANNER:AV.avi;
#BACKGROUND:bg.png;
#PREVIEWVID:;
#JACKET:jacket.png;
#CDIMAGE:;
#DISCIMAGE:;
#LYRICSPATH:;
#CDTITLE:;
#MUSIC:audio.ogg;
#OFFSET:-0.484000;
#SAMPLESTART:49.835957;
#SAMPLELENGTH:15.000000;
#SELECTABLE:YES;
#BPMS:0.000=120.015,
71.000=60.007,
81.000=120.015,
197.000=60.007,
205.000=120.015;
#STOPS:;
#DELAYS:;
#WARPS:;
#TIMESIGNATURES:0.000=4=4;
#TICKCOUNTS:0.000=4;
#COMBOS:0.000=1;
#SPEEDS:0.000=1.000=0.000=0;
#SCROLLS:0.000=1.000;
#FAKES:;
#LABELS:0.000=Song Start;
#BGCHANGES:0.000=MV.avi=1.600=1=0=1===CrossFade==,
8.000=MV.avi=1.000=0=0=1=====,
99999=-nosongbg-=1.000=0=0=0 // don't automatically add -songbackground-
;
#KEYSOUNDS:;
#ATTACKS:
;

//---------------dance-single - ----------------
#NOTEDATA:;
#CHARTNAME:;
#STEPSTYPE:dance-single;
#DESCRIPTION:;
#CHARTSTYLE:;
#DIFFICULTY:Challenge;
#METER:15;
#RADARVALUES:0.683807,0.850742,1.210339,1.620624,0.447894,700.000000,523.000000,177.000000,237.000000,0.000000,113.000000,0.000000,0.000000,0.000000,0.683807,0.850742,1.210339,1.620624,0.447894,700.000000,523.000000,177.000000,237.000000,0.000000,113.000000,0.000000,0.000000,0.000000;
#CREDIT:;
#NOTES:
// measure 0
0000
0000
0000
0000
,  // measure 1
0000
0000
0120
1032
,  // measure 2
0203
0320
2130
3020
0230
0000
1302
0000
,  // measure 3
0023
0000
0000
0230
0000
0000
0312
1000
0100
1000
0000
0000
0123
0000
0000
0000
0000
0000
0132
0000
0000
0003
0000
0000
,  // measure 4
0200
0320
2031
3020
0230
0000
1302
0000
,  // measure 5
0203
0000
0000
0302
0000
0000
1103
0010
0100
0020
0000
0000
1032
0000
0000
0000
0000
0000
1023
0000
0000
0230
0000
0000
,  // measure 6
2300
3002
2103
3020
0230
0000
1320
0032
,  // measure 7
0203
0000
0000
0320
0000
0000
1032
0100
1000
0203
0000
0000
1320
0000
0000
0000
0000
0000
2031
0000
0000
3200
0000
0000
,  // measure 8
2300
0000
0000
3200
0000
0000
0321
0000
0000
1030
0100
0000
0002
0000
0000
0000
0000
0000
0113
0000
0000
2000
0000
0000
,  // measure 9
3200
0000
0320
0000
2030
0000
0000
0000
3210
0000
0000
0000
1320
0000
0100
0030
,  // measure 10
1001
0000
0010
0000
1200
0000
0001
0300
1010
0000
0100
0000
1002
0000
0010
0003
,  // measure 11
1100
0000
0000
0000
0000
0000
0001
0000
0000
0000
0000
0000
2010
0000
0100
0000
0010
0000
0001
0000
0000
0000
0000
0000
3120
0000
0000
0000
0000
0000
1000
0000
0000
0000
0000
0000
0231
0000
0000
0000
0000
0000
0001
0000
0000
0300
0000
0000
,  // measure 12
1010
0000
0100
0000
2010
0000
0001
3000
0110
0000
1000
0000
0021
0000
0100
0030
,  // measure 13
1001
0000
0000
0010
0000
0000
1200
0001
0010
0001
0000
0000
1302
0000
0000
0010
0000
0000
1203
0000
0000
0001
0000
0000
,  // measure 14
1310
0000
0001
0000
0210
0000
1000
0000
0312
0000
0000
0000
2013
0000
0001
3000
,  // measure 15
0110
0000
0001
0000
1200
0000
0010
0300
1002
0000
0010
0003
1200
0000
0001
0300
,  // measure 16
1010
0000
0000
0001
0000
0000
0210
0000
0000
1300
0010
0001
1100
0000
0000
0010
0000
0000
0102
0000
0000
1003
0000
0000
,  // measure 17
0101
0010
2100
0001
3120
0000
1032
0003
,  // measure 18
2000
0000
3020
0000
0230
0000
0320
0000
0032
0000
0023
0000
0230
0000
0000
0300
,  // measure 19
0000
0000
0000
0000
0002
0000
0000
0000
2013
0000
0010
0000
0000
0000
3010
0001
0210
0000
0010
0000
0000
0000
1000
0000
1000
0000
0000
0000
0000
0000
0310
0000
,  // measure 20
1001
0000
1002
0000
0203
0000
0010
0001
0310
0000
2000
0000
3020
0000
0031
0100
,  // measure 21
0001
0000
0000
0000
0000
0000
0100
0000
0000
0000
0000
0000
1001
0000
0000
0000
0000
0000
0110
0000
0000
0000
0000
0000
1100
0000
0000
0011
0000
0000
1100
0000
0000
0011
1000
0000
0100
0000
0010
0000
0001
0000
0010
0000
0100
0000
1000
0000
,  // measure 22
0100
0010
0001
0010
0100
0010
1200
0000
0000
0300
0000
0000
1010
0000
0000
0002
0000
0000
0123
0000
0000
0000
0000
0000
,  // measure 23
1230
0000
0000
0000
1320
0000
0000
0000
0101
0000
0031
0100
2010
0000
3000
0000
,  // measure 24
0101
0000
2000
0000
3120
0000
0000
0000
1001
0030
0100
0001
1020
0000
0000
0000
,  // measure 25
1230
0000
2301
0000
0110
3002
1203
0000
,  // measure 26
1310
0001
0120
0000
1100
0032
0123
0000
,  // measure 27
1230
0000
0000
0000
1320
0000
0000
0000
0101
0000
0031
0100
2010
0000
0000
0000
,  // measure 28
3120
0030
1002
0000
0213
0000
1320
0000
,  // measure 29
0132
0000
2013
0000
0110
3000
1100
0000
,  // measure 30
0110
1000
0001
0100
0010
0100
1002
0000
0000
0000
0000
0000
1100
0000
0000
2003
0000
0000
3120
0000
0000
0000
0000
0000
,  // measure 31
2031
0000
0000
0000
3012
0000
0000
0000
0113
0000
1000
0001
2100
0000
3000
0000
,  // measure 32
0101
0000
2000
0000
3210
0000
0000
0000
1010
0000
0301
0010
0102
0000
0000
0000
,  // measure 33
2013
0000
0000
0000
3210
0000
0000
0000
1010
0000
0302
0000
1023
0000
0130
1000
,  // measure 34
0101
0000
0000
1000
0000
0000
0010
0000
0000
0100
0000
0000
1020
0000
0000
0000
0000
0000
0031
0000
1000
0000
0001
0000
0010
0000
0000
0000
0000
0000
0120
0000
0000
0000
0000
0000
0032
0000
0000
0000
0000
0000
0000
0000
0000
1010
0000
0000
,  // measure 35
0203
0000
0000
0010
0001
0000
1320
0000
0100
0000
1000
0000
0001
0000
1000
0230
0001
0000
2310
0000
0000
0000
0000
0000
,  // measure 36
3102
0000
0123
0000
0000
1001
0030
0000
,  // measure 37
0000
0000
0200
0000
0312
0000
0000
0110
2003
0000
0011
0000
3102
0000
0003
0000
,  // measure 38
0201
0000
0000
0000
0000
0000
0300
0000
0001
0000
1000
0000
0120
0000
0000
0000
0000
0000
0000
0000
0000
0000
0000
0000
0000
0000
0000
0030
0000
0000
0000
0000
0000
0000
0000
0000
0000
0000
0000
0000
0000
0000
0000
0000
0000
0000
0000
0000
,  // measure 39
0000
0000
0000
0000
0002
0000
0000
0000
0000
0000
0013
0100
2000
0000
0000
0000
,  // measure 40
0000
0000
3101
0020
0230
2300
3021
0230
,  // measure 41
0302
0000
0000
0023
0000
0000
1130
0001
0010
2000
0000
0000
3020
0000
0000
0230
0000
0000
1302
0000
0000
0203
0000
0000
,  // measure 42
0311
0000
0000
0100
0000
0000
1001
0000
0000
0010
0001
1000
0210
0000
0000
0320
0000
0000
1130
0001
0100
0020
0000
0000
,  // measure 43
1230
0000
0000
0310
0000
0000
1000
0001
1000
0001
1000
0001
2000
0000
0000
3200
0000
0000
0310
0100
0010
0100
0010
0100
,  // measure 44
0020
0000
0000
0000
0000
0000
1031
0000
0000
2000
0000
0000
3020
0000
0000
0230
0000
0000
1310
0001
0100
0020
0000
0000
,  // measure 45
1230
0000
0302
0023
0230
0320
2130
3002
,  // measure 46
1203
0000
0310
0010
0200
0000
0301
1000
0012
0000
1003
0001
2000
0100
0010
0000
,  // measure 47
3101
0000
0010
1000
0020
0000
0000
0000
1100
0000
0031
1000
0002
0010
0000
0000
,  // measure 48
1100
0000
0013
0100
2000
0000
0100
0000
0110
0000
0001
0000
0100
0001
0010
3000
,  // measure 49
0101
0000
0000
0000
0010
0000
0000
0000
2000
0000
3000
0000
0100
0000
0002
1000
0023
0000
0000
0100
2030
0000
0010
0000
3002
0000
0000
1000
0100
0000
0023
0000
,  // measure 50
0230
0000
0000
0300
1000
0001
0010
0100
2000
0000
0000
0000
0010
0000
3100
0010
0002
0000
0000
0010
2003
0000
0000
0000
3020
0000
0000
0000
0000
0000
0230
0000
,  // measure 51
0302
0000
0003
0000
0010
0001
0010
0100
2000
0000
0000
0000
3010
0000
0100
0000
0001
0000
0000
0000
0010
0000
0001
0000
0200
0000
0000
0000
1000
0000
0001
0000
,  // measure 52
0320
1000
0100
0001
2030
0000
0100
0010
0001
0100
3002
0010
0203
0000
1000
0001
,  // measure 53
0320
0000
0000
0100
0000
0000
1030
0000
0000
0100
0000
0000
2000
0000
0000
0000
0000
0000
0010
0000
0100
0000
0010
0000
3002
0000
0000
0010
0000
0000
0100
0000
0000
1000
0000
0000
0203
0000
0000
0000
0000
0000
1000
0000
0001
0000
1000
0000
,  // measure 54
0320
0100
1000
0001
2030
0000
0000
0000
0000
0000
0000
0000
3020
0000
0230
0000
,  // measure 55
0302
0000
1003
0100
0021
0000
0030
0000
0101
0000
2000
0000
3210
0000
0000
0000
,  // measure 56
0321
0000
0000
0000
0231
0000
0000
0000
1010
0000
1300
0010
0102
0000
0003
0000
,  // measure 57
1010
0000
0002
0000
0213
0000
0000
0000
1001
0000
0310
1000
0201
0000
0000
0000
,  // measure 58
0321
0000
0000
0000
1032
0000
0000
0000
0110
0000
2003
0000
3021
0000
1030
0100
,  // measure 59
0011
0000
0000
0100
0000
0000
1000
0000
0000
0001
0000
0000
1020
0000
0000
0000
0000
0000
0031
0000
1000
0000
0001
0000
0010
0000
0000
0000
0000
0000
0120
0000
0000
0000
0000
0000
0032
0000
0000
0000
0000
0000
0000
0000
0000
1010
0000
0000
,  // measure 60
0203
0000
0000
0011
1000
0000
1320
0000
0100
0000
1000
0000
0001
0000
1000
0230
0001
0000
2310
0000
0000
0000
0000
0000
,  // measure 61
3102
0000
0123
0000
0000
1001
0030
0000
,  // measure 62
0000
0000
0200
0000
0312
0000
0000
0110
2003
0000
0011
0000
3102
0000
0000
0000
,  // measure 63
0213
0000
0321
0000
0000
0030
0000
0000
,  // measure 64
0000
0000
2000
0000
0000
3002
0023
0000
,  // measure 65
0000
2032
0000
0000
,  // measure 66
0000
0003
0000
0000
0000
0000
0000
0000
,  // measure 67
0000
3000
0000
0000
;

//---------------dance-single - ----------------
#NOTEDATA:;
#CHARTNAME:;
#STEPSTYPE:dance-single;
#DESCRIPTION:;
#CHARTSTYLE:;
#DIFFICULTY:Hard;
#METER:10;
#RADARVALUES:0.403446,0.574826,0.280361,0.711160,0.068381,413.000000,372.000000,41.000000,104.000000,0.000000,0.000000,0.000000,0.000000,0.000000,0.403446,0.574826,0.280361,0.711160,0.068381,413.000000,372.000000,41.000000,104.000000,0.000000,0.000000,0.000000,0.000000,0.000000;
#CREDIT:;
#NOTES:
0000
0000
0000
0000
,
0000
0000
0000
0000
0000
0000
1000
0001
,
1000
0010
0100
0001
0020
0000
0031
0010
,
0001
1000
0010
0100
0020
0000
1030
0001
,
0100
0001
0010
0001
2000
0000
3001
0100
,
0010
0100
0001
0010
0002
0000
0013
0001
,
1000
0010
0100
0010
0200
0000
0310
1000
,
0001
0010
0100
0010
0002
0000
1003
0010
,
0100
0001
1000
0010
2000
0000
3010
0100
,
0010
0100
0020
0000
1030
0000
1001
0000
,
0011
0010
1000
0001
0100
0000
0011
0000
,
1001
0010
0100
0010
1000
0000
0110
0000
,
0011
0001
1000
0010
0100
0000
1100
0000
,
0110
0001
1000
0100
0010
0000
0011
0000
,
1010
0001
0100
0010
1000
0000
1100
0000
,
0011
0001
0010
0100
1000
0000
0110
0000
,
1001
0001
0010
0100
1000
0000
0110
0000
,
1001
0010
0100
0000
0001
0000
1001
0000
,
1000
0010
0100
0010
0100
0010
2000
0000
,
0000
3020
0230
0000
0302
0000
0000
0000
,
0013
0000
0010
0000
1010
0000
0010
0100
0010
0000
0100
0000
0001
0000
1000
0001
,
1000
0000
0010
0000
0100
0000
0001
0100
0001
0000
0100
0000
1000
0010
1000
0010
,
1000
0010
1000
0010
2000
0000
0000
0000
3010
0000
0100
0000
0020
0000
0000
0000
,
0230
0000
0302
0000
0013
0100
2000
0000
,
3010
0100
0002
0000
0013
0100
2000
0000
,
3020
0000
0230
0000
0301
1000
0020
0000
,
0130
0000
0012
0000
0013
0100
2000
0000
,
3020
0000
0230
0000
0301
0010
2000
0000
,
3020
0230
0302
0023
,
0032
2003
0010
0100
,
3010
0001
0200
0000
0010
0000
0302
0000
,
2003
0000
3020
0000
0100
1030
0002
0000
,
0013
0100
2000
0000
3010
0100
0020
0000
,
0230
0000
0302
0000
1003
0010
2000
0000
,
3010
0120
0130
1002
,
0013
1002
1003
0120
,
0130
0000
0000
0000
0000
0000
0000
0000
0000
0000
0000
0000
0000
0000
0000
0000
0000
0000
0000
0000
0000
0000
0000
0000
0000
0000
0000
0000
0000
0000
0000
0000
0000
0000
0000
0000
0000
0000
0000
0000
0000
0000
0000
0000
0000
0000
0000
0000
2002
0000
0000
0000
0000
0000
0000
0000
0000
0000
0000
0000
0000
0000
0000
0000
0000
0000
0000
0000
0000
0000
0000
0000
0000
0000
0000
0000
0000
0000
0000
0000
0000
0000
0000
0000
0000
0000
0000
0000
0000
0000
0000
0000
0000
0000
0000
0000
0000
0000
0000
0000
0000
0000
0000
0000
0000
0000
0000
0000
0000
0000
0000
0000
0000
0000
0000
0000
0000
0000
0000
0000
0000
0000
0000
0000
0000
0000
0000
0000
0000
0000
0000
0000
0000
3003
0000
0000
0000
0000
0000
0000
0000
0000
0000
0000
0000
0000
0000
0000
0000
0000
0000
0000
0000
0000
0000
0000
0000
0000
0000
0000
0000
0000
0000
0000
0000
0000
0000
0000
0000
0000
0000
0000
0000
0000
0000
0000
0000
0000
0000
0000
0000
0000
0000
0000
0000
0000
0000
0000
0000
0000
0000
0000
,
0000
0020
2030
3002
,
0203
0320
0000
1030
,
0000
0002
0000
0203
,
0000
0000
0310
1000
0010
1000
0010
0100
,
0001
0000
1000
1000
1001
1001
0001
0001
,
1001
1001
0010
0100
0010
0100
0001
0010
,
0001
0000
0011
0011
0010
0010
0011
0011
,
0001
0001
1000
0010
0100
0001
1000
0100
,
0010
0000
0011
0011
0001
1000
1010
1010
,
0100
0000
0010
0100
0010
0000
0100
0010
0100
0000
0010
0100
0020
0000
1000
0000
,
0130
0000
0001
0010
0002
0000
0010
0000
1003
0000
0010
0100
0020
0000
1000
0000
,
0130
0000
0001
0100
0020
0000
0100
0000
1000
0000
0100
0000
1000
0000
0100
0000
,
1030
0000
0000
0000
1002
0000
1003
0000
0010
0000
0100
0000
0020
0000
1030
0001
,
0020
0000
0031
1000
0020
0000
0130
0010
2000
0000
3020
0000
0230
0000
0301
0010
,
0002
1003
1001
0010
0100
0001
2000
0000
,
3020
0000
0230
0000
0301
0010
2000
0000
,
3002
0023
0032
2003
,
3020
0230
0010
0001
,
0310
0000
2001
0000
3010
0100
0020
0000
,
2030
0000
0000
0000
3002
0000
0000
0000
0013
0000
0010
0100
2000
0000
0000
0000
,
3010
0000
0001
0100
0002
0000
0000
0000
1003
0000
0010
1000
0200
0000
0000
0000
,
0320
0000
0032
0000
1000
0010
0203
0000
,
0310
0000
2100
0000
3100
0010
0200
0000
,
0302
0000
0023
0000
0130
0010
2000
0000
,
3002
0000
0203
0000
0000
0000
0000
0300
,
0000
0010
2000
0000
3002
0000
0023
0000
,
0032
2003
0000
3000
,
0000
0000
0220
0030
0000
0000
0020
0030
,
0000
0002
0000
0000
,
0000
0003
0000
0000
,
0000
0300
0000
0000
;

//---------------dance-single - ----------------
#NOTEDATA:;
#CHARTNAME:;
#STEPSTYPE:dance-single;
#DESCRIPTION:;
#CHARTSTYLE:;
#DIFFICULTY:Medium;
#METER:6;
#RADARVALUES:0.294037,0.367888,0.198304,0.601751,0.000000,301.000000,272.000000,29.000000,88.000000,0.000000,0.000000,0.000000,0.000000,0.000000,0.294037,0.367888,0.198304,0.601751,0.000000,301.000000,272.000000,29.000000,88.000000,0.000000,0.000000,0.000000,0.000000,0.000000;
#CREDIT:;
#NOTES:
0000
0000
0000
0000
,
0000
0000
0000
0000
0000
0000
1000
0010
,
1000
0010
2000
0000
3010
0000
0001
1000
,
0001
1000
0002
0000
1003
0000
0010
0100
,
0010
0100
0020
0000
0130
0000
1000
0001
,
1000
0001
2000
0000
3001
0000
1000
0100
,
1000
0010
2000
0000
3010
0000
0001
1000
,
0010
1000
0002
0000
0013
0000
0010
1000
,
0001
0100
0020
0000
1030
0000
0001
1000
,
0100
0010
0002
0000
0013
0000
2000
0000
,
3010
0002
0103
2000
,
3010
0210
0001
0320
,
1030
2000
3001
0002
,
0013
2010
0100
3020
,
0130
2000
3001
0002
,
0013
2001
0010
3100
,
0001
0012
0013
2010
,
3010
0010
0100
0020
,
2030
0000
3002
0000
0103
0010
2000
0000
,
3010
1001
1001
0110
,
1100
1001
0001
0001
,
0001
0000
1000
0001
1000
0001
0100
0010
,
1000
0001
0020
0000
0031
1000
0010
0000
,
0100
0000
0020
0000
1030
0001
2000
0000
,
3001
0000
0010
0000
0100
0010
0200
0000
,
0310
0002
0013
2000
,
3001
0000
0120
0000
0130
0001
2000
0000
,
3010
0002
0013
2010
,
3010
0002
0010
1000
,
0100
0020
0000
0033
,
0010
1020
1030
0002
,
0013
2000
3010
0020
,
0130
0001
2000
0000
3001
0000
0020
0000
,
0130
2000
3001
0020
,
0031
0012
0013
0020
,
1030
1002
1000
0010
,
0100
2000
0000
3003
,
0000
0020
1030
0002
,
0013
2002
0000
3003
,
0000
0020
0000
2030
,
0000
3002
1000
0010
,
0100
1003
1000
1000
,
1010
0000
0010
1000
0001
1000
0020
0000
,
0130
0011
0011
0011
,
0011
0000
0010
1000
0001
0100
0010
1000
,
0002
0010
1000
0100
,
0023
0000
0031
1000
0010
0100
0002
0000
,
1003
0000
0010
1000
0001
1000
0020
0000
,
0130
0120
0100
1000
,
0100
2030
3001
0020
,
0130
2001
3001
0020
,
0130
1100
0010
0200
,
0320
2030
3001
0020
,
0130
2001
0010
0100
,
0010
0002
0000
3003
,
0000
2001
3010
0002
,
0013
0000
0200
0000
0310
0010
0200
0000
,
0310
0100
0020
0000
1030
0000
0002
0000
,
0013
0002
1003
0020
,
0130
2010
0100
3010
,
0001
0012
0010
1000
,
0100
2000
0000
3003
,
0000
0010
0020
0100
,
0130
0200
0000
0310
,
0000
2100
0000
0100
,
0000
0020
0000
0000
,
0000
0030
0000
0000
,
0000
3000
0000
0000
;

//---------------dance-single - ----------------
#NOTEDATA:;
#CHARTNAME:;
#STEPSTYPE:dance-single;
#DESCRIPTION:;
#CHARTSTYLE:;
#DIFFICULTY:Easy;
#METER:3;
#RADARVALUES:0.183651,0.252923,0.116247,0.444475,0.000000,188.000000,171.000000,17.000000,65.000000,0.000000,0.000000,0.000000,0.000000,0.000000,0.183651,0.252923,0.116247,0.444475,0.000000,188.000000,171.000000,17.000000,65.000000,0.000000,0.000000,0.000000,0.000000,0.000000;
#CREDIT:;
#NOTES:
0000
0000
0000
0000
,
0000
0000
0000
1000
,
1000
2000
0000
3010
,
0010
0020
0000
0130
,
0100
0200
0000
0310
,
0010
0020
0000
1030
,
1000
2000
0000
3001
,
0001
0002
0000
0013
,
0010
0020
0000
0031
,
0001
0002
0000
1003
,
0010
1000
0020
0000
0130
0000
0001
0000
,
0001
1000
0002
0000
0013
0000
1000
0000
,
1000
0010
2000
0000
3010
0000
0001
0000
,
0001
0100
0002
0000
0103
0000
0010
0000
,
0010
1000
0020
0000
1030
0000
0100
0000
,
0100
1000
0200
0000
1300
0000
0010
0000
,
0010
1000
0020
0000
1030
0000
0001
0000
,
0100
1000
0200
0000
0000
0000
1300
0000
,
0000
0000
0110
0000
0000
0000
0002
0003
,
0000
2000
0000
0000
,
0000
3010
0000
0010
,
0000
0010
0010
0020
,
0000
0130
1000
0001
,
0010
0002
0000
0013
,
1000
0020
0100
1030
,
0000
0002
1000
0013
,
0000
2100
0000
3010
,
0000
0012
0000
0013
,
0000
2002
0003
3010
,
0000
0102
0000
0103
,
0000
2000
0000
0010
,
0100
0000
0002
0000
0000
0003
3010
0000
,
0000
0020
0000
0130
,
0000
0002
0000
1003
,
0000
0012
0000
1000
,
0100
0020
0000
0000
,
0033
2002
0000
3003
,
0000
0020
0030
0020
,
0030
0220
0000
0330
,
0000
2000
3000
2000
,
3000
1002
1000
0013
,
0000
2200
0300
3100
,
0000
0010
0001
0100
,
0000
2020
0030
0002
,
3003
0100
0100
0100
,
0000
2010
0000
3001
,
0000
0011
0000
1010
,
0000
0002
0000
1003
,
0000
0020
0000
1000
,
0000
0130
1000
0002
,
0003
0010
0100
0020
,
0030
1000
0000
1000
,
0000
0002
0000
1003
,
0000
0020
0000
1030
,
0000
2000
0000
3000
,
0000
0001
1000
0001
,
0000
0020
0000
0130
,
0000
1000
0010
1000
,
0000
0002
0000
0013
,
0000
2100
0010
3001
,
0000
0012
1000
0103
,
0000
2020
0000
3030
,
0000
0001
0001
1000
,
1000
0020
0000
0030
,
0000
0000
0200
0000
0000
0300
0200
0000
,
0300
0020
0000
0000
,
0000
0000
0000
0000
,
0000
0030
0000
0000
;

//---------------dance-single - Copied from----------------
#NOTEDATA:;
#CHARTNAME:Copied from;
#STEPSTYPE:dance-single;
#DESCRIPTION:Copied from;
#CHARTSTYLE:;
#DIFFICULTY:Beginner;
#METER:2;
#RADARVALUES:0.098664,0.114538,0.000000,0.218818,0.000000,101.000000,101.000000,0.000000,32.000000,0.000000,0.000000,0.000000,0.000000,0.000000,0.098664,0.114538,0.000000,0.218818,0.000000,101.000000,101.000000,0.000000,32.000000,0.000000,0.000000,0.000000,0.000000,0.000000;
#CREDIT:Copied from;
#NOTES:
0000
0000
0000
0000
,
0000
0000
0000
1000
,
0000
1000
0000
1000
,
0000
2000
0000
3010
,
0000
0001
0000
0001
,
0000
0002
0000
1003
,
0000
1000
0000
1000
,
0000
0020
0000
0130
,
0000
0100
0000
0100
,
0000
0020
0000
1030
,
0000
1000
0000
1000
,
0000
2000
0000
3001
,
0000
0001
0000
0001
,
0000
0020
0000
0130
,
0000
0100
0000
0100
,
0000
2000
0000
3001
,
0000
0001
0000
0001
,
0000
0010
0000
0010
,
0000
1000
0000
0100
,
0000
1000
0000
1000
,
0000
1000
0000
0000
,
0000
1000
0000
0000
,
0000
0100
0000
0100
,
0000
0200
0000
0000
,
0000
0310
0000
0010
,
0000
0020
0000
0000
,
0000
1030
0000
1000
,
0000
2000
0000
0000
,
0000
3010
0000
0010
,
0000
0020
0000
0030
,
0000
0200
0300
0010
,
0000
0020
0000
0030
,
0000
0001
0000
0001
,
0000
2000
0000
3000
,
0000
0010
0000
0010
,
0000
0200
0000
0300
,
0000
0010
0000
0000
,
0000
0020
0000
1030
,
0000
0002
0000
0003
,
0000
0010
0000
0010
,
0000
2000
0000
0000
,
0000
3010
0000
0000
,
0000
0002
0000
0000
,
0000
0013
0000
0000
,
0000
0200
0000
0000
,
0000
0310
0000
0000
,
0000
2000
0000
0000
,
3000
0001
0000
0000
,
0000
0020
0000
0000
,
0000
0030
0000
1000
,
0000
0000
0000
0100
,
0000
0000
0000
1000
,
0000
0020
0000
0000
,
0000
1030
0000
1000
,
0000
2000
0000
3000
,
0000
0010
0000
0010
,
0000
0020
0000
0130
,
0000
1000
0000
1000
,
0000
0002
0000
1003
,
0000
0010
0000
0010
,
0000
0200
0000
0310
,
0000
0020
0000
0000
,
0030
1000
0000
1000
,
0000
2000
0000
3000
,
0000
0020
0030
0020
,
0030
0002
0000
0000
,
0000
0000
0000
0000
,
0003
0000
0000
0000
;
